#TITLE:Nitro Mantra;
#SUBTITLE:;
#ARTIST:SamplingMasters AYA;
#TITLETRANSLIT:;
#SUBTITLETRANSLIT:;
#ARTISTTRANSLIT:;
#CRChallenge:;
#BANNER:nitro.png;
#BACKGROUND:nitro-bg.png;
#LYRICSPATH:;
#CDTITLE:!cdtitle.png;
#MUSIC:nitro.ogg;
#OFFSET:0.000;
#SAMPLESTART:35.920;
#SAMPLELENGTH:12.000;
#SELECTABLE:YES;
#BPMS:0.000=160.000;
#STOPS:;
#BGCHANGES:;
#NOTES:
     dance-single:
     Renard:
     Hard:
     12:
     0.749,0.931,0.397,0.042,0.726:
0000
0000
0000
0000
,
0000
0000
0000
0000
,
0000
0000
0000
0000
,
0000
0000
0000
0000
,
0000
0000
0000
0000
,
0000
0000
0000
0000
,
0000
0000
0000
0000
,
0000
0000
0000
0000
,
1000
0001
0101
0100
0010
1000
0100
0010
,
0001
1000
1100
1000
0010
0100
0001
1000
,
0100
0010
0011
0001
0100
0010
1000
0100
,
1000
0010
1010
0100
0001
0010
0100
1000
,
0001
0100
0101
0100
0010
1000
0100
0010
,
0001
1000
1100
1000
0010
0100
0001
1000
,
0100
1000
1010
1000
0010
0100
0001
0010
,
0100
1000
0011
0100
1000
0001
0100
0010
,
2000
0000
0000
0002
0000
0000
0000
0000
,
0000
0000
0000
0000
,
0000
0000
0000
0000
,
0000
0000
0000
0000
0000
0000
0000
3003
,
0002
0000
0000
2000
0000
0000
0000
0000
,
0000
0000
0000
0000
,
0000
0000
0000
0000
0000
0000
0000
3003
,
0001
0010
0100
1000
0001
0010
0100
1000
0100
0010
0001
1000
0100
0010
0001
1000
,
0100
0000
0100
1000
0000
0000
0010
0000
0100
0000
0001
0000
0100
0000
0010
0000
,
1000
0000
0000
0001
0100
0000
0000
0010
1000
0000
0000
0100
0010
0000
0001
0000
,
0010
0000
0000
0100
1000
0000
0001
0000
0010
0000
0100
1000
0100
0000
1000
0000
,
0001
0000
0000
0100
0010
0000
1000
0000
0010
0000
0000
0100
0010
0000
0000
0000
,
1000
0000
0001
0100
0000
0001
1000
0100
0010
0000
0001
0010
0001
1000
0001
0000
,
1000
0000
0100
1000
0010
1000
0001
0000
1000
0000
0001
0100
0001
0000
1000
0000
,
0001
0000
1000
0010
0000
1000
0001
0010
0100
0000
1000
0100
1000
0001
1000
0000
,
0001
0000
0010
0001
0100
0001
1000
0000
0001
0000
1000
0000
1001
0000
0000
0000
,
0001
0000
0010
0100
1000
0001
0100
0000
0010
1000
0001
0100
0010
1000
0100
0010
,
0001
0000
0010
0100
1000
0001
0100
0000
0010
1000
0100
0010
0001
0010
0100
1000
,
0001
0000
0100
0010
1000
0000
0100
0010
0001
0000
0010
0100
1000
0000
0001
0100
,
0010
0000
1000
0100
0010
0000
0001
0000
0010
0000
0000
0000
1001
0000
0000
0000
,
0001
0000
0010
0100
1000
0001
0100
0000
0010
1000
0100
0010
0100
1000
0001
0100
,
0010
0000
1000
0100
0010
0001
0010
0000
0100
1000
0001
0100
0010
1000
0100
0010
,
0001
0000
0010
0100
1000
0000
0001
0100
0010
0000
1000
0100
0010
0000
0001
0000
,
0010
0000
0100
1000
0001
0000
0100
0000
0010
0000
0000
0000
1001
0000
0000
0000
,
0102
0100
0100
0100
,
0100
0100
0100
0010
,
1000
1000
1000
1000
,
1000
1000
1000
0013
,
1001
1001
1001
0000
0100
0000
0001
1000
,
0000
1001
1001
0000
0010
0000
1000
0000
,
1100
1100
1100
0000
0010
0000
0010
0101
,
0000
1000
0110
0000
1000
0001
0100
0000
,
0001
0000
0100
0001
0000
1000
0001
0000
0010
0001
0000
1000
0001
0000
0100
0000
,
0001
0000
1000
0001
0000
0010
0001
0000
1000
0001
0000
0100
0001
0000
1000
0000
,
0001
0000
0010
0001
0000
1000
0001
0000
0100
0001
0000
1000
0001
0000
0010
0000
,
0001
0000
1000
0001
0000
0100
0001
0000
1000
0001
0000
0010
0001
0000
1000
0000
,
1001
0000
0000
0110
0000
0000
1001
0000
0000
1100
0000
0000
0011
0000
1100
0000
,
0101
0000
0000
1010
0000
0000
0101
0000
0000
1010
0000
0000
1100
0000
0011
0000
,
1100
0000
0000
0101
0000
0000
1010
0000
0000
0110
0000
0000
0011
0000
1100
0000
,
1001
0000
0000
1010
0000
0000
0101
0000
0000
1010
0000
0000
0101
0000
1010
0000
,
1000
0000
1000
0010
0000
0010
0100
0000
0100
0001
0000
0001
1000
0100
0010
0000
,
0001
0000
0001
0010
0000
0010
0100
0000
0100
1000
0000
1000
0001
0100
0010
0000
,
1000
0000
1000
0010
0000
0010
0100
0000
0100
0001
0000
0001
1000
0100
0010
0000
,
0001
0000
0001
0010
0000
0010
0100
0000
0100
1000
0000
1000
0001
0100
0010
0000
,
1000
0000
1000
0010
0000
0010
0100
0000
0100
0001
0000
0001
0010
0100
1000
0000
,
0001
0000
0100
0010
0000
0010
1000
0000
1000
0010
0000
0010
0100
0001
0100
0000
,
0010
0000
0010
1000
0000
1000
0100
0000
0100
0010
0000
0010
0001
0010
0100
0000
,
1000
0000
1000
0001
0000
0001
0100
0000
0100
0010
0000
0010
1000
0010
0100
0000
,
0001
0000
1000
0100
1000
0000
0001
0000
1000
0100
1000
0000
0001
0010
0100
1000
,
0001
0000
0100
0001
0100
0000
0010
0000
1000
0010
1000
0000
0100
0010
0001
0010
,
0100
0000
1000
0001
0100
0000
0001
0000
1000
0100
1000
0000
0001
0100
0010
1000
,
0100
0010
0001
1000
,
0010
0000
0100
0001
0100
0000
0010
0000
1000
0100
1000
0000
0010
0100
0001
0100
,
0010
0000
1000
0100
0010
0000
0001
0000
0010
0100
1000
0000
0001
0100
0010
1000
,
0100
0000
0010
0001
0010
0000
0100
0000
1000
0001
0100
0000
0010
1000
0001
0100
,
0010
0000
0010
0000
1000
0010
0100
0001
,
1000
0000
1000
0001
0000
0001
0100
0000
0100
0010
0000
0010
1000
0010
1000
0000
,
0010
0000
0010
0100
0000
0100
0001
0000
0001
1000
0000
1000
0100
1000
0100
0000
,
1000
0000
1000
0001
0000
0001
0010
0000
0010
0001
0000
0001
1000
0001
1000
0000
,
0001
0000
0001
0100
0000
0100
0010
0000
0010
1000
0000
1000
0010
1000
0010
0000
,
1001
0000
0000
0000
;
#NOTES:
     dance-single:
     Renard:
     Medium:
     9:
     0.609,0.610,0.321,0.017,0.346:
0000
0000
0000
0000
,
0000
0000
0000
0000
,
0000
0000
0000
0000
,
0000
0000
0000
0000
,
1000
0000
1000
1000
0000
1000
0000
1000
,
0001
0000
0001
0001
0000
0001
0000
0001
,
0001
0000
1000
0001
0000
1000
0001
0000
,
1000
0000
0001
1000
0000
1000
1001
0000
,
0001
0000
0110
0000
0010
1000
0100
0010
,
0001
0000
1100
0000
1000
0010
0100
0001
,
1000
0000
0011
0000
0100
1000
0001
0100
,
0010
0000
1001
0000
1000
0010
0100
0001
,
1000
0000
1100
0000
1000
0001
0010
0100
,
1000
0000
0101
0000
0010
1000
0100
0010
,
0001
0000
1100
0000
1000
0010
0100
0001
,
1000
0000
1100
0000
1000
0001
0100
0000
,
0010
0000
0000
0010
0000
0000
0010
0000
0000
0010
0000
0000
0010
0000
0010
0000
,
1000
0000
0000
1000
0000
0000
1000
0000
0000
1000
0000
0000
1000
0000
1000
0000
,
0001
0000
0000
0001
0000
0000
0001
0000
0000
0001
0000
0000
0001
0000
0001
0000
,
0100
0000
0000
0100
0000
0000
0100
0000
0000
0100
0000
0000
0100
0000
0100
0000
,
0001
0000
0000
0100
0000
0000
0010
0000
0000
1000
0000
0000
0010
0000
0100
0000
,
0001
0000
0000
1000
0000
0000
0100
0000
0000
0010
0000
0000
0001
0000
0010
0000
,
0100
0000
0000
1000
0000
0000
0010
0000
0000
0100
0000
0000
0001
0000
0010
0000
,
0100
1000
0100
0010
0001
0100
0010
1000
,
0001
0000
1000
0100
0010
0001
0010
0100
,
1000
0000
0000
1000
0001
0000
0000
0001
0100
0000
0000
0100
0010
0000
0000
0010
,
1000
0100
0010
0001
0010
0100
1000
0001
,
0100
0000
0000
0100
0010
0000
0000
0010
1000
0000
0000
1000
0100
0000
0000
0100
,
0010
0000
0001
0000
0010
0000
0100
0000
1000
0000
0001
0100
0001
0000
0100
0000
,
0010
0000
0000
0010
1000
0000
0000
1000
0100
0000
0000
0100
0010
0000
0000
0010
,
0001
0000
0010
0000
0100
0000
1000
0000
0001
0000
0100
0001
0100
0000
0010
0000
,
1000
0000
0000
1000
0010
0000
0000
0010
0100
0000
0000
0100
0001
0000
0001
0000
,
1000
0000
0100
0000
0010
0000
0001
0000
1000
0000
0100
1000
0100
0000
1000
0000
,
0001
0000
0100
0000
0010
0000
1000
0000
0100
0000
0010
0001
0010
0000
0100
0000
,
1000
0001
0100
0010
1000
0100
0010
0001
,
0010
0000
0000
0010
0001
0000
0010
0000
0100
0000
0000
0100
1000
0000
0010
0000
,
0100
0000
0001
0000
0100
0000
0010
0000
1000
0000
0100
0000
1000
0100
1000
0000
,
0010
0000
0100
0000
0001
0000
0010
0000
0100
0000
0010
0000
0001
0010
0001
0000
,
0010
0100
1000
0001
0100
0010
1000
0100
,
0010
0000
0000
0010
0001
0000
1000
0000
0010
0000
0000
0000
1001
0000
0000
0000
,
2001
0001
0010
0010
,
0001
0001
0010
0010
,
0001
0001
0010
0010
,
0001
0010
0100
3010
,
1002
1000
0100
0100
,
1000
1000
0010
0010
,
0100
0100
0010
0010
,
1000
0100
1003
1001
,
0001
0000
0000
0100
0000
0000
0001
0000
0000
0100
0000
0000
0010
0000
1000
0000
,
0100
0000
0000
1000
0000
0000
0100
0000
0000
1000
0000
0000
0001
0000
0010
0000
,
0001
0000
0000
0100
0000
0000
0001
0000
0000
0100
0000
0000
0010
0000
1000
0000
,
0100
0000
0000
1000
0000
0000
0100
0000
0000
1000
0000
0000
0010
0000
1000
0000
,
0001
0000
0000
0100
0000
0000
0010
0000
0000
1000
0000
0000
0001
0000
1000
0000
,
0100
0000
0000
0010
0000
0000
0001
0000
0000
1000
0000
0000
0010
0000
0100
0000
,
0010
0000
0000
1000
0000
0000
0100
0000
0000
0010
0000
0000
0001
0000
0010
0000
,
0100
1000
0001
0010
0100
1000
0001
0000
,
0100
0000
0000
1001
0000
0000
0100
0000
0000
1001
0000
0000
0100
0000
0010
0000
,
1000
0000
0000
0110
0000
0000
1000
0000
0000
0110
0000
0000
1000
0000
0100
0000
,
0010
0000
0000
0011
0000
0000
0010
0000
0000
0110
0000
0000
0010
0000
0100
0000
,
1000
0000
0000
1010
0000
0000
0010
0000
0000
0110
0000
0000
0100
0000
0010
0000
,
1000
0000
0000
0011
0000
0000
0100
0000
0000
0011
0000
0000
0100
0000
1000
0000
,
0010
0000
0000
1001
0000
0000
0100
0000
0000
1001
0000
0000
0100
0000
0010
0000
,
1000
0000
0000
0101
0000
0000
1000
0000
0000
0101
0000
0000
0010
0000
0100
0000
,
0001
0000
0000
1010
0000
0000
0100
0000
0000
1010
0000
0000
0100
0000
0001
0000
,
1000
0000
0100
0000
0100
0000
0010
0000
0001
0000
0001
0000
1000
0001
1000
0000
,
0001
0000
0100
0000
0100
0000
0010
0000
1000
0000
1000
0000
0100
1000
0100
0000
,
1000
0000
0001
0000
0001
0000
0100
0000
0010
0000
0010
0000
1000
0010
1000
0000
,
0010
0100
0001
1000
,
0100
0000
0010
0000
0010
0000
0001
0000
1000
0000
1000
0000
0010
0100
0010
0000
,
1000
0000
0001
0000
0001
0000
0100
0000
0010
0000
0010
0000
1000
0100
1000
0000
,
0100
0000
0010
0000
0010
0000
0001
0000
1000
0000
1000
0000
0010
0100
0010
0000
,
1000
0000
0010
0000
0100
0001
1000
0000
,
0001
0000
0000
0101
0000
0000
0100
0000
0000
0110
0000
0000
0010
0000
1000
0000
,
0100
0000
0000
1100
0000
0000
0100
0000
0000
0110
0000
0000
0010
0000
0001
0000
,
0100
0000
0000
0101
0000
0000
0100
0000
0000
0110
0000
0000
0010
0000
1000
0000
,
0100
0000
0000
1100
0000
0000
0100
0000
0000
0110
0000
0000
0010
0000
0001
0000
,
1001
0000
0000
0000
;
#NOTES:
     dance-single:
     Renard:
     Easy:
     6:
     0.401,0.449,0.169,0.076,0.000:
0000
0000
0000
0000
,
0000
0000
0000
0000
,
0000
0000
0000
0000
,
0000
0000
0000
0000
,
1000
0000
0000
0001
0000
0000
1000
0000
,
0010
0000
0000
0100
0000
0000
0010
0000
,
1000
0000
0000
0001
0000
0000
1000
0000
,
0001
0100
0010
1001
,
1000
0000
0001
0000
0000
0100
0010
0000
,
0100
0000
0010
0000
1000
0001
1000
0000
,
0001
0000
0100
0000
0000
0001
1000
0000
,
0100
0000
0010
0000
0001
1000
0001
0000
,
1000
0000
0010
0000
0000
0100
0001
0000
,
1000
0000
0001
0000
0010
0100
0010
0000
,
0100
0000
1000
0000
0000
0001
0100
0000
,
0010
0000
1000
0000
0001
1000
0001
0000
,
0200
0000
0000
0000
,
0000
0000
0000
0000
,
0000
0000
0000
0000
,
0000
0000
0000
0000
,
0320
0000
1000
0000
,
0100
0000
1000
0000
,
0100
0100
1000
1000
,
1030
0010
0100
0001
0100
0010
1000
0000
,
0001
0001
1000
1000
,
0001
0100
0001
0100
0001
0100
0001
0000
,
1000
1000
0100
0100
,
0010
0001
0010
0001
0010
0001
0010
0000
,
0001
0001
0010
0010
,
0100
1000
0100
1000
0100
1000
0100
0000
,
1000
1000
0001
0001
,
1000
0010
1000
0010
1000
0010
1000
0010
,
1000
1010
0100
0101
,
0001
0011
0100
1100
,
1000
1001
0100
0110
,
0010
1010
0001
0101
,
1000
1100
0001
0011
,
1000
1100
0010
0011
,
1000
1010
0001
0101
,
1000
0000
0100
0010
0001
0000
1001
0000
,
0002
1000
0100
1000
,
0100
1000
0100
1000
,
0100
1000
0100
1000
,
0100
1000
0100
1000
,
0103
0001
0100
0000
0101
0000
0000
0001
,
0000
0100
0001
0000
0101
0000
0000
0000
,
1000
0100
1000
0000
1100
0000
0000
0100
,
0000
1000
0100
0000
1100
0000
0000
0000
,
1000
1000
2000
0000
,
3001
0001
0002
0000
,
0103
0100
0200
0000
,
0310
0010
0020
0000
,
1030
0000
0000
0010
0000
0000
0100
0001
,
0200
0000
0000
0310
0000
0000
1000
0010
,
1000
0000
0000
0010
0000
0000
0100
0001
,
0200
0000
0000
0301
0000
0000
1000
0010
,
1000
0000
0010
0000
0100
0000
0001
0100
,
0001
0000
1000
0000
0100
0000
0010
0100
,
0010
0000
0001
0000
1000
0000
0010
1000
,
0010
0000
1000
0000
0010
0000
0100
0001
,
0100
0000
0001
0000
1000
0000
0100
1000
,
0100
0000
0010
0000
0001
0000
1000
0001
,
1000
0000
0001
0000
0100
0000
0010
1000
,
0010
0000
0100
0000
0001
0000
1000
0100
,
1000
0000
0001
0000
0010
0000
0100
1000
,
0100
1000
0010
0100
,
0001
0000
0010
0000
0100
0000
1000
0001
,
1000
1000
1000
1000
,
0001
0000
0100
0000
0010
0000
1000
0001
,
1000
0000
0010
0000
0100
0000
0001
1000
,
0001
0100
0010
1000
,
1000
0001
0100
0010
,
1000
0000
1000
0000
1000
0000
1000
0010
,
0100
0000
0100
0000
0100
0000
0100
0001
,
0010
0000
0010
0000
0010
0000
0010
0100
,
1000
0100
0010
0001
1000
0100
0010
0001
,
1000
0000
0000
0000
;
#NOTES:
     dance-single:
     Renard:
     Beginner:
     3:
     0.232,0.289,0.017,0.076,0.000:
0000
0000
0000
0000
,
0000
0000
0000
0000
,
0000
0000
0000
0000
,
0000
0000
0000
0000
,
0000
0000
0000
0000
,
0000
0000
0000
0000
,
0000
0000
0000
0000
,
0000
0000
0000
0000
,
0001
0000
0001
1000
,
0100
0100
0100
0000
,
1000
0000
1000
0001
,
0100
0100
0100
0000
,
0001
0000
0001
1000
,
0010
0010
0010
0000
,
1000
0000
1000
0001
,
0010
0010
0010
0000
,
0002
0000
1003
0000
,
0000
0000
0000
0000
,
0000
0000
0000
0000
,
0000
0000
0000
0000
,
2000
0000
3001
0000
,
0000
0000
0000
0000
,
0000
0000
0000
0000
,
1000
1000
1000
1000
,
0001
0100
0001
0100
,
0001
0100
0001
0100
,
0010
1000
0010
1000
,
0010
1000
0010
1000
,
0100
1000
0100
1000
,
0100
1000
0100
1000
,
0001
0010
0001
0010
,
0001
0010
0001
0010
,
0001
0100
0001
0010
,
0001
0100
0001
0010
,
0001
0100
0001
0010
,
0001
0000
0001
0000
,
1000
0100
1000
0010
,
1000
0100
1000
0010
,
1000
0100
1000
0010
,
1000
0000
1000
0000
,
0001
0000
0000
0000
,
0001
0000
0000
0000
,
0001
0000
0000
0000
,
0001
0000
0000
0000
,
1000
1000
0001
0000
,
1000
0000
1001
0000
,
0001
0001
1000
0000
,
0001
0000
1001
0000
,
2000
0000
0000
0000
,
3020
0000
0000
0000
,
2030
0000
0000
0000
,
3020
0000
0000
0000
,
0230
0000
0000
0001
,
0002
0000
0000
0003
,
0001
0000
0000
0001
,
0002
0000
0000
0303
,
0001
0001
0001
0001
,
0100
0100
0100
0100
,
0001
0001
0100
0100
,
0001
0100
0010
1000
,
0010
0010
0010
0010
,
1000
1000
1000
1000
,
0010
0010
1000
1000
,
0010
1000
0001
0100
,
0001
0000
0001
0000
,
1000
0000
0100
0000
,
0010
0001
0010
0100
,
1000
0000
0000
0000
,
0001
0000
0001
0000
,
1000
0000
1000
0000
,
0001
0100
0010
1000
,
0001
0000
0001
0000
,
1000
1000
1000
0000
,
0001
0001
0001
0000
,
0100
0100
0100
0000
,
0010
1000
0001
0100
,
0010
0000
0000
0000
;
