#TITLE:Never Fall Asleep;
#SUBTITLE:;
#ARTIST:Evil Activities feat. MC Alee;
#TITLETRANSLIT:;
#SUBTITLETRANSLIT:;
#ARTISTTRANSLIT:;
#CRChallenge:;
#BANNER:asleep.jpg;
#BACKGROUND:asleep-bg.jpg;
#LYRICSPATH:;
#CDTITLE:;
#MUSIC:asleep.ogg;
#OFFSET:0.000;
#SAMPLESTART:61.616;
#SAMPLELENGTH:12.000;
#SELECTABLE:YES;
#BPMS:0.000=171.385;
#STOPS:;
#BGCHANGES:;
#NOTES:
     dance-single:
     Renard:
     Medium:
     9:
     0.530,0.568,0.353,0.150,0.048:
0000
0000
0000
0000
,
0000
0000
0000
0000
,
0000
0000
0000
0000
,
0000
0000
0000
0000
,
1001
0000
0000
0000
,
0000
0000
0000
0000
,
0000
0000
0000
0000
,
1000
0100
0020
0000
0031
0100
0020
0000
,
1030
0000
0010
0000
0000
0000
0100
0000
0001
0000
1000
0000
0100
0000
0010
0001
,
0000
0000
0010
0000
0000
0000
0100
0000
1000
0000
0001
0000
0010
0000
0100
1000
,
0000
0000
0010
0000
0000
0000
0100
0000
0001
0000
1000
0000
0010
0000
0100
0001
,
0000
0000
1000
0000
0000
0000
0100
0000
0010
0000
0001
0000
0010
0000
0100
1000
,
0000
0000
0001
0000
0000
0000
0010
0000
0100
0000
1000
0000
0010
0000
0100
0001
,
0000
0000
0100
0000
0000
0000
0010
0000
1000
0000
0100
0000
0010
0000
0001
0010
,
0000
0000
0100
0000
0000
0000
1000
0000
0001
0000
0100
0000
0010
0000
1000
0010
,
0100
0000
0000
0000
0000
0000
0100
0000
0000
0000
0000
0000
0200
0000
0000
0000
0000
0000
0000
0000
0000
0300
0000
0000
0001
0000
0000
0000
1000
0000
0000
0000
0001
0000
0000
0000
2000
0000
0000
0000
0000
0000
0000
0000
3000
0000
0000
0000
,
0001
0100
1000
0100
0001
0010
0100
0100
,
1000
0000
1000
0010
0100
0001
0001
0000
,
0010
0000
0010
0100
1000
0000
0010
0010
,
0100
0000
0100
0001
0010
0010
0100
0000
,
1000
0000
1000
0010
0100
0000
0001
0001
,
0010
0000
0010
0100
1000
0000
1010
0000
,
1000
0000
1000
0010
0100
0100
0001
0001
,
0010
0000
0010
0100
1000
0000
1001
0000
,
0210
0000
0010
0010
0010
0000
0010
0000
,
0010
0000
0010
0010
0010
0000
0010
0000
,
0010
0000
0010
0010
0010
0000
0010
0000
,
0010
0000
0010
0010
0010
0000
0310
0000
,
0100
0001
0100
1000
,
0100
0001
0100
1000
,
0100
0001
0100
1000
,
0100
0001
0100
0001
,
0010
1000
0010
0001
,
0010
1000
0010
0001
,
0010
1000
0010
0001
,
0010
1000
0010
1000
,
0010
0000
0100
0001
0100
0000
0001
0000
,
0100
0000
0010
1000
0010
0000
1000
0000
,
0010
0000
0100
0001
0100
0000
0001
0000
,
0100
0000
0010
1000
0010
0000
1000
0000
,
0100
0000
0010
0001
0010
0000
0100
0000
,
1000
0000
0010
1000
0010
0000
0100
0000
,
0002
0000
0023
0000
,
0230
0000
0000
0000
,
1300
0000
1000
0100
0010
0000
0110
0000
,
0010
0000
0010
0001
0100
0000
0110
0000
,
0010
0000
0010
1000
0100
0000
0110
0000
,
0010
0000
0010
0001
0100
0000
0110
0000
,
0010
0000
1000
0001
0100
0000
1001
0000
,
1000
0000
0001
0100
0010
0000
1001
0000
,
2000
0000
3200
0000
,
0320
0000
0000
0030
2MM2
0000
0000
3003
,
0110
0000
0010
0100
0001
0000
1000
0000
,
1100
0000
1000
0100
0010
0000
1001
0000
,
0110
0000
0010
1000
0001
0000
0101
0000
,
1001
0000
1000
0100
0010
0000
0011
0000
,
0110
0000
0100
1000
0010
0000
0101
0000
,
0110
0000
0010
1000
0100
0000
1100
0000
,
0101
0000
0100
0001
0100
0010
0100
0000
,
1100
0000
1000
0100
0010
0001
0010
0000
,
0001
0010
0100
1000
0001
0000
1001
0000
,
0001
0100
0010
0100
1000
0000
1100
0000
,
0100
0010
1000
0100
0010
0000
0110
0000
,
0010
0001
0100
0010
0001
0000
0011
0000
,
0001
0010
1000
0100
0010
0000
0110
0000
,
0010
0100
1000
0010
0100
0000
0110
0000
,
0100
0001
0010
0100
0001
0000
0101
0000
,
0100
0000
0000
1000
0000
0000
0010
0000
0000
0100
0000
0000
0001
0000
0100
0000
0001
0000
0100
0000
0000
0000
0000
0000
,
0001
0100
0010
1000
1010
0000
1000
0100
,
0010
0001
0011
0000
0011
0000
0000
0000
,
0001
0010
0100
1000
1010
0000
1000
0010
,
0100
0001
0011
0000
0011
0000
0000
0000
,
0001
0010
0100
1000
1100
0000
1000
0100
,
0010
0001
0101
0000
0101
0000
0100
0010
,
1000
0200
0000
0000
0320
0000
0000
0032
,
2000
0000
0000
3003
;
#NOTES:
     dance-single:
     Renard:
     Easy:
     6:
     0.374,0.434,0.035,0.088,0.000:
0000
0000
0000
0000
,
0000
0000
0000
0000
,
0000
0000
0000
0000
,
0000
0000
0000
0000
,
1001
0000
0000
0000
,
0000
0000
0000
0000
,
0000
0000
0000
0000
,
1000
0001
1000
0000
0001
1000
0001
0000
,
0100
0010
0000
0100
0001
0000
1000
0100
,
0010
0001
0000
0000
0010
0000
0100
1000
,
0001
0100
0000
0010
1000
0000
0001
0100
,
0010
1000
0000
0000
0100
0000
0010
0001
,
0010
0100
0000
1000
0001
0000
0100
0000
,
0010
1000
0001
0000
0100
0000
0010
0000
,
1000
0010
0100
0001
,
2000
0000
0000
0000
,
3100
0010
0001
0000
0010
0000
0100
0000
,
1000
0010
0100
0000
,
0001
0100
0010
0000
1000
0000
0100
0000
,
0010
0001
1000
0001
,
0010
0100
0010
0000
0100
0000
1000
0000
,
0010
0100
0001
0100
,
0010
1000
0010
0000
1000
0000
0100
0000
,
0010
0011
0110
1100
,
1000
0001
1000
0001
,
0100
0010
0100
0010
,
1000
0001
1000
0001
,
0100
0010
0100
0010
,
1000
0001
1000
0001
,
0100
0000
0100
0000
,
0001
1000
0001
1000
,
0010
0000
0010
0000
,
1000
0100
1000
0100
,
0010
0000
0010
0000
,
0001
0100
0001
0100
,
0010
0000
0010
0000
,
1000
0100
1000
0001
,
1000
0010
1000
0001
,
0001
0100
0001
0010
,
0001
1000
0001
0100
,
0010
0100
0010
0100
,
0001
1000
0001
1000
,
0200
0000
2000
0000
,
0020
0000
0000
3330
,
1000
0000
1000
0100
1000
0000
0100
0000
,
1000
0000
0100
1000
0100
0000
1000
0000
,
0100
0000
1000
0100
1000
0000
0100
0000
,
1000
0000
0100
1000
0100
0000
1000
0000
,
0001
0000
0010
0001
0010
0000
0001
0000
,
0010
0000
0001
0010
0001
0000
0010
0000
,
0002
0000
0200
0000
,
0020
0000
0030
03M3
,
1000
0000
0001
1000
0001
0000
1000
0000
,
0001
0000
0100
0001
0100
0000
0000
0000
,
0001
0000
1000
0001
1000
0000
0100
0000
,
1000
0000
0001
1000
0001
0000
0000
0000
,
1000
0000
0100
1000
0100
0000
1000
0000
,
0001
0000
0100
0001
0100
0000
0000
0000
,
0001
0000
1000
0100
1000
0000
0001
0000
,
0100
0001
1000
0100
,
1000
0000
0001
0100
0001
0000
1000
0000
,
0100
1000
0001
0100
,
0001
0000
1000
0001
1000
0000
0100
0000
,
1000
0001
0100
0001
,
1000
0000
0100
1000
0100
0000
1000
0000
,
0001
0000
0100
0001
0100
0000
0001
0000
,
1000
0000
0100
1000
0001
0000
0100
0000
,
0001
1000
0100
1000
,
0001
0000
1000
0001
1000
0000
0001
0000
,
1000
0001
1000
0000
0001
0000
0000
0000
,
1000
0000
0001
1000
0001
0000
1000
0000
,
0001
1000
0001
0000
1000
0000
0000
0000
,
0010
0000
0100
0010
0100
0000
0010
0000
,
0100
0010
0100
0000
0010
0000
0100
0000
,
0002
0000
0200
0000
,
0020
0000
0000
0333
;
#NOTES:
     dance-single:
     Renard:
     Beginner:
     3:
     0.278,0.334,0.026,0.220,0.000:
0000
0000
0000
0000
,
0000
0000
0000
0000
,
0000
0000
0000
0000
,
0000
0000
0000
0000
,
1001
0000
0000
0000
,
0000
0000
0000
0000
,
0000
0000
0000
0000
,
0000
0000
0000
0000
,
1000
0000
1000
0001
,
0100
0000
0001
1000
,
0100
0000
1000
0001
,
0010
0000
0001
1000
,
0010
1000
0010
1000
,
0001
0100
0001
1000
,
0100
0010
0001
1000
,
1001
0000
0000
0000
,
0001
0100
0001
0000
0100
0000
0000
0000
,
0001
1000
0100
0000
,
1000
0000
0001
0000
,
0010
0000
0000
0000
,
0100
1000
0100
0000
1000
0000
0001
0000
,
0100
0000
0001
0000
,
0010
0000
0100
0000
,
1000
0000
0000
0000
,
0020
0000
0000
0130
,
0001
0000
1000
0000
,
0200
0000
0000
0000
0000
0300
0010
0000
,
0001
0000
1000
0000
,
0020
0000
0000
0130
,
0001
0100
0001
0000
,
0200
0000
0000
0310
,
1000
0100
1000
0000
,
0002
0000
0000
0013
,
0100
1000
0001
0100
,
0020
0000
0130
0001
,
2000
0000
3200
0000
,
0320
0000
0000
0000
,
0032
0000
0023
0000
,
0230
0000
0000
0000
,
2300
0000
3020
0000
,
0230
0000
0302
0000
,
2003
0000
3200
0000
,
0320
0000
0032
0000
,
2000
0000
0000
3003
,
1000
0000
0001
1000
0001
0000
1000
0000
,
0001
1000
0001
1000
,
0001
1000
0001
1000
,
0001
1000
0001
1000
,
0010
0000
0100
0010
0100
0000
0010
0000
,
0100
0010
0100
0010
,
0100
0000
0010
0000
,
0100
0000
2002
3003
,
1000
0000
0001
1000
0001
0000
1000
0000
,
0001
1000
0001
0000
,
0100
0010
0100
0000
,
0001
1000
0001
0000
,
0100
0000
0010
0100
0010
0000
0000
0000
,
0100
0000
0001
0000
,
1000
0000
0000
0100
,
0010
0001
0010
0100
,
1000
0000
0001
1000
0001
0000
1000
0000
,
0001
0000
0100
0000
,
0010
1000
0100
0010
,
0001
0010
0000
0100
,
1000
0000
0001
0000
0100
0000
0001
1000
,
0001
1000
0100
0010
,
0001
1000
0001
0100
,
0010
0100
0001
0100
,
0001
0000
0100
0000
,
0010
1000
0100
0000
,
0010
0000
0001
0000
,
1000
0100
0010
0000
,
0001
0000
1000
0000
,
0010
0000
0100
0001
,
0200
0000
0002
0000
,
0010
0000
0000
0303
;
#NOTES:
     dance-single:
     Renard:
     Hard:
     9:
     0.584,0.668,0.353,0.229,0.079:
0000
0000
0000
0000
,
0000
0000
0000
0000
,
0000
0000
0000
0000
,
0000
0000
0000
0000
,
1011
0000
0000
0000
,
0000
0000
0000
0000
,
0000
0000
0000
0000
,
0001
0010
02MM
0000
1300
0010
M2M0
0000
,
0301
0000
0100
0000
0000
0000
0010
0000
1000
0000
0001
0000
0010
0000
0100
1000
,
0100
0000
0100
0000
0000
0000
0010
0000
0001
0000
1000
0000
0100
0000
0010
0001
,
0100
0000
0100
0000
0000
0000
0010
0000
1000
0000
0001
0000
0100
0000
0010
1000
,
0001
0000
0001
0000
0000
0000
0010
0000
0100
0000
1000
0000
0100
0000
0010
0001
,
1000
0000
1000
0000
0000
0000
0100
0000
0010
0000
0001
0000
0100
0000
0010
1000
,
0010
0000
0010
0000
0000
0000
0100
0000
0001
0000
0010
0000
0100
0000
1000
0100
,
0010
0000
0010
0000
0000
0000
0001
0000
1000
0000
0010
0000
0100
0000
0001
0100
,
0010
0000
0000
0000
0000
0000
0010
0000
0000
0000
0000
0000
0020
0000
0000
0000
0000
0000
0000
0000
0000
0030
0000
0000
1000
0000
0000
0000
0001
0000
0000
0000
1000
0000
0000
0000
2002
0000
0000
0000
0000
0000
0000
0000
3003
0000
0000
0000
,
1000
0000
0010
0000
0001
0000
0010
0000
1000
0000
0100
0000
0010
0001
0010
0000
,
0001
0000
0000
0000
0001
0000
0100
0000
0010
0000
1000
0010
1000
0000
0000
0000
,
0100
0000
0000
0000
0100
0000
0010
0000
0001
0000
0000
0000
0100
0010
0100
0000
,
0010
0000
0000
0000
0010
0000
1000
0000
0100
1000
0100
0000
0010
0000
0000
0000
,
0001
0000
0000
0000
0001
0000
0100
0000
0010
0000
0000
0000
1000
0001
1000
0000
,
0100
0000
0100
0010
0001
0000
0101
0000
,
0001
0000
0000
0000
0001
0000
0100
0000
0010
0100
0010
0000
1000
0001
1000
0000
,
0100
0000
0100
0010
0001
0000
1001
0000
,
1020
0000
0100
0100
0100
0000
1000
0000
,
0001
0000
0100
0100
0100
0000
0001
0000
,
1000
0000
0100
0100
0100
0000
1000
0000
,
0001
0000
0100
0100
0100
0000
0031
0000
,
0010
0010
2000
0000
3020
0000
0031
0001
,
0010
0000
1000
0000
0010
0000
0001
0010
,
0020
0000
1030
1000
0020
0000
0031
0000
,
0010
1000
0010
1000
,
0100
0200
0301
0002
0103
0200
1300
0000
,
0100
0000
0001
0000
0100
0000
1000
1000
,
0100
0100
0002
0000
0103
1000
1000
0000
,
0100
0000
0001
0000
0100
0000
1000
0001
,
0100
0000
0010
1000
0010
0000
1000
0000
,
0010
0000
0100
0001
0100
0000
0001
1000
,
0100
0000
0010
0001
0010
0000
1000
0000
,
0001
0000
0100
0001
0100
0000
1000
0000
,
0010
0000
0100
1000
0100
0000
0010
0000
,
1000
0000
0100
0001
0100
0000
0010
0001
,
2000
0000
0200
0000
,
0020
0000
0000
3330
,
0001
0001
0001
0010
0100
0000
0110
0000
,
0100
0100
0100
1000
0010
0000
0110
0000
,
0100
0100
0100
0001
0010
0000
0110
0000
,
0100
0100
0100
1000
0010
0000
0110
0000
,
0100
0100
0001
1000
0010
0000
1001
0000
,
0001
0001
1000
0010
0100
0000
1001
0000
,
0002
0000
0200
0000
,
0020
0000
0333
0000
MMMM
MMMM
MMMM
MMMM
,
0110
0000
0100
0010
1000
0000
0001
0000
,
0011
0000
0001
0010
0100
0000
1001
0000
,
0110
0000
0100
0001
1000
0000
1010
0000
,
1001
0000
0001
0010
0100
0000
1100
0000
,
0110
0000
0010
0001
0100
0000
1010
0000
,
0110
0000
0100
0001
0010
0000
0011
0000
,
1010
0000
0010
1000
0010
0100
0010
0000
,
0011
0000
0001
0010
0100
1000
0100
0000
,
1000
0100
0010
0001
1000
0000
1001
0000
,
1000
0010
0100
0010
0001
0000
0011
0000
,
0010
0100
0001
0010
0100
0000
0110
0000
,
0100
1000
0010
0100
1000
0000
1100
0000
,
1000
0100
0001
0010
0100
0000
0110
0000
,
0100
0010
0001
0100
0010
0000
0110
0000
,
0010
1000
0100
0010
1000
0000
1010
0000
,
0010
0000
0000
0001
0000
0000
0100
0000
0000
0010
0000
0000
1000
0000
0010
0000
1000
0000
0010
0000
0000
0000
0000
0000
,
1000
0010
0100
0001
0101
0000
0001
0010
,
0100
1000
1100
0000
2100
0000
3001
0000
,
1000
0100
0010
0001
0101
0000
0001
0100
,
0010
1000
1100
0000
2100
0000
3001
0000
,
1000
0100
0010
0001
0011
0000
0001
0010
,
0100
1000
1010
0000
1010
0000
0010
0100
,
0001
0020
0000
0000
0230
0000
0000
2000
,
0002
0000
0000
3303
;
