#TITLE:Nerd On Acid;
#SUBTITLE:;
#ARTIST:Omicron Complex feat. James Rolfe;
#TITLETRANSLIT:;
#SUBTITLETRANSLIT:;
#ARTISTTRANSLIT:;
#CRChallenge:;
#BANNER:nerd.png;
#BACKGROUND:nerd-bg.png;
#LYRICSPATH:;
#CDTITLE:!cdtitle.png;
#MUSIC:nerd.ogg;
#OFFSET:0.000;
#SAMPLESTART:10.626;
#SAMPLELENGTH:10.575;
#SELECTABLE:YES;
#DISPLAYBPM:180.000;
#BPMS:0.000=45.000,4.000=180.000,80.000=360.000,88.000=180.000,276.000=360.000,308.000=720.000,336.000=45.000;
#STOPS:47.500=1.333
,115.500=1.333
,127.500=1.333
,144.000=0.333
,145.000=0.333
,146.000=0.333
,147.000=0.333
,275.500=1.417
,275.750=2.583
;
#BGCHANGES:;
#NOTES:
     dance-single:
     Spectere:
     Hard:
     12:
     0.777,1.000,0.952,0.403,0.609:
0000
0000
0000
0000
,
1001
0101
0110
1010
,
1100
0110
0011
1001
,
1100
0011
0110
1100
,
1010
1001
1010
0101
,
1001
0000
0100
0000
1000
0010
0100
0010
1000
0000
0100
1000
0010
0100
0001
0000
,
0100
0000
0010
0000
1000
0100
1000
0001
1000
0000
0010
0100
0001
0100
0010
0000
,
1000
0000
0100
0000
1000
0001
0100
0001
0010
0000
0001
1000
0100
1000
0010
0000
,
1000
0000
0001
0000
0100
0010
0100
0001
0010
0000
0100
1000
0010
0100
0001
0000
,
0010
0000
0001
0000
1000
0100
1000
0100
1000
0000
0010
0100
0001
0100
0010
0000
,
1000
0000
0001
0000
0010
0100
1000
0100
0010
0000
0001
0010
0100
0010
0001
0000
,
0100
0000
0010
0000
1000
0010
0100
0001
0010
0000
0001
0010
0100
1000
0001
0000
,
2200
0001
0010
3301
,
0202
0010
1000
0313
,
2200
0001
0010
3301
,
0202
0010
1000
0313
,
2200
0001
0010
3301
,
2200
0011
0011
3311
,
0202
1010
1010
1313
,
1011
0111
1101
1111
,
0MM0
M00M
MMMM
M00M
M00M
0000
0MMM
M000
0MM0
000M
MMM0
0000
0MMM
M000
0MM0
000M
,
MMM0
0000
0MM0
0MM0
0MM0
0000
0MM0
0000
0000
0MM0
0MM0
0MM0
0000
0MM0
0000
0000
,
1100
0110
1100
0011
,
0101
1010
1100
0110
,
1100
1001
0101
0110
,
1010
1100
0110
1001
,
0101
1001
1100
0011
,
0101
1010
1001
1100
,
1010
0101
1010
1100
,
1000
0000
0100
0000
0010
0001
0100
0010
0100
0000
0001
0010
0100
0010
1000
0000
,
0010
0000
0001
0000
0100
0010
0100
0001
1000
0000
0100
0010
0100
1000
0001
0000
,
0100
0000
0010
0000
1000
0100
1000
0010
0100
0000
0001
0100
0001
0100
0001
0000
,
1001
0000
1010
0000
1000
0010
0100
0001
0010
0000
0100
1000
0010
0100
0001
0000
,
0011
0000
0101
0000
0010
1000
0100
1000
0010
0000
0100
0001
0100
0001
0100
0000
,
1010
0000
0101
0000
1000
0100
1000
0100
1000
0000
0010
0100
0001
0100
0001
0000
,
0011
0000
1100
0000
0010
0100
0001
0010
0100
0000
1000
0100
1000
0010
0100
0000
,
MMMM
MMMM
MMMM
MMMM
,
2200
3310
0202
0313
,
2002
3013
0022
1033
,
2020
3130
0022
1033
,
2020
3130
0202
1303
,
2002
3103
0202
1303
,
2200
3310
0202
0313
,
2200
3310
2200
3301
,
0202
0313
2002
3103
,
1000
0100
0010
0001
0100
0010
0001
1000
,
0100
0001
0010
0100
0002
0000
0000
0003
,
0100
1000
0001
0010
1000
0010
0100
0001
,
0100
1000
0100
0010
0002
0000
0000
0003
,
0100
0010
1000
0100
0001
1000
0010
0001
,
0100
0010
1000
0010
0200
0000
0000
0300
,
0001
0010
0100
0010
1000
0001
0100
1000
,
0010
0001
1000
0100
0002
0000
0000
0003
,
1M00
0000
0010
000M
0000
0000
0100
0000
M000
0000
0100
00M0
0001
0000
0010
0000
,
0100
1000
0000
0001
0000
0001
0010
0001
,
010M
0000
0010
M000
0000
0000
0010
0000
0M00
0000
0010
M000
0100
0000
0001
0000
,
0010
0001
0000
1000
0000
0100
0001
0100
,
10M0
0000
0001
M000
0000
0000
0100
0000
00M0
0000
0001
0M00
1000
0000
0100
0000
,
1000
0010
0000
0100
0000
0001
0100
0010
,
010M
0000
1000
00M0
0000
0000
0100
0000
000M
0000
0100
M000
0001
0000
0010
0000
,
00M1
0000
0000
0000
1000
0000
000M
0000
0000
0000
0000
M000
0100
0000
0000
0000
0000
0000
0000
0000
00M1
0000
0000
0000
0100
0000
0000
M000
0001
0000
0000
0000
,
0100
0000
1000
0000
0010
0000
0100
0001
0100
0010
0100
0000
0001
0000
0010
0000
,
0001
0000
1000
0000
0100
0000
1000
0010
0100
0010
1000
0000
0100
0000
0010
0000
,
0001
0000
0100
0000
0001
0000
0010
0001
0010
0001
0010
0000
0001
0000
0100
0000
,
0010
0000
1000
0000
0010
0000
0100
0001
0010
0100
1000
0000
0010
0000
0100
0000
,
0001
0000
0100
0000
0010
0000
0100
0001
0100
0010
1000
0000
0100
0000
1000
0000
,
0001
0000
0100
0000
0001
0000
0010
0100
1000
0100
0010
0000
0001
0000
0100
0000
,
0010
0000
1000
0000
0100
0000
0010
0001
0010
0100
0010
0000
0001
0000
0100
0000
,
0010
0000
1000
0000
0010
0000
0100
0001
0100
0010
0100
0000
0001
0000
0010
0000
,
1001
1001
1001
1001
,
1001
1001
1001
1001
,
1100
1100
1100
1100
,
1100
1100
1100
1100
,
0011
0011
0011
0011
,
0011
0011
0011
0011
,
0101
0101
0101
0101
,
0101
0101
0101
0101
,
MMMM
MMMM
MMMM
MMMM
MMMM
MMMM
MMMM
MMMM
MMMM
MMMM
MMMM
MMMM
,
MMMM
MMMM
MMMM
MMMM
MMMM
MMMM
MMMM
MMMM
MMMM
MMMM
MMMM
MMMM
,
MMMM
MMMM
MMMM
MMMM
MMMM
MMMM
MMMM
MMMM
MMMM
MMMM
MMMM
MMMM
,
MMMM
MMMM
MMMM
MMMM
MMMM
MMMM
MMMM
MMMM
MMMM
MMMM
MMMM
MMMM
,
MMMM
MMMM
MMMM
MMMM
MMMM
MMMM
MMMM
MMMM
MMMM
MMMM
MMMM
MMMM
,
MMMM
MMMM
MMMM
MMMM
MMMM
MMMM
MMMM
MMMM
MMMM
MMMM
MMMM
MMMM
,
0000
0000
0000
0000
,
0000
0000
1000
0000
0000
0100
0000
0000
0010
0000
0000
0001
0000
0000
0100
0000
0000
0010
0000
0000
1000
0000
0000
0100
0000
0000
1000
0000
0000
0010
0000
0000
0100
0000
0000
0000
0001
0000
0000
0000
0010
0000
0000
0000
0000
0000
0000
0000
0000
0000
0000
0000
0000
0000
0000
0000
0000
0000
0000
0000
0000
0000
0000
0000
;
#NOTES:
     dance-single:
     Renard:
     Medium:
     9:
     0.569,0.648,0.137,0.073,0.04:
0000
0000
0000
0000
,
0001
1000
0100
1000
0001
1000
0100
0000
,
1000
0001
0100
0001
1000
0001
0100
0000
,
0001
0100
1000
0000
1000
0100
0001
0000
,
0001
0010
1000
0000
1000
0010
0001
0000
,
1000
0001
0100
0001
0010
0001
1000
0001
,
0100
0001
0010
0001
1000
0001
0100
0000
,
0001
1000
0100
1000
0010
1000
0001
1000
,
0100
1000
0010
1000
0001
1000
0100
0000
,
1000
0001
0100
0001
0010
0001
1000
0001
,
0100
0001
0010
0001
1000
0001
0100
0000
,
0001
1000
0100
1000
0010
1000
0001
1000
,
0001
1000
0001
1000
0001
0000
1001
0000
,
0001
0100
0001
0100
0001
0000
0101
0000
,
1000
0010
1000
0010
1000
0000
1010
0000
,
0100
0001
0100
0001
0100
0000
0101
0000
,
0001
1000
0100
0000
0101
0000
1100
0000
,
1000
0100
0001
0000
0101
0000
1100
0000
,
1000
0100
0001
0000
0101
0000
1100
0000
,
1000
0100
0001
0000
1100
0000
1001
0000
,
1001
0000
0000
0000
,
0000
0000
0000
0000
,
1000
0001
0100
1000
0100
0001
1000
0000
,
0001
0100
1000
0100
0001
1000
0100
0000
,
0001
0100
1000
0001
0100
1000
0100
0000
,
0001
0100
0010
1000
0100
0001
0100
0000
,
1000
0001
0100
0010
1000
0100
0010
0000
,
0001
0010
1000
0010
0100
0001
0100
0000
,
1000
0010
0100
0001
0100
0010
1000
0000
,
0001
1000
0100
1000
0001
1000
0100
1000
,
0001
1000
0100
1000
0001
1000
0100
0000
,
1000
0001
0100
0001
1000
0001
0100
0001
,
1000
0100
1000
0100
1000
0100
1000
0100
,
0010
0100
0010
0100
0010
0100
0010
0100
,
0010
0001
0010
0001
0010
0001
0010
0001
,
0100
0001
0100
0001
0100
0001
0100
0001
,
0100
0100
0100
0100
,
0010
1000
0010
0000
0100
0001
0100
0000
,
0010
1000
0010
0000
0100
0001
0100
0000
,
0010
1000
0010
0000
0100
0001
0100
0000
,
2002
3013
2002
3013
,
1000
0010
1000
0000
0001
0100
0001
0000
,
1000
0010
1000
0000
0001
0100
0001
0000
,
1000
0010
1000
0000
0001
0100
0001
0000
,
2002
3013
2002
3013
,
1000
0100
0001
0100
1000
0100
0001
0100
,
1000
0100
0001
0100
1000
0000
0000
0000
,
0001
0010
1000
0010
0001
0010
1000
0010
,
0001
0010
1000
0010
0001
0000
0000
0000
,
1000
0100
0001
0100
1000
0100
0001
0100
,
1000
0100
0001
0100
1000
0000
0000
0000
,
0001
0010
1000
0010
0001
0010
1000
0010
,
0001
0010
1000
0010
0001
0000
0000
0000
,
0001
0010
0000
0010
0000
0100
1000
0001
,
0010
0100
0000
0100
0000
1000
0100
0010
,
0001
1000
0000
1000
0000
0100
1000
0001
,
0010
0100
0000
0100
0000
0010
0001
1000
,
0100
1000
0000
1000
0000
0010
0100
0001
,
0100
0010
0000
0010
0000
1000
0010
0100
,
0001
0100
0000
0100
0000
0010
1000
0001
,
2000
0000
0000
0000
0000
0000
0000
3000
,
0001
1000
0100
0010
0001
0000
1000
0000
,
0001
0010
0100
1000
0001
0000
1000
0000
,
0001
0010
0100
1000
0001
0000
1000
0000
,
0001
1000
0100
0010
0001
1000
0001
1000
,
0001
0100
0010
1000
0001
0000
1000
0000
,
0001
0100
0010
1000
0001
0000
1000
0000
,
0001
1000
0100
0010
0001
0000
1000
0000
,
0001
0010
0100
1000
0001
0100
0010
1000
,
0001
0100
0001
0100
,
0001
0100
0001
0100
,
0001
0100
0001
0100
,
0001
0100
0001
0100
,
0010
1000
0010
1000
,
0010
1000
0010
1000
,
0010
1000
0010
1000
,
0010
1000
0010
1000
,
MMMM
0000
0000
0000
,
0000
0000
0000
0000
,
0000
0000
0000
0000
,
0000
0000
0000
0000
,
0000
0000
0000
0000
,
0000
0000
0000
0000
,
0000
0000
0000
0000
,
0000
0000
1000
0000
0000
0100
0000
0000
0010
0000
0000
0001
0000
0000
0100
0000
0000
0010
0000
0000
1000
0000
0000
0100
0000
0000
1000
0000
0000
0010
0000
0000
0100
0000
0000
0000
0001
0000
0000
0000
0010
0000
0000
0000
0000
0000
0000
0000
0000
0000
0000
0000
0000
0000
0000
0000
0000
0000
0000
0000
0000
0000
0000
0000
;
#NOTES:
     dance-single:
     Renard:
     Easy:
     6:
     0.429,0.614,0.258,0.121,0.012:
0000
0000
0000
0000
,
1001
0110
1001
0110
,
1001
0110
1001
0110
,
1001
1001
0110
0110
,
1001
1001
0110
0110
,
0010
0000
0010
0000
1000
0000
0010
1000
,
0010
0000
0010
0000
1000
0000
1000
0010
,
1000
0000
1000
0000
0010
0000
0010
1000
,
0010
0000
0010
0000
1000
0010
1000
0000
,
0001
0000
0001
0000
0100
0001
0100
0000
,
0001
0000
0001
0000
0100
0001
0100
0000
,
0001
0001
0100
0100
,
0010
0010
0010
0010
,
0100
0100
0100
0100
,
0010
0010
0010
0010
,
0100
0100
0100
0100
,
0001
1000
0001
1000
0001
1000
0001
1000
,
0001
1000
0001
1000
0001
1000
0001
1000
,
0001
1000
0001
1000
0001
1000
0001
1000
,
0001
1000
0001
1000
0001
1000
0001
0000
,
0100
0000
0000
0000
,
0000
0000
0000
0000
,
0100
0100
0010
0100
,
0010
0010
0100
0010
,
1000
0010
1000
0000
0001
0100
0001
0000
,
1000
0010
1000
0000
0001
0100
0001
0000
,
0100
0100
0010
0100
,
0010
0010
0100
0010
,
0100
0100
0010
0100
,
0010
1000
0010
0000
1000
0010
1000
0000
,
0010
1000
0010
0000
1000
0000
1000
0000
,
0001
0100
0001
0000
0100
0001
0100
0000
,
1001
1001
0110
0110
,
1001
1001
0110
0110
,
1001
1001
0110
0110
,
1001
1001
0110
0110
,
0001
1000
0001
1000
,
0002
1003
0002
1003
,
0002
1003
0002
1003
,
0001
1000
0002
1003
,
0001
1000
0002
1003
,
2000
3001
2000
3001
,
2000
3001
2000
3001
,
1000
0001
2000
3001
,
1000
0001
2000
3001
,
1000
0000
0001
0000
1000
0001
1000
0000
,
0001
0000
0100
0001
0100
0000
0000
0000
,
0001
0000
1000
0000
0001
1000
0001
0000
,
1000
0100
1000
0000
0001
0000
0000
0000
,
1000
0000
0001
0000
1000
0001
1000
0000
,
0001
0100
0001
0000
1000
0000
0000
0000
,
0001
0000
1000
0000
0001
1000
0001
0000
,
1000
0100
1000
0000
0001
0000
0000
0000
,
1000
0000
0000
0001
0000
0000
0100
0000
,
0010
0000
0000
0100
0000
0000
0010
0000
,
1000
0000
0000
0001
0000
0000
1000
0000
,
0010
0000
0000
0100
0000
0000
0010
0000
,
1000
0000
0000
0001
0000
0000
1000
0000
,
0010
0000
0000
0100
0000
0000
0010
0000
,
1000
0000
0000
0001
0000
0000
1000
0000
,
0010
0000
0000
0000
,
1000
0000
0001
0000
0000
1000
0001
0000
,
1000
0000
0001
0000
0000
1000
0001
0000
,
0100
0000
0010
0000
0000
0100
0010
0000
,
0100
0000
0010
0000
0000
0100
0010
0000
,
1000
0000
0010
0000
0000
1000
0010
0000
,
1000
0000
0010
0000
0000
1000
0010
0000
,
0100
0000
0001
0000
0000
0100
0001
0000
,
1000
0001
1000
0001
,
1000
0001
1000
0001
,
1000
0001
1000
0001
,
1000
0001
1000
0001
,
1000
0001
1000
0001
,
1000
0001
1000
0001
,
1000
0001
1000
0001
,
1000
0001
1000
0001
,
1000
0001
1000
0001
,
MMMM
0000
0000
0000
,
0000
0000
0000
0000
,
0000
0000
0000
0000
,
0000
0000
0000
0000
,
0000
0000
0000
0000
,
0000
0000
0000
0000
,
0000
0000
0000
0000
,
0000
2000
0000
0000
0000
0000
0000
3002
0000
0000
0000
0000
0000
0203
0000
0000
0000
0000
0000
0000
0310
0000
0000
0000
0000
0000
0000
0000
0000
0000
0000
0000
;
#NOTES:
     dance-single:
     Renard:
     Beginner:
     4:
     0.270,0.444,0.008,0.153,0.012:
0000
0000
0000
0000
,
1000
0000
0001
1000
,
0001
0000
1000
0001
,
0100
0000
0100
0000
,
0010
0000
0010
0000
,
1000
1000
1000
1000
,
0001
0001
0001
0001
,
1000
1000
1000
1000
,
0001
0001
0001
0001
,
1000
1000
1000
1000
,
0001
0001
0001
0001
,
1000
1000
1000
1000
,
0001
0100
0001
0100
,
0010
1000
0010
1000
,
0001
0100
0001
0100
,
0010
1000
0010
1000
,
0001
0000
0001
0000
,
1000
0000
1000
0000
,
0001
0000
0001
0000
,
1000
0000
1000
0000
,
1001
0000
0000
0000
,
0000
0000
0000
0000
,
1000
0000
0100
0000
,
1000
0000
0100
0000
,
0010
0000
0001
0000
,
0010
0000
0001
0000
,
1000
1000
1000
0000
,
0001
0001
0001
0000
,
1000
1000
1000
0000
,
0001
0000
0001
0000
,
0001
0000
0001
0000
,
1000
0000
1000
0000
,
0001
0000
0001
0000
,
0001
0000
0001
0000
,
1000
0000
1000
0000
,
1000
0000
1000
0000
,
0010
0010
0010
0010
,
0200
0310
0200
0310
,
0200
0310
0200
0310
,
0200
0310
0200
0310
,
0020
0130
0020
0130
,
0200
0310
0200
0310
,
0200
0310
0200
0310
,
0200
0310
0200
0310
,
0020
0130
0020
0130
,
0001
0000
0100
0000
,
0010
1000
0100
0000
,
1000
0000
0010
0000
,
0100
0001
0010
0000
,
0001
0000
0100
0000
,
0010
1000
0100
0000
,
1000
0000
0010
0000
,
0100
0001
0010
0000
,
0001
0000
1000
0000
,
0000
0000
0000
0000
,
0010
0000
0100
0000
,
0000
0000
0000
0000
,
0001
0000
1000
0000
,
0000
0000
0000
0000
,
0010
0000
0100
0000
,
0000
0000
0000
0000
,
0010
0000
0100
0000
,
0010
0100
0010
0000
,
1000
0000
0001
0000
,
1000
0001
1000
0000
,
0010
0000
0100
0000
,
0010
0100
0010
0000
,
1000
0000
0001
0000
,
1000
0001
1000
0000
,
0001
1000
0001
1000
,
0001
1000
0001
1000
,
0001
1000
0001
1000
,
0001
1000
0001
1000
,
0001
1000
0001
1000
,
0001
1000
0001
1000
,
0001
1000
0001
1000
,
0001
1000
0001
1000
,
000M
0000
0000
0000
,
0000
0000
0000
0000
,
0000
0000
0000
0000
,
0000
0000
0000
0000
,
0000
0000
0000
0000
,
0000
0000
0000
0000
,
0000
0000
0000
0000
,
0000
2000
0000
0000
0000
0000
0000
3002
0000
0000
0000
0000
0000
0203
0000
0000
0000
0000
0000
0000
0310
0000
0000
0000
0000
0000
0000
0000
0000
0000
0000
0000
;
