#TITLE:Naturally Stoned;
#SUBTITLE:;
#ARTIST:Omicron Complex;
#TITLETRANSLIT:;
#SUBTITLETRANSLIT:;
#ARTISTTRANSLIT:;
#CRChallenge:;
#BANNER:;
#BACKGROUND:;
#LYRICSPATH:;
#CDTITLE:;
#MUSIC:stoned.ogg;
#OFFSET:0.000;
#SAMPLESTART:63.980;
#SAMPLELENGTH:12.000;
#SELECTABLE:YES;
#BPMS:0.000=180.000;
#STOPS:;
#BGCHANGES:;
#NOTES:
     dance-single:
     Renard:
     Medium:
     9:
     0.593,0.622,0.503,0.000,0.000:
0000
0000
0000
0000
,
0000
0000
0000
0000
,
0000
0000
0000
0000
,
0000
0000
0000
0000
,
0000
0000
0000
0000
,
0000
0000
0000
0000
,
0000
0000
0000
0000
,
0000
0000
0000
0000
,
1000
0000
1000
0000
1000
0001
0100
0000
,
0001
0000
0001
0000
1000
0100
1000
0000
,
0001
0000
0001
0000
1000
0010
1000
0000
,
0001
0000
0100
0000
0001
0010
0001
0000
,
1000
0000
0100
0000
1000
0010
1000
0000
,
0001
0000
0100
0000
0001
1000
0001
0000
,
1000
0100
0010
0001
0010
0100
1000
0001
,
1000
0000
1001
0110
,
0010
1000
0001
0100
0010
1000
0100
0000
,
0100
0010
0001
1000
0010
0000
1010
0000
,
1000
0001
0010
0100
1000
0100
0010
0000
,
0010
0001
1000
0010
0100
0000
0110
0000
,
0010
1000
0100
0010
0001
0000
0011
0000
,
0001
0010
0100
1000
0001
0000
1001
0000
,
0001
0100
0110
0000
0010
1000
1010
0000
,
1000
0100
0010
0001
0011
0000
0110
0000
,
0100
1000
0010
0100
0001
0000
1001
0000
,
1000
0100
0010
0001
1000
0000
1010
0000
,
1000
0010
1010
0000
0100
0001
0101
0000
,
0001
0010
0100
1000
0001
0000
1001
0000
,
0001
0010
0100
1000
0010
0000
1010
0000
,
0000
1000
0010
0100
0001
0000
0101
0000
,
0001
0010
0100
1000
1001
0000
1001
0000
,
0110
0000
0000
0000
,
1000
0000
0001
0000
0100
0000
0010
1000
,
0000
0010
0000
1000
0000
0010
1000
0010
,
1000
0001
0100
0001
,
0010
0000
0001
0010
0000
0000
0000
0000
,
0000
0000
0100
1000
0100
0000
1000
0010
,
0000
1010
1001
1001
,
0000
0000
1000
0000
0001
0100
0000
0000
,
0001
0010
0100
0000
,
1000
0000
0100
1000
0000
0100
1000
0100
,
1000
0000
0100
1000
0000
0100
1000
0100
,
0010
0000
0100
0010
0000
0100
0010
0100
,
0010
0000
0100
0010
0000
0100
0010
0001
,
0010
0000
0001
0010
0000
0001
0010
0001
,
1000
0000
0001
1000
0000
0001
1000
0010
,
0100
0000
0010
0100
0010
0100
0010
1000
,
0001
0000
0110
1001
,
1000
0100
0010
0001
0010
0000
0010
0100
,
0000
1100
0000
1001
0000
1000
0010
0100
,
0001
0010
0001
0000
0011
0000
0010
0100
,
1000
0000
0010
1000
0000
0000
1001
0000
,
0101
0000
0100
0010
1000
0000
0100
1000
,
0000
1100
1001
1010
,
1000
0001
0010
0000
0010
0001
0000
1000
,
0010
0100
0001
0000
0110
0000
0101
0000
,
0001
0100
0010
0000
0010
1000
0100
0000
,
0010
0100
1000
0010
1010
0000
1001
0000
,
1000
0100
0010
0000
0001
0010
0100
0000
,
1000
0001
0100
0000
0101
0000
1001
0000
,
1000
0100
0010
0000
0010
0001
0010
0000
,
0010
0100
1000
0010
1010
0000
1001
0000
,
1000
0001
0011
0000
0010
0100
0110
0000
,
0100
1000
0010
0100
0001
0000
1001
0000
,
1000
0100
0010
0000
0001
0010
0100
0000
,
1000
0010
0100
0000
0101
0000
0110
0000
,
0010
1000
0100
0000
0010
0001
0010
0000
,
0100
1000
0001
0100
0010
0100
0010
0100
,
0010
1000
0100
0000
0100
0010
0001
0000
,
0001
1000
0010
0000
0110
0000
1001
0000
,
1000
0100
0010
0000
0010
0001
1000
0000
,
0010
0100
0001
0010
0001
1000
0010
0100
,
0001
0000
0001
0100
0010
0000
0010
1000
,
0100
0010
0001
0010
0100
1000
0010
0100
,
0001
0000
0001
1000
0100
0000
0100
1000
,
0001
0010
0011
0000
0010
0100
0110
0000
,
0100
0000
1000
0010
0100
0000
0101
0000
,
0001
0100
0010
1000
0100
0010
0100
0000
,
0010
0100
1100
0000
1000
0010
1010
0000
,
0010
0100
0000
0010
0000
0100
1001
0000
,
0110
0000
0000
0000
;
#NOTES:
     dance-single:
     Renard:
     Easy:
     5:
     0.333,0.439,0.009,0.101,0.000:
0000
0000
0000
0000
,
0000
0000
0000
0000
,
0000
0000
0000
0000
,
0000
0000
0000
0000
,
0000
0000
0000
0000
,
0000
0000
0000
0000
,
0000
0000
0000
0000
,
0000
0000
0000
0000
,
1000
0000
1000
0000
0001
0100
0001
0000
,
1000
0000
1000
0000
,
0100
0000
0100
0000
1000
0001
1000
0000
,
0010
0000
0010
0000
,
1000
0000
1000
0000
0001
0100
0001
0000
,
1000
0100
1000
0001
,
0010
0001
0010
0001
0010
0001
0010
0001
,
0010
0000
0010
0010
,
0100
1000
0100
1000
,
0001
0100
0001
0100
,
0001
1000
0010
0000
,
1000
0001
0100
0000
,
0001
1000
0001
1000
,
0100
1000
0100
1000
,
0001
1000
0001
1000
,
0001
0010
0001
0001
,
1000
0000
1000
0010
,
0100
0001
0100
0001
,
1000
0000
0100
1000
,
0001
0010
0001
1000
,
0010
0000
0100
0001
,
1000
0000
0100
1000
,
0001
0000
0010
0000
0001
1000
0001
0100
,
0001
0000
0000
0000
,
1000
0000
1000
0000
,
0001
0000
0001
0000
,
1000
0001
1000
0001
,
0100
0000
0010
0100
0000
0000
0000
0000
,
0010
0000
0010
0000
,
1000
0000
1000
0000
,
0001
0000
0000
0000
1000
0001
0000
0000
,
0100
0010
1000
0000
,
0002
0000
0203
0000
,
0320
0000
2030
0000
,
3200
0000
0000
0000
,
0320
0032
2003
0000
,
3020
0000
0000
0000
,
0230
0000
0000
0000
,
0302
0000
0000
0000
,
1003
0000
0001
1000
,
0001
0000
0100
0000
0010
0000
1000
0001
,
0000
0100
0000
0001
0000
0000
1000
0000
,
0100
0010
0001
1000
,
0100
0000
1000
0001
0000
0000
0000
0000
,
0010
0000
0100
0000
1000
0000
0001
0100
,
0000
0010
1000
0001
,
0100
0000
0010
0000
1000
0100
0000
0000
,
0010
0001
1000
0000
,
0001
0010
0100
0000
,
1000
0010
0100
0001
,
0100
0000
0010
0000
,
1000
0010
0100
0000
,
0001
0000
0100
0010
,
1000
0100
0010
0000
,
0001
0000
0010
0100
,
1000
0001
0100
0000
,
0010
0010
0100
0100
,
0001
1000
0001
0000
1000
0000
0001
0000
,
0100
0100
0010
0010
,
1000
0000
0001
0000
1000
0001
1000
0000
,
0001
0001
0100
0100
,
0010
0010
1000
1000
,
0010
1000
0100
1000
,
0001
0000
0010
0000
0001
1000
0001
0000
,
0100
0000
0100
0010
,
0100
0000
0100
0010
,
1000
0000
1000
0000
,
0001
0000
1000
0000
0001
0000
0100
0001
,
0100
0000
0001
1000
,
0100
0000
1000
0001
,
0010
0000
0001
1000
,
0001
0100
0000
0100
0000
0100
0010
0000
,
1001
0000
0000
0000
;
#NOTES:
     dance-single:
     Renard:
     Hard:
     10:
     0.691,0.768,0.311,0.000,0.302:
0000
0000
0000
0000
,
0000
0000
0000
0000
,
0000
0000
0000
0000
,
0000
0000
0000
0000
,
0000
0000
0000
0000
,
0000
0000
0000
0000
,
0000
0000
0000
0000
,
0000
0000
0000
0000
,
1000
0000
0001
0000
0100
0000
0010
1000
0000
0010
1000
0000
0010
0000
1000
0000
,
0100
0000
0010
0000
0001
0000
1000
0100
0000
1000
0100
0000
1000
0000
0100
0000
,
0010
0000
0001
0000
1000
0000
0010
1000
0000
0010
1000
0000
0001
0000
0100
0000
,
0010
0000
1000
0000
0100
0000
0010
0001
0000
0010
0001
0000
0010
0000
0100
0000
,
1000
0000
0001
0000
0100
0000
0010
1000
0000
0010
1000
0000
0010
0000
0100
0000
,
0001
0000
0010
0000
0100
0000
1000
0001
0000
1000
0010
0000
0100
0000
0001
0100
,
0001
0000
0100
0000
0010
0000
1000
0100
0000
0010
0001
0000
0010
0000
0100
1000
,
1001
0000
0110
1001
,
1000
0000
0100
0000
0010
0000
0001
0010
0000
0100
1000
0000
0001
0000
0010
0000
,
0100
0000
1000
0000
0001
0000
0100
0010
0000
1000
0010
0000
0100
0000
0001
0000
,
0010
0000
0100
0000
1000
0000
0001
1000
0000
1000
0010
0000
0100
0000
0001
0000
,
0010
0000
0100
0000
1000
0000
0010
0100
0000
0100
0010
0000
1000
0000
0100
0000
,
0010
0000
0001
0000
0010
0000
0100
1000
0000
0001
0010
0000
0100
0000
1000
0000
,
0001
0000
0100
0000
0010
0000
1000
0010
0000
0100
0001
0000
0100
0000
0010
1000
,
0010
0000
1000
0000
0100
0000
0010
0001
0000
0010
0100
0000
1000
0000
0001
0000
,
0010
0000
0100
0000
1000
0000
0001
0100
0000
0010
1000
0000
0001
0000
0100
0010
,
0100
0000
0010
0000
1000
0000
0100
0010
0000
0001
0010
0000
0100
0000
1000
0000
,
0001
0000
0100
0000
0010
0000
1000
0100
0000
0100
0010
0000
0001
0000
0010
0100
,
1000
0000
0001
0000
0010
0000
0100
1000
0000
1000
0001
0000
0100
0000
0010
0000
,
1000
0000
0100
0000
0010
0000
0001
0010
0000
0100
1000
0000
0001
0000
0010
0000
,
0100
0000
1000
0000
0001
0000
0100
0010
0000
0010
1000
0000
0010
0000
0100
0010
,
0100
0000
0010
0000
0100
0000
0001
0010
0000
0100
1000
0000
0001
0000
0010
0100
,
1000
0000
0001
0000
0010
0000
0100
1000
0000
0001
0100
0000
0010
0000
1000
0001
,
1001
0000
0000
0000
,
1000
0000
0001
0000
0100
0000
0010
1000
,
0000
0010
0000
1000
0000
0010
1000
0010
,
1000
0001
0100
0001
,
0010
0000
0001
0010
0000
0000
0000
0000
,
0000
0000
0100
1000
0100
0000
1000
0010
,
0000
1010
1001
1001
,
0000
0000
1000
0000
0001
0100
0000
0000
,
0001
0010
0100
0000
,
1000
0000
0100
1000
0000
0100
1000
0100
,
1000
0000
0100
1000
0000
0100
1000
0100
,
0010
0000
0100
0010
0000
0100
0010
0100
,
0010
0000
0100
0010
0000
0100
0010
0001
,
0010
0000
0001
0010
0000
0001
0010
0001
,
1000
0000
0001
1000
0000
0001
1000
0010
,
0100
0000
0010
0100
0010
0100
0010
1000
,
0001
0000
0110
1001
,
1000
0100
0010
0001
0010
0000
0010
0100
,
0000
1100
0000
1001
0000
1000
0010
0100
,
0001
0010
0001
0000
0011
0000
0010
0100
,
1000
0000
0010
1000
0000
0000
1001
0000
,
0101
0000
0100
0010
1000
0000
0100
1000
,
0000
1100
1001
1010
,
1000
0001
0010
0000
0010
0001
0000
1000
,
0010
0100
0001
0000
0110
0000
0101
0000
,
0001
0100
0010
0000
0010
1000
0100
0000
,
0010
0100
1000
0010
1010
0000
1001
0000
,
1000
0100
0010
0000
0001
0010
0100
0000
,
1000
0001
0100
0000
0101
0000
1001
0000
,
1000
0100
0010
0000
0010
0001
0010
0000
,
0010
0100
1000
0010
1010
0000
1001
0000
,
1000
0001
0011
0000
0010
0100
0110
0000
,
0100
1000
0010
0100
0001
0000
1001
0000
,
1000
0100
0010
0000
0001
0010
0100
0000
,
1000
0010
0100
0000
0101
0000
0110
0000
,
0010
1000
0100
0000
0010
0001
0010
0000
,
0100
1000
0001
0100
0010
0100
0010
0100
,
0010
1000
0100
0000
0100
0010
0001
0000
,
0001
1000
0010
0000
0110
0000
1001
0000
,
1000
0100
0010
0000
0010
0001
1000
0000
,
0010
0100
0001
0010
0001
1000
0010
0100
,
0001
0000
0100
0000
0010
0000
1000
0001
0000
0100
0010
0000
1000
0000
0100
0000
,
0010
0000
0001
0000
0010
0000
0100
1000
0000
0001
0010
0000
0100
0000
1000
0000
,
0001
0000
0100
0000
0010
0000
1000
0010
0000
0100
0001
0000
0100
0000
0010
0000
,
1000
0000
0100
0000
0010
0000
0001
0010
0000
0100
1000
0000
0001
0000
0010
0000
,
0100
0000
1000
0000
0001
0000
0100
0010
0000
1000
0010
0000
0100
0000
0001
0000
,
0100
0000
0010
0000
1000
0000
0100
0010
0000
0001
0010
0000
0100
0000
1000
0000
,
0001
0000
0010
0000
0100
0000
1000
0010
0000
0100
0001
0000
0010
0000
0100
0000
,
0010
0100
0000
0010
0000
0100
1001
0000
,
0110
0000
0000
0000
;
#NOTES:
     dance-single:
     Renard:
     Beginner:
     3:
     0.287,0.366,0.101,0.183,0.000:
0000
0000
0000
0000
,
0000
0000
0000
0000
,
0000
0000
0000
0000
,
0000
0000
0000
0000
,
0000
0000
0000
0000
,
0000
0000
0000
0000
,
0000
0000
0000
0000
,
0000
0000
0000
0000
,
1000
0000
1000
0001
,
1000
0000
0001
0000
,
1000
0000
0001
1000
,
0001
0000
1000
0000
,
0010
0000
0100
0010
,
1000
0100
0010
0001
,
0010
0100
1000
0001
,
1000
0000
0001
0001
,
1000
0100
1000
0100
,
0011
0000
0011
0000
,
0001
0100
0001
0100
,
1010
0000
1010
0000
,
1000
0100
1000
0000
,
1100
0000
0011
0000
,
0001
0100
0001
0000
,
0101
0000
1010
0000
,
1000
0001
1000
0001
,
1000
1000
0001
0001
,
0010
0100
0010
0100
,
0010
0010
0100
0100
,
1000
0001
1000
0001
,
1000
1000
0001
0001
,
0100
0010
1000
0100
,
1001
0000
0000
0000
,
2000
0000
3002
0000
,
0203
0000
0000
0000
,
0320
0000
2030
0000
,
3200
0000
0000
0000
,
0320
0000
0032
0000
,
2003
0000
3002
0000
,
0203
0000
0320
0000
,
2030
3100
0020
0000
,
0032
0000
0000
0000
,
0000
0000
0000
0000
,
0023
0000
0030
0000
,
0100
1000
0010
0000
,
0200
0000
0000
0000
,
0000
0000
0000
0000
,
0302
0000
0000
0003
,
0010
0000
0010
0010
,
0100
0010
0100
0010
,
0100
0000
0100
0000
,
1000
0001
1000
0001
,
1000
0000
1000
0000
,
0010
0100
0010
0100
,
0010
0000
0100
0000
,
0001
1000
0100
0010
,
0001
0010
0100
0000
,
2000
0000
0001
0000
,
0010
0000
0100
0000
,
3100
0000
0000
0000
,
1000
0100
0010
0000
,
0002
0000
0010
0000
,
0100
0000
1000
0000
,
1003
0000
0001
0000
,
1000
0000
0001
1000
,
0010
0000
0100
0000
,
0010
0100
0010
0100
,
0001
0000
1000
0000
,
0001
1000
0100
0010
,
0001
0000
0010
0000
,
0100
1000
0100
1000
,
0001
0000
0010
0000
,
0001
1000
0010
0100
,
0001
0000
0001
0000
,
1000
0100
0010
0001
,
1000
0000
1000
0000
,
0001
0010
0100
1000
,
0001
0000
0001
0000
,
1000
0010
0100
0001
,
1000
0000
1000
0000
,
0001
0000
0000
0110
,
1001
0000
0000
0000
;
