#TITLE:My Precious;
#SUBTITLE:;
#ARTIST:Daiki Kasho;
#TITLETRANSLIT:;
#SUBTITLETRANSLIT:;
#ARTISTTRANSLIT:;
#CRChallenge:;
#BANNER:my.png;
#BACKGROUND:my-bg.png;
#LYRICSPATH:;
#CDTITLE:!cdtitle.png;
#MUSIC:my.ogg;
#OFFSET:0.000;
#SAMPLESTART:54.446;
#SAMPLELENGTH:12.000;
#SELECTABLE:YES;
#BPMS:0.000=185.000;
#STOPS:;
#BGCHANGES:;
#NOTES:
     dance-single:
     Renard:
     Medium:
     9:
     0.576,0.574,0.243,0.000,0.000:
0000
0000
0000
0000
,
0000
0000
0000
0000
,
0000
0000
0000
0000
,
0000
0000
0000
0000
,
0000
0000
0000
0000
,
0000
0000
0000
0000
,
0000
0000
0000
0000
,
0000
0000
0000
0000
,
1000
0000
0100
0000
,
1000
0100
0010
0001
,
1000
0100
0010
0001
1000
0010
0100
0010
,
0000
0010
1000
0000
0100
0010
0000
0001
,
0000
0100
0010
0000
1000
0100
0000
0010
,
0000
0001
0010
0000
0100
1000
0000
0001
,
0100
0010
1000
0100
0010
0100
1000
0001
,
0000
0010
0001
0000
1000
0010
0000
0100
,
0000
0001
1000
0000
0100
0010
0000
0001
,
0000
1000
0010
0000
0100
0001
0000
1000
,
0100
0010
0100
1000
0001
0010
0100
0010
,
0000
0001
1000
0000
0010
0100
0000
0001
,
0000
1000
0100
0000
0010
0001
0000
1000
,
0000
0010
0100
0000
0001
0100
0010
1000
,
0100
0010
0001
0010
0100
1000
0001
0010
,
0000
0001
1000
0000
0100
0010
0000
0001
,
0000
0010
0100
0000
1000
0001
0000
0100
,
0010
0000
1000
0010
0100
0000
0001
0000
,
1000
1000
0100
0100
0010
0010
0001
0001
,
0000
0000
0010
0000
0100
0000
1000
0100
,
1000
0000
0100
1000
0100
0000
1000
0001
,
1000
0000
0001
1000
0001
0000
1000
0000
,
0001
0001
0100
0100
0010
0010
1000
1000
,
0000
0000
0010
0000
1000
0000
0001
0100
,
0001
0000
1000
0001
1000
0000
0100
1000
,
0100
0000
1000
0001
1000
0000
0001
0000
,
0100
0100
0010
0010
1000
1000
0001
0001
,
0000
0000
1000
0000
0100
0000
0010
0001
,
0010
0000
0001
0010
0001
0000
1000
0100
,
1000
0000
1000
0001
1000
0000
0001
0000
,
0100
0100
0010
0010
1000
1000
0001
0001
,
0000
0000
1000
0000
0100
0000
1000
0001
,
1000
0000
0001
0100
0001
0000
1000
0001
,
1000
0000
0100
1000
0100
0000
1000
0000
,
0011
0000
0100
1000
0010
0000
0010
0100
,
0000
0001
0100
0010
1000
0000
1000
0100
,
0000
0100
0010
0000
0001
0010
0100
0000
,
1100
0011
1100
0011
,
0100
0000
1000
0010
0100
0000
0100
0010
,
0000
0010
1000
0000
0001
0100
0010
1000
,
0000
1000
0010
0000
0100
0001
0000
0110
,
0000
0101
0000
0110
0000
0101
0000
0000
,
0001
0000
0100
0010
1000
0000
1000
0010
,
0000
1000
0100
0000
0010
0000
0001
0010
,
0000
0100
1000
0000
0011
0000
0000
0000
,
1100
0011
1100
0011
,
0100
0000
0100
1000
0010
0000
0010
0100
,
0000
0100
0001
0000
0100
0010
1000
0100
,
0000
0100
1000
0000
0001
0010
0000
1100
,
0000
0011
0000
1100
0000
0011
0000
0000
,
1000
0100
1000
0000
0001
1000
0000
0100
,
0000
1000
0001
0000
0010
0001
1000
0000
,
0001
0100
0001
0000
1000
0100
0000
1000
,
0000
0001
0100
0000
0001
1000
0100
0000
,
1000
0001
0100
0000
0001
1000
0000
0100
,
0000
1000
0001
0000
0100
0001
1000
0000
,
0100
0000
0100
1000
0001
0000
0001
1000
,
0100
1000
0100
1000
0001
0010
0001
0010
,
0001
0000
1000
0100
0010
0000
0010
0001
,
0000
0001
0010
0000
0100
1000
0001
0010
,
0000
0010
0001
0000
0100
0000
0000
0000
,
0101
1010
0101
1010
,
0010
0000
0010
1000
0100
0000
0100
0010
,
0000
0010
0001
0010
0100
0000
0100
1000
,
0000
1000
0100
0000
0010
0001
0000
0110
,
0000
0011
0000
0110
0000
0011
0000
0000
,
0001
0001
0010
0010
0100
0100
1000
1000
,
0000
0000
0010
1000
0001
0000
0100
0010
,
1000
0000
0100
0010
0001
0000
0010
0100
,
1000
0000
0001
0100
0010
0000
1000
0000
,
0100
0100
0010
0010
0001
0001
1000
1000
,
0000
0000
0001
0000
0010
0000
0100
1000
,
0010
0000
0100
0001
0010
0000
0100
1000
,
0010
0000
0100
0001
0010
0100
1000
0001
;
#NOTES:
     dance-single:
     Renard:
     Hard:
     10:
     0.688,0.881,0.150,0.000,0.276:
0000
0000
0000
0000
,
0000
0000
0000
0000
,
0000
0000
0000
0000
,
0000
0000
0000
0000
,
0000
0000
0000
0000
,
0000
0000
0000
0000
,
0000
0000
0000
0000
,
0000
0000
0000
0000
,
1000
0000
0100
0000
,
1000
0100
0010
0001
,
1000
0100
0010
0001
1000
0010
0100
0010
,
0000
0010
1000
0000
0100
0010
0000
0001
,
0000
0100
0010
0000
1000
0100
0000
0010
,
0000
0000
0001
0010
0001
0000
1000
0100
1000
0000
0001
0010
0001
0000
1000
0000
,
0010
0100
0001
0010
0100
0010
0001
1000
,
0000
0100
1000
0000
0001
0100
0000
0010
,
0000
1000
0001
0000
0010
0100
0000
1000
,
0000
0000
0001
0000
0100
0000
0000
0000
0010
0000
1000
0000
0001
1000
0001
1000
,
0100
0010
0100
1000
0001
0010
0100
0010
,
0000
0001
1000
0000
0010
0100
0000
0001
,
0000
1000
0100
0000
0010
0001
0000
1000
,
0000
0000
0010
1000
0010
0000
0100
0001
0100
0000
0010
1000
0010
0000
1000
0001
,
0010
0100
1000
0100
0010
0001
1000
0100
,
0000
1000
0001
0000
0010
0100
0000
1000
,
0000
0100
0010
0000
0001
1000
0000
0010
,
0100
0000
0000
0000
0001
0000
0100
0000
0010
0000
0000
0000
1000
0001
1000
0001
,
1000
1000
0100
0100
0010
0010
0001
0011
,
0000
0000
0010
0000
0100
0000
1000
0100
,
1000
0000
0100
1000
0100
0000
1000
0001
,
1000
0000
0001
0100
0001
0000
1000
0100
1000
0000
0001
0100
0001
0000
1000
0000
,
0001
0001
0100
0100
0010
0010
1000
1010
,
0000
0000
0010
0000
1000
0000
0001
0100
,
0001
0000
1000
0001
1000
0000
0100
1000
,
0100
0000
0000
0000
1000
0000
0001
0000
1000
0000
0000
0000
0001
1000
0001
1000
,
0010
0010
0100
0100
0001
0001
1000
1001
,
0000
0000
0001
0000
0010
0000
0100
1000
,
0100
0000
1000
0100
1000
0000
0001
0010
,
0001
0000
1000
0100
1000
0000
0001
0010
0001
0000
1000
0010
1000
0000
0001
0000
,
0100
0100
0010
0010
1000
1000
0001
1001
,
0000
0000
1000
0000
0100
0000
1000
0001
,
1000
0000
0001
0100
0001
0000
1000
0001
,
1000
0000
0000
0000
0100
0000
1000
0000
0100
1000
0001
0010
0100
1000
0001
0010
,
0001
0000
0010
0001
0100
0000
0100
0010
,
0000
1000
0010
0100
0001
0000
0001
0010
,
0000
0010
0100
0000
1000
0100
0010
0000
,
0001
0000
0010
0001
1000
0000
0100
1000
0001
0000
0010
0001
1000
0000
0100
0010
,
0001
0000
0001
0100
0010
0000
0010
0100
,
0000
0100
0001
0000
1000
0010
0100
0001
,
0000
0001
0100
0000
0010
1000
0000
0110
,
0000
0000
1010
0000
0000
0000
0110
0000
0000
0000
0010
0000
1000
0010
1000
0010
,
1000
0000
0010
0100
0001
0000
0001
0100
,
0000
0001
0010
0000
0100
0000
1000
0100
,
0000
0010
0001
0000
1100
0000
0000
0000
,
0010
0000
0001
1000
0100
0000
1000
0001
0010
0000
0001
1000
0100
0000
0010
0001
,
0010
0000
0010
0001
0100
0000
0100
0010
,
0000
0010
1000
0000
0010
0100
0001
0010
,
0000
0010
0001
0000
1000
0100
0000
0011
,
0000
0000
1100
0000
0000
0000
0011
0000
0000
0000
1000
0000
0100
0010
0001
0010
,
0001
0010
0001
0000
1000
0001
0000
0010
,
0000
0001
1000
0000
0100
1000
0001
0000
,
1000
0010
1000
0000
0001
0010
0000
0001
,
0000
1000
0010
0000
1000
0001
0010
0000
,
0001
1000
0010
0000
1000
0001
0000
0010
,
0000
0001
1000
0000
0010
1000
0001
0000
,
0010
0000
0010
0001
1000
0000
1000
0001
,
0010
0000
0001
0000
0010
0000
0001
0000
1000
0000
0100
0000
1000
0100
1000
0100
,
1000
0000
0001
0010
0100
0000
0100
1000
,
0000
1000
0100
0000
0010
0001
1000
0100
,
0000
0100
1000
0000
0010
0000
0000
0000
,
0010
1000
0010
1000
0001
0100
0001
0100
0010
1000
0010
1000
0001
0100
0001
0100
,
0010
0000
0010
1000
0100
0000
0100
0010
,
0000
0010
0001
0010
0100
0000
0100
1000
,
0000
1000
0100
0000
0010
0001
0000
0110
,
0000
0000
0011
0000
0000
0000
0110
0000
0000
0000
0001
0000
0010
0100
0010
0001
,
1000
1000
0100
0100
0010
0010
0001
0011
,
0000
0000
0100
0001
1000
0000
0010
0100
,
0001
0000
0010
0100
1000
0000
0100
0010
,
0001
0010
0001
0010
0100
1000
0100
1000
0001
0010
0001
0010
0100
1000
0100
1000
,
0100
0100
0010
0010
0001
0001
1000
1001
,
0000
0000
0001
0000
0010
0000
0100
1000
,
0010
0000
0100
0001
0010
0000
0100
1000
,
0010
0000
0000
0000
0100
0000
0001
0000
0010
0100
1000
0001
0010
0100
1000
0001
;
#NOTES:
     dance-single:
     Renard:
     Easy:
     6:
     0.369,0.460,0.000,0.000,0.000:
0000
0000
0000
0000
,
0000
0000
0000
0000
,
0000
0000
0000
0000
,
0000
0000
0000
0000
,
0000
0000
0000
0000
,
0000
0000
0000
0000
,
0000
0000
0000
0000
,
0000
0000
0000
0000
,
0000
0000
0000
0000
,
0000
0000
0000
0000
,
0001
0000
1000
0000
0100
0000
1000
0001
,
0000
0000
1000
0000
0010
0000
0100
0001
,
0000
0000
1000
0000
0100
0000
0010
0001
,
0000
0000
0010
0000
0100
0000
1000
0001
,
1000
0000
0010
0000
1000
0000
0001
1000
,
0000
0001
0100
0010
,
1000
0000
0001
0000
1000
0000
0100
0010
,
0000
0001
1000
0010
,
0100
0000
0001
0000
1000
0000
0100
1000
,
0000
0001
0100
0010
,
0100
0000
0001
0000
1000
0000
0100
1000
,
0000
0001
0100
0010
,
1000
0000
1000
0000
0010
0000
0010
0100
,
0000
0001
0100
0010
,
1000
0000
0100
0000
0010
0001
0000
0000
,
1000
0000
0010
0000
,
0100
0001
0100
0001
0100
0001
0100
0001
,
0000
0000
0100
0000
0010
0000
1000
0010
,
0000
0000
1000
0100
0000
0000
0010
0001
,
0000
0000
0000
0000
,
1000
0100
1000
0100
1000
0100
1000
0100
,
0000
0000
1000
0000
0010
0000
0100
0001
,
0000
0000
1000
0100
0000
0000
0010
0001
,
0000
0000
0000
0000
,
0100
0010
0100
0010
0100
0010
0100
0010
,
0000
0000
0000
0000
0000
0000
1000
0010
,
0000
0000
0100
0001
0000
0000
1000
0100
,
0000
0000
0010
0001
0000
0000
0000
0000
,
1000
0001
1000
0001
1000
0001
1000
0001
,
0000
0000
0000
0000
0000
0000
0100
0010
,
0000
0000
1000
0010
0000
0000
0100
0001
,
0000
0000
1000
0100
,
0010
0000
0000
0000
0001
0000
0000
1000
,
0000
0000
0010
0000
0100
0000
0000
0010
,
0000
1000
0001
0000
,
0100
0000
0001
0100
0001
0000
0100
0000
,
0001
0000
0000
0000
1000
0000
0000
0100
,
0000
0000
0010
0000
0001
0000
0000
1000
,
0000
0000
0010
0000
1000
0000
0000
0001
,
0000
0100
0000
0010
0000
1000
0000
0000
,
0001
0000
0000
0000
1000
0000
0000
0100
,
0000
0000
0010
0000
0001
0000
0000
1000
,
0000
0010
1000
0000
,
0001
0100
0001
1000
,
0100
0000
0000
0000
0010
0000
0000
0001
,
0000
0000
1000
0000
0001
0000
0000
0010
,
0000
0100
1000
0001
,
0100
0010
1000
0001
,
0100
0000
0100
0000
0010
0000
0000
1000
,
0000
0000
0010
0000
0100
0001
0100
0000
,
0010
0000
0010
0000
1000
0000
0000
0001
,
0000
0000
0010
0000
0100
1000
0100
0000
,
1000
0000
0001
0000
0010
0000
0000
0001
,
0000
0000
1000
0000
0010
1000
0010
0000
,
1000
0000
0010
0000
0100
0000
0000
0001
,
0000
0000
1000
0000
0100
1000
0100
0000
,
1000
0000
0001
0000
0100
0000
0000
0010
,
0000
0000
1000
0000
0010
0000
0100
0010
,
0000
0100
0001
0000
,
1000
0001
1000
0001
1000
0001
1000
0001
,
1000
0000
0000
0000
0010
0000
0000
0100
,
0000
0000
0001
0000
1000
0000
0000
0100
,
0000
0000
0010
0000
0001
0000
0000
0010
,
0000
0001
0000
1000
0001
1000
0001
1000
,
0001
0000
0000
0000
1000
0000
0010
1000
,
0000
0000
0010
0000
0100
0000
0001
1000
,
0000
0001
1000
0100
,
0010
0001
0010
0100
,
1000
0000
0001
0000
0100
0001
0100
0001
,
0000
0000
0100
0000
0010
0000
1000
0100
,
0000
0010
0001
1000
,
0010
0000
0100
0000
0001
1000
0001
1000
;
#NOTES:
     dance-single:
     Renard:
     Beginner:
     3:
     0.283,0.344,0.075,0.019,0.000:
0000
0000
0000
0000
,
0000
0000
0000
0000
,
0000
0000
0000
0000
,
0000
0000
0000
0000
,
0000
0000
0000
0000
,
0000
0000
0000
0000
,
0000
0000
0000
0000
,
0000
0000
0000
0000
,
0000
0000
0000
0000
,
0000
0000
0000
0000
,
0001
0000
0010
0000
0001
0000
0000
1000
,
0000
0010
1000
0000
,
0000
0000
0010
0000
0100
0000
0000
0001
,
0000
1000
0100
0010
,
0000
0000
0001
0000
1000
0000
0000
0010
,
0000
1000
0001
0000
,
0000
0000
0100
0000
0010
0000
0000
1000
,
0000
0010
0100
0010
,
0000
0000
1000
0000
1000
0000
0000
0010
,
0000
0100
0001
1000
,
0000
0000
0001
0000
0001
0000
0000
0010
,
0000
0100
1000
0100
,
0000
0000
1000
0000
1000
0000
0000
0001
,
0000
0000
0100
0000
0100
0000
0000
0010
,
0000
1000
0010
0000
,
0200
0000
0000
0300
0002
0000
0000
0003
,
1000
1000
1000
1000
,
0000
0001
0100
0010
,
0010
0000
0010
0000
,
0010
0000
0010
0000
,
1000
1000
1000
1000
,
0000
0001
0100
0100
,
0010
0000
0010
0000
,
0010
0000
0010
0000
,
1000
1000
1000
1000
,
0000
0001
0010
0010
,
0100
0000
0100
0000
,
0100
0000
0100
0000
,
1000
1000
1000
1000
,
0000
0001
0001
0010
,
0100
0000
0100
0000
,
0100
0000
0100
0000
,
1000
0000
0000
0000
0100
0000
0000
0010
,
0000
0000
0001
0000
1000
0000
0000
0010
,
0000
0100
0001
0000
,
1000
0100
0010
0001
,
1000
0000
0000
0000
0001
0000
0000
0100
,
0000
0000
0010
0000
1000
0000
0000
0010
,
0000
1000
0010
0000
,
1000
0000
0001
0000
,
1000
0000
0000
0000
0100
0000
0000
0010
,
0000
0000
0001
0000
1000
0000
0000
0001
,
0000
0010
0100
0000
,
1000
1000
0001
0001
,
0100
0000
0000
0000
0010
0000
0000
1000
,
0000
0000
0010
0000
0100
0000
0000
0001
,
0000
1000
0100
0010
,
0001
1000
0001
1000
,
0010
0000
1001
0000
,
0100
0000
1001
0000
,
0010
0000
1001
0000
,
0100
0000
1001
0000
,
0100
0000
1010
0000
,
0100
0000
0011
0000
,
0010
0000
0101
0000
,
0010
0001
0100
0000
,
0010
0000
0000
0000
1000
0000
0000
0100
,
0000
0000
0000
0000
1000
0000
0000
0010
,
0000
0100
0001
0000
,
1000
1000
0001
0001
,
1000
0000
0000
0000
0100
0000
0000
0010
,
0000
0000
0000
0000
0001
0000
0000
0010
,
0000
0100
1000
0000
,
0001
0001
0100
0100
,
0010
0010
0010
0010
,
0000
0000
1000
0000
0010
0000
1000
0010
,
0000
0100
0000
0100
,
0000
0100
0000
0100
,
0001
0000
0001
0000
0010
0000
0001
0010
,
0000
0100
0100
0000
,
1000
1000
0001
0001
,
0100
0010
1000
0101
;
