#TITLE:My Land;
#SUBTITLE:;
#ARTIST:Sonata Arctica;
#TITLETRANSLIT:;
#SUBTITLETRANSLIT:;
#ARTISTTRANSLIT:;
#CRChallenge:;
#BANNER:land.png;
#BACKGROUND:land-bg.png;
#LYRICSPATH:;
#CDTITLE:!cdtitle.png;
#MUSIC:land.ogg;
#OFFSET:0.000;
#SAMPLESTART:22.235;
#SAMPLELENGTH:12.000;
#SELECTABLE:YES;
#BPMS:0.000=165.000,16.000=175.000,198.000=87.500,230.000=175.000,294.000=87.500,322.000=175.000;
#STOPS:;
#BGCHANGES:;
#NOTES:
     dance-single:
     Renard:
     Medium:
     9:
     0.635,0.689,0.164,0.742,0.096:
0000
0000
0000
0000
,
0000
0000
0000
0000
,
0000
0000
0000
0000
,
0000
0000
0000
0000
,
0001
0010
0100
1000
0000
1000
0100
0010
,
0000
0001
0010
0100
1000
0001
0100
0010
,
1000
0010
0100
0001
0000
0001
0100
0010
,
0000
1000
0010
0100
0001
0010
0100
1000
,
0002
0000
0013
0200
0000
1300
0020
0000
,
0130
0001
0100
0010
1000
0100
0010
0001
,
0020
0000
0031
2000
0000
3010
0200
0000
,
0000
0300
0001
0100
0010
1000
0100
0000
,
0020
0000
0031
0020
0000
0130
2000
0000
,
3010
0200
0000
0000
0301
0010
0001
0000
,
0020
0000
0031
0020
0000
0130
2000
0000
,
3010
0100
0001
0100
0010
1000
0100
0010
,
0002
0000
0023
0000
0130
1000
0020
0000
,
0230
0000
0302
0000
0103
0010
1000
0100
,
0020
0000
0032
0000
1003
0010
0200
0000
,
0302
0000
0023
0000
0130
1000
0001
0100
,
0020
0000
2030
0000
3100
0010
0001
0010
,
0200
0000
2300
0000
3010
0100
0001
0100
,
0020
0000
2030
0000
3100
0010
0001
0010
,
0200
0000
2300
0000
3010
0100
0001
0100
,
0020
0000
1030
0100
0010
0001
1000
0010
,
0100
0000
0001
0010
0100
0000
1000
0000
,
1100
0000
0100
0010
0011
0000
0001
0100
,
0101
0000
0100
0010
1000
0100
0010
0001
,
0010
0000
0010
0100
1000
0000
1000
0010
,
0100
0000
0100
0001
0010
0000
0010
0000
,
0001
0010
0100
1000
0100
0010
0001
1000
,
0020
0000
0130
0000
,
0001
0100
0000
0100
0010
0000
1000
0000
,
0100
1000
0000
0000
1100
0000
0000
0000
,
0100
0010
0001
1000
0010
0100
0001
0100
,
0010
0000
1000
0100
0010
0000
0011
0000
,
1100
0101
1010
1000
,
0100
0010
0001
0000
0010
0000
0100
0000
,
1000
0000
0001
0100
0010
0000
1000
0000
,
0001
0100
1000
0100
0001
0100
1000
0100
,
0001
0100
1000
0100
0001
0100
1000
0100
,
0001
0000
0100
0010
1000
0000
0100
0000
,
0010
0000
0001
0000
0100
0010
1000
0000
,
0100
0001
0100
1000
0100
0001
0100
1000
,
0100
0001
0100
1000
0100
0001
0100
1000
,
0100
1000
0000
0000
0000
0000
0001
0100
0000
0000
0000
0000
0010
0000
0000
0000
,
0010
1000
0000
0000
0000
0000
0001
0100
0000
0000
0000
0000
0001
0000
0000
0000
,
0010
0100
0000
0000
0000
0000
0100
1000
0000
0000
0000
0000
0001
0000
0000
0000
,
0100
0001
0100
0000
0001
0000
0000
0000
1000
0100
1000
0000
0001
0000
0000
0000
,
0110
0000
0000
0000
1001
0000
0000
0000
0002
0000
0000
0203
0000
0000
0320
0000
,
0000
0000
2030
0000
3200
0000
0320
0000
0032
0000
0000
2003
0000
0000
3020
0000
,
0000
0000
0230
0000
0302
0000
2003
0000
3200
0000
0000
2300
0000
0000
3020
0000
,
0000
0000
0230
0000
0302
0000
0203
0000
0320
0000
0000
2030
0000
0000
3200
0000
,
0000
0000
0320
0000
0032
0000
2003
0000
3002
0000
0000
0023
0000
0000
0230
0000
,
0000
0000
2300
0000
3020
0000
0230
0000
0302
0000
0000
0203
0000
0000
0320
0000
,
0000
0000
2030
0000
3200
0000
0320
0000
0032
0000
0000
2003
0000
0000
3020
0000
,
0000
0230
0302
0023
0230
0000
0000
0000
,
1000
1000
1000
1300
0100
1000
0010
0100
,
0001
0010
1000
0010
0001
0100
0010
1000
,
0100
0001
0100
1000
0010
0100
0001
0010
,
1000
0010
0001
0010
0100
1000
0010
0100
,
0001
0100
1000
0100
0001
0100
0010
1000
,
0100
0001
0100
1000
0010
0100
0001
0010
,
1000
0010
0001
0100
0010
1000
0100
0010
,
0001
0000
0000
0010
0000
0000
1000
0000
0000
0010
0000
0000
0001
0000
0010
0000
0100
0000
1000
0000
0100
0000
0010
0000
,
0001
0000
0100
0000
0010
0000
1000
0000
0100
0000
0010
0000
0001
0000
0000
0000
0000
0000
0001
0000
0000
0010
0000
0000
,
0011
0000
0010
0100
1000
0000
0100
1000
,
0010
0100
0010
0100
0001
0000
0001
0100
,
0110
0000
0010
1000
1010
0000
1000
0100
,
1100
0000
0110
0000
0011
0000
0010
0100
,
0110
0000
0100
1000
0010
0100
0001
0000
,
0100
0010
1000
0100
1000
0000
0100
1000
,
1100
0000
0100
0010
0110
0000
0010
0001
,
0011
0000
0001
0010
0200
0000
2300
3020
,
0230
0000
0302
0000
2003
0000
3200
0000
0320
0000
0000
0000
0032
0000
0000
1003
,
0020
0230
0302
2003
,
3200
0320
0032
0000
,
0000
0000
0000
0000
0000
0000
0000
0000
0203
0000
0000
0301
2000
0000
3200
0000
,
0320
0000
0032
0000
2003
0000
0020
3000
0230
0000
0000
0000
0302
0000
0000
0000
,
2003
0000
3200
0000
0010
0320
0001
0031
,
1001
0000
0110
0000
0010
1000
0100
0010
,
0001
0100
0010
1000
0100
0010
0001
0010
,
0100
1000
0010
0100
0001
0010
0100
1000
,
0100
0000
0000
0010
0000
0000
0001
0000
0000
0100
0000
0000
1001
0000
0000
0000
0000
0000
0001
0000
0010
0000
0100
0000
,
1000
0000
0000
0000
;
#NOTES:
     dance-single:
     Renard:
     Hard:
     11:
     0.744,0.989,0.228,0.763,0.392:
0000
0000
0000
0000
,
0000
0000
0000
0000
,
0000
0000
0000
0000
,
0000
0000
0000
0000
,
0001
0010
0100
1000
0000
1000
0100
0010
,
0000
0001
0010
0100
1000
0001
0100
0010
,
1000
0010
0100
0001
0000
0001
0100
0010
,
0000
1000
0010
0100
0001
0010
0100
1000
,
0002
0000
0013
0200
0000
1300
0020
0000
,
0130
0001
0100
0010
1000
0100
0010
0001
,
0020
0000
0031
2000
0000
3010
0200
0000
,
0000
0300
0001
0100
0010
1000
0100
0000
,
0020
0000
0031
0020
0000
0130
2000
0000
,
3010
0200
0000
0000
0301
0010
0001
0000
,
0020
0000
0031
0020
0000
0130
2000
0000
,
3010
0100
0001
0100
0010
1000
0100
0010
,
0002
0000
0023
0000
0130
1000
0020
0000
,
0230
0000
0302
0000
0103
0010
1000
0100
,
0020
0000
0032
0000
1003
0010
0200
0000
,
0302
0000
0023
0000
0130
1000
0001
0100
,
0020
0000
2030
0000
3100
0010
0001
0010
,
0200
0000
2300
0000
3010
0100
0001
0100
,
0020
0000
2030
0000
3100
0010
0001
0010
,
0200
0000
2300
0000
3010
0100
0001
0100
,
0020
0000
1030
0100
0010
0001
1000
0010
,
0100
0000
0001
0010
0100
0000
1000
0000
,
1100
0000
0100
0010
0011
0000
0001
0100
,
0101
0000
0100
0010
1000
0100
0010
0001
,
0010
0000
0010
0100
1000
0000
1000
0010
,
0100
0000
0100
0001
0010
0000
0010
0000
,
0001
0010
0100
1000
0100
0010
0001
1000
,
0020
0000
0130
0000
,
0001
0100
0000
0100
0010
0000
1000
0000
,
0100
1000
0000
0000
1100
0000
0000
0000
,
0100
0010
0001
1000
0010
0100
0001
0100
,
0010
0000
1000
0100
0010
0000
0011
0000
,
1100
0101
1010
1000
,
0100
0010
0001
0000
0010
0000
0100
0000
,
1000
0000
0001
0100
0010
0000
1000
0000
,
0001
0100
0010
1000
0100
0010
0001
0010
0100
1000
0001
0100
0010
1000
0100
0010
,
0001
0010
0100
1000
0001
0100
0010
1000
0100
0010
0001
0010
0100
1000
0001
0100
,
0001
0000
0100
0010
1000
0000
0100
0000
,
0010
0000
0001
0000
0100
0010
1000
0000
,
0100
1000
0010
0100
0001
0010
0100
1000
0001
0100
0010
1000
0100
0010
0001
0010
,
0100
1000
0001
0100
0010
1000
0100
0010
0001
0010
0100
1000
0001
0100
0010
1000
,
0001
0100
0001
0000
0100
0001
0100
0000
0010
1000
0010
0000
2000
0000
0000
0000
,
3001
0100
0001
0000
0100
0001
0100
0000
0010
1000
0010
0000
0200
0000
0000
0000
,
0301
1000
0001
0000
1000
0010
1000
0000
0001
0100
0001
0000
2000
0000
0000
0000
,
3001
0100
0001
0000
1000
0000
0000
0000
0001
0010
0001
0000
1000
0000
0000
0000
,
0110
0000
0000
0000
1001
0000
0000
0000
0002
0000
0000
0203
0000
0000
0320
0000
,
0000
0000
2030
0000
3200
0000
0320
0000
0032
0000
0000
2003
0000
0000
3020
0000
,
0000
0000
0230
0000
0302
0000
2003
0000
3200
0000
0000
2300
0000
0000
3020
0000
,
0000
0000
0230
0000
0302
0000
0203
0000
0320
0000
0000
2030
0000
0000
3200
0000
,
0000
0000
0320
0000
0032
0000
2003
0000
3002
0000
0000
0023
0000
0000
0230
0000
,
0000
0000
2300
0000
3020
0000
0230
0000
0302
0000
0000
0203
0000
0000
0320
0000
,
0000
0000
2030
0000
3200
0000
0320
0000
0032
0000
0000
2003
0000
0000
3020
0000
,
0000
0230
0302
0023
0230
0000
0000
0000
,
1000
0000
1000
0000
1000
0000
1300
0000
0100
1000
0001
0010
0100
1000
0010
0100
,
0001
0010
0100
1000
0001
0100
0010
1000
0100
0010
0001
0010
0100
1000
0001
0100
,
0010
1000
0100
0010
0001
0010
0100
1000
0001
0100
0010
1000
0100
0010
0100
1000
,
0001
0010
0100
0010
0001
0100
0010
1000
0100
0010
0001
0010
0100
1000
0001
0100
,
0010
1000
0100
0010
0001
0010
0100
1000
0001
0100
0010
1000
0100
0010
0001
0010
,
0100
1000
0001
0100
0010
1000
0100
0010
0100
1000
0001
0010
0100
1000
0001
0100
,
0010
1000
0100
0010
0001
0010
0100
1000
0001
0000
1000
0000
0100
0000
0010
0000
,
0001
0000
0000
0100
0000
0000
0010
0000
0000
1000
0000
0000
0001
0000
0010
0000
0100
0000
1000
0000
0100
0000
0010
0000
,
0001
0000
0100
0000
0010
0000
1000
0000
0100
0000
0010
0000
0001
0000
0000
0000
0000
0000
0001
0000
0000
0010
0000
0000
,
0011
0000
0010
0100
1000
0000
0100
1000
,
0010
0100
0010
0100
0001
0000
0001
0100
,
0110
0000
0010
1000
1010
0000
1000
0100
,
1100
0000
0110
0000
0011
0000
0010
0100
,
0110
0000
0100
1000
0010
0100
0001
0000
,
0100
0010
1000
0100
1000
0000
0100
1000
,
1100
0000
0100
0010
0110
0000
0010
0001
,
0011
0000
0001
0010
0200
0000
2300
3020
,
0230
0000
0302
0000
2003
0000
3200
0000
0320
0000
0000
0000
0032
0000
0000
1003
,
0020
0230
0302
2003
,
3200
0320
0032
0000
,
0000
0000
0000
0000
0000
0000
0000
0000
0203
0000
0000
0301
2000
0000
3200
0000
,
0320
0000
0032
0000
2003
0000
0020
3000
0230
0000
0000
0000
0302
0000
0000
0000
,
2003
0000
3200
0000
0010
0320
0001
0031
,
1001
0000
0110
0000
1001
0100
0100
1001
,
0010
0010
1001
0100
0100
1001
0010
0010
,
1001
0100
1001
0010
1001
0100
0100
1001
,
0010
0000
0000
0010
0000
0000
1001
0000
0000
0100
0000
0000
1001
0000
0000
0000
0000
0000
0001
0000
0010
0000
0100
0000
,
1000
0000
0000
0000
;
#NOTES:
     dance-single:
     Renard:
     Easy:
     7:
     0.463,0.509,0.428,0.257,0.000:
0000
0000
0000
0000
,
0000
0000
0000
0000
,
0000
0000
0000
0000
,
0000
0000
0000
0000
,
0001
1000
0100
1000
,
0001
0000
0100
0000
0001
1000
0001
0000
,
1000
0100
1000
0001
,
0100
0000
0001
0000
1000
0001
1000
0001
,
1000
0010
1000
0010
,
0100
0001
1000
0001
,
1001
0000
0000
0110
0000
0000
1001
0000
,
0000
0001
1000
0100
,
0010
0001
0010
0001
,
1000
0100
1000
0100
,
1100
0000
0000
0011
0000
0000
1100
0000
,
1000
0000
0001
0000
0100
0010
0100
0000
,
0110
0101
0110
0101
,
0110
0101
0100
0110
,
0010
1010
0010
0110
,
0010
1010
0110
1010
,
1000
1001
0001
1001
,
1000
1001
0101
1001
,
0001
1001
1000
1100
,
1000
1001
0101
1001
,
0001
0100
0001
0100
0001
0100
0001
0000
,
1000
0100
1000
0100
1000
0100
1000
0000
,
2002
3003
0220
0330
,
2002
0000
3003
0000
0010
0100
0010
0000
,
0200
0000
0301
1000
,
0100
0000
1100
0000
,
0001
0010
0001
0010
0001
0010
0001
0010
,
0001
0000
0000
0001
0010
0000
0000
0000
,
0100
0000
0000
0100
1000
0000
0000
0000
,
0010
0000
0000
0010
1000
0000
0000
0000
,
0001
0000
0000
0001
0100
0000
0010
0000
,
1000
0000
1000
0010
1000
0000
0010
0000
,
1000
1000
0001
0000
,
0100
0001
1001
0000
,
0000
0000
1000
0010
1000
0000
0001
0000
,
0102
1000
0100
1000
,
0100
1000
0100
1003
,
1001
0000
0001
1000
0001
0000
1000
0000
,
0100
1100
1001
1010
,
1002
0100
1000
0100
,
1000
0100
1000
1003
,
1001
0000
0000
0110
0000
0000
1001
0000
,
0110
0000
0000
1001
0000
0000
0110
0000
,
1001
0000
0000
0110
0000
0000
1001
0000
,
0001
1000
0001
0000
0100
0010
0100
0000
,
0001
0000
1000
0000
1002
0000
0000
0203
,
0000
0000
0320
0000
2030
0000
0000
3200
,
0000
0000
0320
0000
0032
0000
0000
0203
,
0000
0000
0320
0000
2030
0000
0000
3002
,
0000
0000
0203
0000
0302
0000
0000
2003
,
0000
0000
3100
0100
0020
0000
0000
0032
,
0000
0000
1003
1000
0020
0000
0000
0230
,
0000
0001
0001
0001
0002
0000
0300
0000
,
1000
0000
1000
0000
1003
0001
1000
0001
,
1000
0001
1000
0001
1000
0001
1000
0001
,
1000
0001
1000
0001
0100
0010
0100
0010
,
0100
0010
0100
0010
0100
0010
0100
0010
,
0100
0010
0100
0010
1000
0001
1000
0001
,
1000
0001
1000
0001
1000
0001
1000
0001
,
1000
0001
1000
0001
0100
0010
0100
0010
,
0100
0010
0100
0010
1000
0010
1000
0010
,
0100
0001
0100
0000
0001
0000
0000
0000
,
1001
1000
0100
1000
,
1100
0000
1000
0000
0001
0100
0001
0000
,
0100
0001
0100
0000
0001
1000
0001
0000
,
1000
0001
1000
0000
1000
0000
0100
0000
,
1100
0000
0010
0001
,
0011
0000
1001
1000
,
1010
1000
1001
1000
,
1100
1000
1002
0000
,
0203
0000
0010
0001
,
0010
0000
0320
0000
,
1000
0100
2000
0000
,
0000
0030
0001
0001
,
0010
0010
3200
0320
,
0032
0000
2003
0000
0010
0010
0001
0001
,
3100
0000
1100
0000
1000
0100
1000
0100
,
1000
0100
1000
0100
0010
0001
0010
0001
,
0010
0001
0010
0001
1000
0100
0010
0001
,
0010
0100
1000
0001
0010
0000
0100
0000
,
1001
0000
0000
0000
;
#NOTES:
     dance-single:
     Renard:
     Beginner:
     4:
     0.318,0.479,0.207,0.221,0.000:
0000
0000
0000
0000
,
0000
0000
0000
0000
,
0000
0000
0000
0000
,
0000
0000
0000
0000
,
0001
0001
1000
1000
,
0001
1000
0001
1000
,
0010
0010
0100
0100
,
0010
0100
0010
0100
,
0010
0000
0000
1000
0000
0000
0010
0000
,
0000
1000
0000
0000
0010
0000
1000
0000
,
0001
0000
0000
0100
0000
0000
0001
0000
,
0000
1000
0100
0010
,
0001
0000
0000
0010
0000
0000
0001
0000
,
0000
0010
0000
0000
0001
0000
0010
0000
,
0100
0000
0000
1000
0000
0000
0100
0000
,
1000
0100
1000
0001
,
1000
0000
0000
0010
0000
0000
0100
0000
,
0000
0001
0000
0000
1000
0000
0100
0000
,
0010
0000
0000
0001
0000
0000
1000
0000
,
0000
0010
0010
0100
,
0100
0000
0000
0001
0000
0000
1000
0000
,
0000
0010
0000
0000
1000
0000
0001
0000
,
0100
0000
0000
0001
0000
0000
0010
0000
,
0000
0100
0100
1000
,
0001
0000
0000
0001
0100
0000
0010
0000
,
1000
0000
1000
0000
,
0100
0000
0000
0100
1000
0000
0000
0000
,
1000
0010
0100
0000
,
0001
0000
0001
1000
,
0100
0000
0100
0010
,
0001
0001
1000
1000
,
0010
0000
0110
0000
,
0100
0001
0101
0000
,
0001
0000
1001
0000
,
1000
0100
1000
0001
,
0100
0100
0100
0100
,
0100
0100
0100
0000
,
0010
0010
0010
0000
,
1000
1000
0001
0001
,
1000
0001
1000
0001
,
1000
0001
1000
0001
,
0100
0100
0010
0000
,
0000
1000
0001
0001
,
0010
0010
0100
0100
,
1000
0100
1000
1000
,
0001
0000
0000
1001
0000
0000
1000
0000
,
1000
0000
0000
1001
0000
0000
0001
0000
,
0001
0000
0000
1001
0000
0000
1000
0000
,
1000
1001
0001
1001
,
1001
0110
1001
0000
,
0000
0000
0200
0000
,
0320
0000
2030
0000
,
0000
3002
0203
0000
,
0320
0000
2030
0000
,
0000
3002
0023
0000
,
0230
0000
2300
0000
,
0000
3020
0230
0000
,
0001
0000
0001
0300
0001
0000
0100
0000
,
0001
0100
0001
0100
,
0001
0100
0010
1000
,
0010
1000
0010
1000
,
0010
1000
0001
1000
,
0001
1000
0001
1000
,
0001
1000
0010
0100
,
0010
0100
0001
1000
,
0001
1000
0001
0100
,
0101
0000
1001
0000
,
1100
0000
1000
0100
,
1100
0000
0110
0000
,
0011
0000
0001
0100
,
0101
0000
0110
0000
,
1010
0000
0001
1000
,
1100
0000
1000
0001
,
0101
0000
2001
0000
,
3020
0000
0230
0320
,
2030
0000
3002
0000
,
0023
0230
0320
0000
,
0000
0000
0032
0000
,
2003
0000
3020
0230
,
0320
0000
2030
0000
0001
0001
0001
3001
,
1001
0000
0110
0000
2001
0000
0000
0001
,
0000
0000
3001
0000
0000
1002
0000
0000
,
1000
0000
1003
0000
2001
0000
0000
0001
,
0000
0000
3001
0000
1001
0000
0001
1000
,
0001
0000
0000
0000
;
