#TITLE:Mr. Happy;
#SUBTITLE:;
#ARTIST:DJ Hazard & Distorted Minds;
#TITLETRANSLIT:;
#SUBTITLETRANSLIT:;
#ARTISTTRANSLIT:;
#CRChallenge:;
#BANNER:happy.png;
#BACKGROUND:happy-bg.png;
#LYRICSPATH:;
#CDTITLE:;
#MUSIC:happy.ogg;
#OFFSET:0.000;
#SAMPLESTART:32.963;
#SAMPLELENGTH:12.000;
#SELECTABLE:YES;
#BPMS:0.000=174.000,96.000=348.000,104.000=174.000,160.000=348.000,164.000=174.000;
#DISPLAYBPM:180;
#STOPS:96.000=0.172
,97.000=0.172
,98.000=0.086
,98.500=0.259
,100.000=0.172
,101.000=0.172
,102.000=0.086
,102.500=0.259
,160.000=0.172
,161.000=0.172
,162.000=0.345
;
#BGCHANGES:;
#NOTES:
     dance-single:
     Renard:
     Challenge:
     9:
     0.644,0.800,0.281,0.329,0.218:
0000
0000
0000
0000
,
0000
0000
0000
0000
,
0000
0000
0000
0000
,
0000
0000
0000
0000
,
0000
0000
0000
0000
,
0000
0000
0000
0000
,
0000
0000
0000
0000
,
2000
0000
0000
0000
,
0001
0010
0001
0010
0001
0001
0010
0010
,
0001
0010
0001
0010
0001
0001
0010
0010
,
0001
0100
0001
0100
0001
0001
0100
0100
,
0001
0100
0001
0100
0001
0001
0100
0100
,
0001
0010
0001
0010
0001
0001
0010
0010
,
0001
0010
0001
0010
0001
0001
0010
0010
,
0001
0100
0001
0100
0001
0001
0100
0100
,
0001
0100
0001
0100
0001
0000
3002
0000
,
1000
0010
1000
0010
1000
1000
0010
0010
,
1000
0010
1000
0010
1000
1000
0010
0010
,
1000
0100
1000
0100
1000
1000
0100
0100
,
1000
0100
1000
0100
1000
1000
0100
0100
,
1000
0010
1000
0010
1000
1000
0010
0010
,
1000
0010
1000
0010
1000
1000
0013
0000
,
2002
0000
0000
0000
0000
0000
0000
0000
0000
0000
0000
0000
0000
0000
0003
3000
,
0001
1000
0001
1000
0001
1000
0001
1000
0001
1000
0001
1000
0001
1000
0001
1000
,
0001
0000
M00M
0000
0MM0
M00M
0000
0000
,
0MM0
0000
M00M
0000
0MM0
M00M
0000
0000
,
2001
0000
3010
0000
1002
0103
0010
0000
,
1002
0000
0013
0000
2001
3100
0010
0000
,
2001
0000
3010
0000
1002
0103
0010
0000
,
1002
0000
0013
0000
2001
3100
0010
0000
,
2001
0000
3010
0000
1002
0103
0010
0000
,
1002
0000
0013
0000
1001
0110
1001
0000
,
1002
0000
0103
0000
2001
3010
0100
0000
,
2001
0000
3100
0000
1002
0013
0100
0000
,
1002
0000
0103
0000
2001
3010
0100
0000
,
2001
0000
3100
0000
1002
0013
0100
0000
,
1002
0000
0103
0000
2001
3010
0100
0000
,
2001
0000
3100
0000
1002
0013
0100
0000
,
2002
0000
0020
3033
,
0001
1000
0001
1000
0001
1000
0001
1000
0001
1000
0001
1000
0001
1000
0001
1000
,
0001
MMMM
MMMM
0000
,
0001
0100
0000
0000
0010
1000
0000
0000
0001
0010
0000
0000
0000
0000
0000
0000
,
0000
0000
0000
0000
0100
1000
0000
0000
0001
0100
0000
0000
0000
0000
0000
0000
,
0001
0010
0000
0000
0100
1000
0000
0000
0001
0100
0000
0000
0010
0000
0000
0000
,
1000
0000
0000
0000
0100
1000
0000
0000
0001
0010
0000
0000
0000
0000
0000
0000
,
1000
0010
0000
0000
0100
0001
0000
0000
1000
0100
0000
0000
0000
0000
0000
0000
,
0000
0000
1000
0000
0001
0001
0000
0000
,
0100
0000
0100
0000
0010
0010
0010
0000
,
0100
0000
0000
0000
0001
0100
0000
0000
0010
1000
0000
0000
0000
0000
0000
0000
,
0001
0100
0000
0000
0010
1000
0000
0000
0001
0010
0000
0000
0000
0000
0000
0000
,
0000
0000
0000
0000
0100
1000
0000
0000
0001
0100
0000
0000
0000
0000
0000
0000
,
0001
0010
0000
0000
0100
1000
0000
0000
0001
0100
0000
0000
0010
0000
0000
0000
,
1000
0000
0000
0000
0100
1000
0000
0000
0001
0010
0000
0000
0000
0000
0000
0000
,
1000
0010
0000
0000
0100
0001
0000
0000
1000
0100
0000
0000
0000
0000
0000
0000
,
1000
1000
0100
0100
0010
0010
0001
0001
,
1000
0000
0100
0000
0010
0000
0001
0000
1000
0000
1000
0000
0001
2000
0000
0000
,
0001
0010
0001
0010
0001
0001
0010
0010
,
0001
0010
0001
0010
0001
0001
0010
0010
,
0001
0100
0001
0100
0001
0001
0100
0100
,
0001
0100
0001
0100
0001
0001
0100
0100
,
0001
0010
0001
0010
0001
0001
0010
0010
,
0001
0010
0001
0010
0001
0001
0010
0010
,
0001
0100
0001
0100
0001
0001
0100
0100
,
0001
0100
0001
0100
0001
0001
3002
0000
,
1000
0010
1000
0010
1000
1000
0010
0010
,
1000
0010
1000
0010
1000
1000
0010
0010
,
1000
0100
1000
0100
1000
1000
0100
0100
,
1000
0100
1000
0100
1000
1000
0100
0100
,
1000
0010
1000
0010
1000
1000
0010
0010
,
1000
0010
1000
0010
1000
1000
0013
0000
,
2002
0000
0000
0000
,
0000
0000
0000
0000
0000
0000
0000
3003
;
