#TITLE:Move Your Dead Bones;
#SUBTITLE:;
#ARTIST:Dr. Reanimator;
#TITLETRANSLIT:;
#SUBTITLETRANSLIT:;
#ARTISTTRANSLIT:;
#CRChallenge:;
#BANNER:bones-banner.avi;
#BACKGROUND:bones-bg.png;
#LYRICSPATH:;
#CDTITLE:!cdtitle.png;
#MUSIC:bones.ogg;
#OFFSET:0.000;
#SAMPLESTART:41.309;
#SAMPLELENGTH:12.000;
#SELECTABLE:YES;
#BPMS:0.000=139.100;
#STOPS:;
#BGCHANGES:;
#NOTES:
     dance-single:
     Renard:
     Hard:
     10:
     0.650,0.732,0.414,0.000,0.385:
0000
0000
0000
0000
,
0000
0000
0000
0000
,
0000
0000
0000
0000
,
0000
0000
0000
1001
,
1000
0000
1000
0100
0000
0100
0010
0000
0010
0001
0000
0001
1000
0100
0010
0000
,
0001
0000
0001
0010
0000
0010
0100
0000
0100
1000
0000
1000
0001
0010
0100
0000
,
1000
0000
1000
0010
0000
0010
0100
0000
0100
0001
0000
0001
1000
0010
0100
0000
,
0001
0000
0001
0100
0000
0100
0010
0000
0010
1000
0000
1000
0001
0100
0010
0000
,
1000
0000
0010
0000
0100
0000
0001
0000
0010
0000
0000
0011
0000
0000
0010
0000
,
0100
0000
1000
0000
0010
0000
0100
0000
0001
0000
0000
1001
0000
0000
1000
0000
,
0100
0000
0010
0000
0001
0000
0100
0000
0010
0000
0000
1010
0000
0000
1000
0000
,
0100
0000
0000
0000
1100
0000
0000
0000
1000
0000
0001
0100
0001
0000
1000
0000
,
0100
0000
0010
0000
0001
0000
1000
0000
0001
0000
0000
0101
0000
0000
0001
0000
,
0100
0000
0010
0000
1000
0000
0100
0000
1000
0000
0000
1100
0000
0000
0100
0000
,
1000
0000
0010
0000
0100
0000
0001
0000
0010
0000
0000
0011
0000
0000
0010
0000
,
0100
0000
1000
0000
0010
0000
0100
0000
0001
0000
1000
0100
1000
0000
0100
0000
,
1000
0000
1000
0000
0001
0000
0001
0000
0100
0000
0000
0110
0000
0000
0010
0000
,
1000
0100
0010
0001
1000
0000
1001
0000
,
0001
0000
0001
0000
0100
0000
0100
0000
0010
0000
0000
1010
0000
0000
1000
0000
,
0010
0100
0001
0100
1000
0000
1100
0000
,
0100
0000
0100
0000
0010
0000
0010
0000
1000
0000
0000
1010
0000
0000
1000
0000
,
0100
0010
0001
0100
0001
0000
1001
0000
,
0001
0000
0001
0000
0010
0000
0010
0000
0001
0000
0000
0101
0000
0000
0001
0000
,
1100
0001
1010
0001
1100
0000
1001
0000
,
1000
0000
0010
1000
0100
0000
0000
1100
0000
0000
1000
0000
0100
0000
0010
0000
,
0001
0000
0100
0001
0010
0000
0000
0011
0000
0000
0001
0000
0010
0000
0100
0000
,
1000
0001
0100
0010
1000
0100
1000
0001
,
0100
1000
0001
0010
1000
0100
0010
0001
,
0100
0000
0001
0010
0001
0000
0000
0100
0000
0000
0001
0000
1000
0000
0010
0000
,
1000
0000
0100
1000
0100
0000
1000
0010
0000
0000
0100
0000
0001
0000
0010
0000
,
0100
1000
0010
0001
0010
1000
0100
0001
,
1000
0010
0001
1000
0001
0000
0101
0000
,
0001
0000
0100
0000
1000
0000
0001
0000
0010
0000
0000
1010
0000
0000
0010
0000
,
1000
0000
0100
0000
0001
0000
1000
0000
0010
0000
0000
0011
0000
0000
0001
0000
,
0010
0000
1000
0000
0001
0000
0100
0000
1000
0000
0000
1100
0000
0000
1000
0000
,
0010
0001
0010
1000
0100
0010
0001
0100
,
1000
0000
0001
0000
0010
0000
1000
0000
0010
0000
0000
1010
0000
0000
1000
0000
,
0100
0000
0001
0000
1000
0000
0010
0000
0001
0000
0000
0011
0000
0000
0001
0000
,
0010
0000
1000
0000
0001
0000
0100
0000
1000
0000
0000
1100
0000
0000
1000
0000
,
0010
0000
0100
0000
0001
0000
0100
0000
0010
0000
1000
0001
1000
0000
0001
0000
,
1000
0000
1000
0000
0100
0000
0100
0000
0001
0000
0000
0100
0000
0000
1000
0000
,
0010
0010
0001
0001
0010
0000
0110
0000
,
0010
0000
0010
0000
0100
0000
0100
0000
1000
0000
0000
0100
0000
0000
0001
0000
,
0010
0010
0100
0100
0001
0000
0101
0000
,
0100
0000
1000
0000
0010
0000
0001
0000
0010
0000
0000
0011
0000
0000
0010
0000
,
0100
1000
0100
0001
1000
0000
1001
0000
,
1000
0000
0100
0000
0001
0000
0100
0000
1000
0000
0000
0010
0000
0000
0100
0000
,
1001
0100
0011
0100
1001
0000
0110
0000
,
0010
0000
0010
1000
0100
0000
0000
1100
0000
0000
1000
0000
1000
0000
0100
0000
,
0010
0000
0010
0001
0100
0000
0000
0101
0000
0000
0100
0000
0001
0000
0100
0000
,
1000
0100
0001
0010
0100
0001
0100
1000
,
0010
0100
0110
0000
0010
1000
1010
0000
,
1000
0000
0100
1000
0010
0000
0000
1010
0000
0000
1000
0000
1000
0000
0001
0000
,
0100
0000
0100
0001
0010
0000
0000
0011
0000
0000
1000
0000
0001
0000
0100
0000
,
0010
1000
0100
0001
0100
1000
0010
0100
,
0001
0010
0011
0000
1000
0100
1100
0000
,
1000
0000
1000
0001
0100
0000
0000
0110
0000
0000
0010
0000
1000
0000
0100
0000
,
0010
0000
0010
0001
1000
0000
0000
0101
0000
0000
0001
0000
0100
0000
0010
0000
,
1000
0100
0010
0000
0010
0001
0100
0000
,
0001
0100
0010
0000
0010
1000
0100
0010
,
0001
0000
0001
1000
0100
0000
0000
1100
0000
0000
1000
0000
0001
0000
0100
0000
,
0001
0000
1000
0001
0010
0000
0000
0011
0000
0000
0001
0000
0010
0000
0100
0000
,
1000
0000
0001
0100
0001
0000
1000
0000
0100
0000
1000
0001
1000
0000
0001
0000
,
0100
0010
1000
0100
0010
0000
0011
0000
,
1000
0100
0010
0001
0000
0001
0010
0000
0010
0100
0000
0100
1000
0001
1000
0000
,
0001
0100
0010
1000
0000
1000
0010
0000
0010
0100
0000
0100
0001
0100
0010
0000
,
1000
0100
0010
0001
0000
0001
0010
0000
0010
0100
0000
0100
1000
0001
0010
0000
,
0100
1000
0001
0100
0000
0100
0010
0000
0010
1000
0000
1000
0010
0100
0001
0000
,
1001
0000
0000
0000
;
#NOTES:
     dance-single:
     Renard:
     Medium:
     8:
     0.549,0.507,0.364,0.033,0.219:
0000
0000
0000
0000
,
0000
0000
0000
0000
,
0000
0000
0000
0000
,
0000
0000
0000
1001
,
1000
0000
0000
0100
0000
0000
0010
0000
0000
0001
0000
0000
1000
0001
1000
0000
,
0001
0000
0000
0100
0000
0000
0010
0000
0000
1000
0000
0000
0001
1000
0001
0000
,
1000
0000
0000
0100
0000
0000
0010
0000
0000
0001
0000
0000
1000
0001
1000
0000
,
0001
0000
0000
0100
0000
0000
0010
0000
0000
1000
0000
0000
0001
1000
0001
0000
,
1000
0000
0001
0000
0100
0000
0010
0000
1000
0000
0000
0100
0000
0000
1000
0000
,
0010
0000
0100
0000
0001
0000
0010
0000
0100
0000
0000
0010
0000
0000
0001
0000
,
0100
0000
0010
0000
1000
0000
0100
0000
0010
0000
0000
0001
0000
0000
1000
0000
,
0001
1000
0010
1000
0001
1000
0100
1000
,
0001
0000
0100
0000
0010
0000
1000
0000
0100
0000
0000
0010
0000
0000
0001
0000
,
0100
0000
0010
0000
1000
0000
0001
0000
0010
0000
0000
0100
0000
0000
0010
0000
,
0001
0000
0100
0000
0010
0000
1000
0000
0100
0000
0000
1000
0000
0000
0001
0000
,
0010
0001
1000
0010
0100
0001
1000
0010
,
0100
0000
0100
0000
0010
0000
0010
0000
1000
0000
0000
1000
0000
0000
0010
0000
,
0100
0100
0001
0001
0010
0000
0011
0000
,
0001
0000
0001
0000
1000
0000
1000
0000
0100
0000
0000
0100
0000
0000
0010
0000
,
0001
1000
0010
0100
0010
0000
1010
0000
,
1000
0000
0010
0000
0100
0000
0001
0000
0010
0000
0000
1000
0000
0000
0010
0000
,
0001
0100
1000
0100
0001
0000
0101
0000
,
0001
0000
0100
0000
0010
0000
1000
0000
0100
0000
0000
0010
0000
0000
0001
0000
,
2000
0000
0200
0000
3310
0000
0100
1000
,
0010
0000
0000
0000
0110
0000
0000
1001
0000
0000
1000
0000
0100
0000
0010
0000
,
0001
0000
0000
0000
0101
0000
0000
0011
0000
0000
0000
0000
0001
0000
0100
0000
,
0010
1000
0100
0010
0000
0010
0001
1000
,
0010
0110
1000
1001
,
0101
0000
0000
0000
0110
0000
0000
1100
0000
0000
1000
0000
0100
0000
0010
0000
,
1000
0000
0000
0000
1100
0000
0000
0101
0000
0000
0000
0000
0001
0000
0100
0000
,
1000
0010
0100
0001
0000
0100
0010
1000
,
0100
0010
0001
1000
0010
0000
1010
0000
,
1000
0000
0010
0000
0001
0000
0010
0000
0100
0000
0000
0010
0000
0000
1000
0000
,
0100
0000
0010
0000
0001
0000
0010
0000
0100
0000
0000
0010
0000
0000
0001
0000
,
0010
0000
0100
0000
0001
0000
0100
0000
1000
0000
0000
0010
0000
0000
0100
0000
,
0010
1010
0100
0101
,
1000
0000
0100
0000
0010
0000
0001
0000
1000
0000
0000
0010
0000
0000
0100
0000
,
0001
0000
0010
0000
0100
0000
1000
0000
0001
0000
0000
0010
0000
0000
0001
0000
,
1000
0000
0100
0000
1000
0000
0001
0000
0010
0000
0000
0001
0000
0000
1000
0000
,
0010
1001
0100
1001
,
0001
0100
1000
0100
0001
0100
1000
0100
,
0001
0010
1000
0010
0001
0000
0011
0000
,
1000
0010
0001
0010
1000
0010
0001
0010
,
0001
0100
1000
0100
0001
0000
0101
0000
,
1000
0100
1000
0100
0010
0100
0010
0100
,
0001
0100
0010
0100
1000
0000
1100
0000
,
1000
0010
1000
0010
0100
0010
0100
0010
,
0200
0000
0002
0000
0313
0000
0001
0100
,
0010
0000
0000
0000
0110
0000
0000
1001
0000
0000
1000
0000
0100
0000
0010
0000
,
0001
0000
0000
0000
1100
0000
0000
0011
0000
0000
0000
0000
1000
0000
0000
0000
,
0010
0000
0110
0000
1000
0100
0010
0001
,
1000
0101
0100
0110
,
1001
0000
0000
0000
1100
0000
0000
0011
0000
0000
1000
0000
0100
0000
0010
0000
,
0001
0000
0000
0000
1100
0000
0000
0011
0000
0000
1000
0000
0100
0000
0010
0000
,
0001
0100
0010
0100
0000
1000
0100
0010
,
0100
0010
1000
0100
0010
0001
1000
0100
,
0010
0000
0000
0000
0011
0000
0000
0110
0000
0000
0100
0000
1000
0000
0010
0000
,
0100
0000
0000
0000
0110
0000
0000
1100
0000
0000
0000
0000
1000
0000
0100
0000
,
0010
1000
0100
0010
0000
0001
0010
0100
,
0001
0100
1000
0000
0001
0010
1000
0010
,
0001
0000
0000
0000
0011
0000
0000
1010
0000
0000
1000
0000
0010
0000
0001
0000
,
0100
0000
0000
0000
0101
0000
0000
1100
0000
0000
0000
0000
1000
0000
0100
0000
,
0010
1000
0010
0001
0010
0100
0001
0010
,
0100
0000
1000
0001
1000
0000
0001
0000
1000
0000
0000
0000
0001
0000
0000
0000
,
0100
0000
0000
0010
0000
0000
1000
0000
0000
0100
0000
0000
0010
0001
0010
0000
,
0100
0000
0000
1000
0000
0000
0001
0000
0000
0100
0000
0000
0010
1000
0010
0000
,
1000
0000
0000
0100
0000
0000
0010
0000
0000
0001
0000
0000
1000
0001
1000
0000
,
0001
0000
0000
0100
0000
0000
0010
0000
0000
1000
0000
0000
0100
0010
0001
0000
,
1001
0000
0000
0000
;
#NOTES:
     dance-single:
     Renard:
     Easy:
     7:
     0.442,0.479,0.199,0.041,0.000:
0000
0000
0000
0000
,
0000
0000
0000
0000
,
0000
0000
0000
0000
,
0000
0000
0000
1001
,
0001
0000
0100
0000
0010
0000
1000
0001
,
1000
0000
0100
0000
0010
0000
0001
1000
,
0001
0000
0010
0000
0100
0000
1000
0001
,
1000
0010
0100
0001
,
1000
0100
1000
0100
1000
0000
0100
0000
,
0010
0001
0010
0001
0010
0000
0002
0000
,
0103
0001
0100
0000
0010
1000
0010
0000
,
2000
3100
0020
0031
,
1000
0100
1000
0001
1000
0000
0001
0000
,
1000
0001
1000
0001
0100
0000
0001
0000
,
2000
3100
0020
0031
,
1000
1001
0001
1001
,
1000
0100
1000
0100
1000
0000
0100
0000
,
1000
0001
1000
0001
1000
0000
0001
0000
,
0100
0001
0100
0001
0100
0000
0001
0000
,
1000
0100
0010
0001
1000
0000
1001
0000
,
0001
0100
0001
0100
0001
0000
0100
0000
,
0001
1000
0001
1000
0001
0000
1000
0000
,
0100
1000
0100
1000
0100
0000
1000
0000
,
1001
0000
0110
0000
1001
0000
0001
0100
,
0010
0000
0010
0000
0010
0000
1000
0100
,
0010
0010
0010
0001
,
0100
0010
0100
0000
0010
1000
0010
0000
,
0100
0010
0100
0000
0001
0000
0100
0000
,
0001
0100
0010
0000
0010
0000
0010
0000
,
1000
0100
0010
0000
0010
0000
0010
0000
,
0001
1000
0001
0000
0100
0001
0100
0000
,
0001
0000
1000
0100
0010
0000
1001
0000
,
0001
0001
0100
0100
,
0010
1000
0100
0010
0001
0000
0001
0000
,
1000
1000
0100
0100
,
0010
1001
0000
1001
,
0001
0100
0010
1000
0010
0000
0010
0000
,
1000
0010
0100
0001
0100
0000
0100
0000
,
0001
1000
0100
0010
,
0001
1001
1000
1001
,
0001
0100
0001
0100
0001
0000
0100
0000
,
0010
1000
0010
1000
0010
0000
1000
0000
,
0100
1000
0100
1000
0100
0000
1000
0000
,
0001
0010
0001
0010
0001
0000
0010
0000
,
0001
1000
0001
1000
0001
1000
0001
1000
,
0010
1000
0010
1000
0010
1000
0010
1000
,
0001
0100
0001
0100
0001
0010
0001
0010
,
0100
1000
0100
0010
0001
0000
1001
0000
,
0001
0101
0101
1000
,
0100
1100
1100
1000
,
0001
1000
0001
0000
0100
0000
0001
0000
,
1000
0001
1000
0000
0001
0000
1000
0000
,
0101
1001
0101
0001
,
1100
1001
1100
1000
,
0001
0100
0001
0000
1000
0100
1000
0000
,
0001
0000
1000
0000
,
0010
1000
0100
1000
0010
0000
1000
0000
,
0001
0100
0001
0010
0001
0000
0100
0000
,
0001
1000
0001
0000
1000
0000
0100
0000
,
1000
0001
1000
0000
0001
0000
1000
0000
,
0010
1000
0100
1000
0010
0000
1000
0000
,
0001
0010
0001
0100
0001
0000
1000
0000
,
0001
0000
0100
0000
0010
1000
0010
0000
,
1000
0001
0100
0010
1000
0000
1001
0000
,
0001
0000
0001
0000
0001
1000
0100
0010
,
0001
0000
0001
0000
0001
0010
0100
1000
,
0001
0000
0001
0000
0001
1000
0100
0010
,
0001
0000
0001
0000
0001
0010
0100
1000
,
0001
0000
0000
0000
;
#NOTES:
     dance-single:
     Renard:
     Beginner:
     4:
     0.345,0.479,0.091,0.017,0.000:
0000
0000
0000
0000
,
0000
0000
0000
0000
,
0000
0000
0000
0000
,
2002
0000
0000
3013
,
0000
1000
0000
0001
,
0000
0000
1000
0000
0000
0000
0001
1000
,
0001
0000
1000
0000
,
0001
0000
1000
0000
0001
0000
1000
0001
,
0100
0000
0100
0000
0100
0000
0100
0010
,
0100
0000
0100
0000
0100
0000
0100
0010
,
0100
0000
0100
0010
0100
0000
0100
0010
,
0100
0110
0000
0110
,
1000
0000
1000
0000
1000
0000
1000
0001
,
1000
0000
1000
0000
1000
0000
1000
0001
,
1000
0000
1000
0001
1000
0000
1000
0001
,
1000
1001
0000
1001
,
0100
1000
0100
0001
,
0100
1000
0100
0000
,
0001
0010
1000
0010
,
0001
0010
1000
0000
,
0011
0000
0110
0000
,
1000
0100
0001
0000
,
1100
0000
0101
0000
,
0001
0100
1000
0100
,
0010
0001
1000
0001
,
0100
0010
1000
0000
,
0001
0100
0001
0000
0001
0000
0000
0000
,
1000
0100
1000
0000
0001
0000
0000
0000
,
1000
1000
1000
0000
,
0001
0001
0001
0000
,
0010
0001
0010
0000
0001
0000
0010
0000
,
1000
0010
0001
0000
,
0100
0000
0001
0000
0100
0001
0100
0000
,
0010
1000
0100
0000
,
1000
0000
0100
0000
1000
0010
1000
0000
,
0010
0100
0001
0000
,
0010
0000
0001
0000
1000
0000
0100
1000
,
0100
1000
0001
0100
,
0001
0000
0010
0000
0001
0000
1000
0001
,
1000
0001
0100
0010
,
1000
0000
1000
0000
1000
0000
0010
0100
,
0010
0100
0001
0000
,
1000
0000
1000
0000
0100
0000
0010
0001
,
0010
0001
0100
0000
,
0001
0000
1000
0000
0100
0000
0010
0001
,
0010
0100
1000
0000
,
0001
0100
0010
1000
,
0010
0010
1001
0000
,
1000
0100
1000
0100
1000
0100
1000
0100
,
1000
0001
1000
0001
1000
0001
1000
0001
,
0100
0000
0100
0000
,
0001
0000
0001
0000
,
0010
0001
0010
0001
0010
0001
0010
0001
,
1000
0001
1000
0001
1000
0001
1000
0001
,
1000
0000
1000
0000
,
0100
1000
0100
0000
,
1000
0001
1000
0001
1000
0001
1000
0001
,
0100
0001
0100
0001
0100
0001
0100
0001
,
1000
0001
1000
0001
1000
0001
1000
0001
,
1000
0100
1000
0000
0100
0000
0000
0000
,
1000
0001
1000
0001
1000
0001
1000
0001
,
1000
0010
1000
0010
1000
0010
1000
0010
,
1000
0001
1000
0001
1000
0001
1000
0001
,
0010
0001
0010
0000
0001
0000
0000
0000
,
1000
0000
1000
0000
,
0001
0000
0001
0000
,
0100
0000
0100
0000
,
0010
1000
0100
0010
,
1001
0000
0000
0000
;
