#TITLE:More Like You;
#SUBTITLE:;
#ARTIST:Kryptic Minds;
#TITLETRANSLIT:;
#SUBTITLETRANSLIT:;
#ARTISTTRANSLIT:;
#CRChallenge:;
#BANNER:you.png;
#BACKGROUND:you-bg.png;
#LYRICSPATH:;
#CDTITLE:;
#MUSIC:you.ogg;
#OFFSET:0.000;
#SAMPLESTART:47.940;
#SAMPLELENGTH:12.000;
#SELECTABLE:YES;
#DISPLAYBPM:175.000;
#BPMS:0.000=175.000,80.000=87.500,84.000=43.750,89.000=87.500,90.000=175.000,91.000=350.000,93.000=175.000;
#STOPS:;
#BGCHANGES:;
#NOTES:
     dance-single:
     Renard:
     Medium:
     9:
     0.572,0.655,0.440,0.271,0.234:
0000
0000
0000
0000
,
0000
0000
0000
0000
,
0000
0000
0000
0000
,
0000
0000
0000
0000
,
1000
0000
0000
0000
1000
0000
0000
0000
1000
0000
0000
0000
1000
0000
0001
1000
,
0001
0000
0000
0000
0001
0000
0000
0000
0001
0000
0000
0000
0001
0000
1000
0001
,
1000
0000
0000
0000
1000
0000
0000
0000
1000
0000
0000
0000
1000
0000
0001
1000
,
0001
0000
0001
0000
0001
0000
0001
1000
,
1100
0000
0011
0000
0000
1001
0000
0000
,
0002
0000
0000
0000
,
0103
0000
1000
0000
,
0100
0000
0000
0000
0001
0100
0002
0000
0000
0003
1000
0100
2000
0000
0000
3000
,
0001
0010
0001
0100
0001
1000
0001
0000
,
1000
0001
1000
0010
1000
0100
1000
0000
,
0001
1000
0001
0100
0001
0010
0001
0000
,
1000
0001
1000
0010
1000
0100
1000
0000
,
0001
1000
0001
0100
0001
0010
0001
0000
,
1000
0001
1000
0010
1000
0100
1000
0000
,
0001
0000
0000
0000
0010
0000
0000
0010
0100
0000
1000
0000
0000
0000
0010
0000
,
0100
0000
0000
0100
0000
0000
0100
0000
,
0020
0000
0000
0000
,
2030
0000
0000
0000
,
0000
0000
0000
0000
,
0000
0000
0000
0000
3001
0000
0000
0000
0010
0000
0000
0010
0000
0000
0010
0000
,
0000
0010
0000
0000
1001
0000
0000
0000
0010
0000
0000
0010
0000
0000
0010
0000
,
0000
0010
0000
0000
1001
0000
0000
0000
0010
0000
0000
0010
0000
0000
0010
0000
,
0000
0010
0000
0000
1001
0000
0000
0000
0010
0000
0000
0010
0000
0000
0010
0000
,
0000
0010
0000
0000
1001
0000
0000
0000
0010
0000
0000
0010
0000
0000
0010
0000
,
0000
0010
0000
0000
1001
0000
0000
0000
0010
0000
0000
0010
0000
0000
0010
0000
,
0000
0010
0000
0000
0001
0000
0000
0000
0002
0000
0000
0000
0203
0000
2300
0000
,
3200
0320
0000
2030
,
0000
0000
0000
0000
3010
0000
1000
0000
1010
0000
0000
1010
0000
0000
1010
0000
,
0000
1010
0000
0000
0200
0000
0002
0000
0000
0000
0010
0000
0000
0000
1000
0000
,
0313
0000
0000
0000
0001
0000
0100
0000
0010
0000
0000
1010
0000
0000
1001
0000
,
0000
1100
0000
0000
0011
0000
0010
0000
0100
0000
1000
0000
0000
0000
0001
0000
,
1000
0000
0000
0000
0010
0000
0100
0000
0001
0000
0000
0101
0000
0000
1010
0000
,
0000
1001
0000
0000
1100
0000
1000
0000
0100
0000
0010
0000
0000
0000
0010
0000
,
0001
0000
0000
0000
0010
0000
0100
0000
1000
0000
0000
1001
0000
0000
1010
0000
,
0000
0101
0000
0000
2001
0000
0001
0000
0020
0000
3030
0000
M1M0
0000
M1M0
0000
,
M1M0
0000
M1M0
0000
1000
0000
0100
0000
1100
0000
0000
1000
0000
0001
0010
0000
,
0001
0000
2000
0000
0200
0010
0000
0010
,
3301
0000
0000
0000
1000
0000
0001
0000
1001
0000
0000
0001
0000
0100
0010
0000
,
1000
0000
0202
0000
1010
0000
0000
1313
,
0000
0001
0100
0001
1000
0000
1000
0000
1100
0000
0000
0010
0000
0010
0001
0000
,
1000
0001
0200
0000
0002
1000
0000
1000
,
0313
0000
0000
0000
1001
0000
0000
0000
0M10
0000
0000
01M0
0000
0000
0M10
0000
,
0000
01M0
0000
0000
1001
0000
0000
0000
0000
0000
0000
0000
0000
0000
0000
0000
,
0000
0000
0000
0000
1000
0000
0100
0000
1100
0000
0000
0010
0000
0000
0001
0000
,
1000
0000
0000
0000
0001
0000
0100
0000
0101
0000
0000
0001
0000
0000
0010
0000
,
0100
0000
0000
0000
1000
0000
0001
0000
1001
0000
0000
0001
0000
0000
0100
0000
,
0010
0000
0000
0000
1000
0000
0001
0000
1001
0000
0000
1000
0000
0000
0100
0000
,
0010
0000
0000
0000
0001
0000
0010
0000
0011
0000
0000
0010
0000
0000
0100
0000
,
1000
0000
0000
0000
0001
0000
0100
0000
0101
0000
0000
0100
0000
0000
0010
0000
,
1000
0000
0000
0000
0100
0000
1000
0000
1100
0000
0000
1000
0000
0000
0001
0000
,
0010
0000
0000
0000
0100
0000
1000
0000
1010
0000
0000
0100
0000
0000
0001
0000
,
1000
0000
0000
0000
0001
0000
0010
0000
0011
0000
0000
0100
0000
0000
1000
0000
,
0001
0000
0000
0000
1000
0000
0010
0000
1010
0000
0000
1000
0000
0000
0100
0000
,
0010
0000
0000
0000
0001
0000
1000
0000
1001
0000
0000
1000
0000
0000
0010
0000
,
0100
0000
0000
0000
0001
0000
1000
0000
1001
0000
0000
0001
0000
0000
0010
0000
,
0100
0000
0000
0000
1000
0000
0100
0000
1100
0000
0000
0100
0000
0000
0010
0000
,
0001
0000
0000
0000
1000
0000
0010
0000
1010
0000
0000
0010
0000
0000
0100
0000
,
0001
0000
0012
0010
0023
0000
2030
3020
,
0032
0203
0000
2300
,
0000
0000
3100
1000
0100
0010
0000
0100
,
0001
0100
0010
0100
0001
0010
0000
1000
,
0010
1000
0010
0100
1000
0100
0000
1000
,
0100
0001
0100
0010
0001
0010
1000
0010
,
0100
1000
0010
0100
0010
0001
0010
1000
,
0000
1000
0010
0000
0100
0010
0000
1000
,
0010
0200
0000
0000
,
0300
0000
0000
0000
;
#NOTES:
     dance-single:
     Renard:
     Easy:
     6:
     0.303,0.453,0.215,0.103,0.000:
0000
0000
0000
0000
,
0000
0000
0000
0000
,
0000
0000
0000
0000
,
0000
0000
0000
0000
,
1000
0000
1000
0000
,
0001
0000
0010
0001
0000
0010
0001
0000
,
1000
0000
1000
0000
,
1000
0000
1000
0000
,
0001
0000
0100
0000
0010
0100
0000
0010
,
0100
0000
0010
0100
0000
0000
0001
0000
,
1000
0100
0010
0001
,
2000
0000
0000
0000
,
3020
0000
0030
0100
0000
0000
0010
0000
,
0200
0000
0000
0310
0000
0000
0100
0000
,
0020
0000
0030
0100
0000
0000
0010
0000
,
0200
0000
0000
0310
0000
0000
0100
0000
,
0020
0000
0030
0100
0000
0000
0010
0000
,
0200
0000
0000
0310
0000
0000
0100
0000
,
0020
0000
0030
0100
0000
0000
0010
0000
,
0100
0010
0100
0010
,
2000
0000
0000
0000
,
3001
0000
0000
0000
,
0000
0000
0000
0000
,
0000
1001
0000
0000
,
0000
0110
0000
0000
,
0000
1001
0000
0000
,
0000
0110
0000
0000
,
0000
1011
0000
0000
,
0000
1011
0000
0000
,
0000
0000
0000
0000
,
0000
0000
0000
0000
,
0000
2000
0000
0000
,
0000
0000
0000
0000
0000
0010
0000
0000
,
0010
0000
3010
0000
1000
0000
0010
1000
,
0010
0000
0100
0000
0001
0000
0100
0001
,
0100
0000
0001
0000
0010
0000
0001
0010
,
0001
0000
1000
0000
0100
0000
1000
0100
,
1000
0001
0100
0010
,
1000
0001
1000
0001
,
0001
0000
1000
0000
0100
0000
1000
0100
,
1000
0001
0100
0001
,
0100
0000
0001
0000
0010
0000
0001
0010
,
0001
1000
0010
1000
,
0010
0000
1000
0000
0001
0000
1000
0001
,
1000
0001
0100
0001
,
1000
0100
0100
0010
,
0001
2000
0000
0000
,
0000
3001
1001
0000
,
0110
0000
1001
0000
,
0110
1000
0101
0000
,
1001
0000
1100
0000
,
1001
0100
1010
0000
,
0110
0000
0101
0000
,
1001
0010
1001
0000
,
1001
0000
1001
0000
,
1001
0000
1000
0000
0001
0000
0100
0001
,
0100
0001
0100
0001
0100
0001
0100
0001
,
0100
0000
0001
0000
0100
0000
0010
1000
,
0010
1000
0010
1000
0010
1000
0010
1000
,
0010
0000
1000
0000
0100
0000
1000
0001
,
0100
0000
0001
1000
0100
0000
1000
0001
,
0100
1001
0000
0000
,
0000
0000
0000
0000
,
0000
1000
0000
0000
,
0000
0000
0000
0000
,
0000
0001
0000
0000
,
0000
0000
0000
0000
,
0000
0000
0100
0000
0000
0000
0100
0010
,
0000
1000
0010
0000
0100
0001
0000
0100
,
0010
1000
0000
0000
;
#NOTES:
     dance-single:
     Renard:
     Beginner:
     3:
     0.190,0.259,0.065,0.103,0.000:
0000
0000
0000
0000
,
0000
0000
0000
0000
,
0000
0000
0000
0000
,
0000
0000
0000
0000
,
0001
0000
0001
0000
,
1000
0000
1000
0000
,
0020
0000
0000
0000
,
0000
0000
0000
0000
,
1030
0000
1000
0000
,
0001
0000
0001
0000
,
0100
0000
0100
0000
,
0010
0000
0010
0000
,
1000
0000
0010
1000
,
0001
0000
0100
0001
,
1000
0000
0100
1000
,
0001
0000
0010
0001
,
1000
0000
1000
0000
,
0100
0000
0100
0000
,
0010
0000
0010
0000
,
0001
0000
0001
0000
,
2000
0000
0000
0000
,
0020
0000
0000
0000
,
0000
0000
0000
0000
,
3030
1010
0000
0000
,
0000
0101
0000
0000
,
0000
0011
0000
0000
,
0000
1100
0000
0000
,
0000
1010
0000
0000
,
0000
0202
0000
0000
,
0000
0000
0000
0000
,
0000
0000
0000
0000
,
0303
2002
0000
0000
,
0000
3013
0000
0000
,
0000
1000
0001
0000
,
0001
0100
0010
0000
,
0010
1000
0100
0000
,
0100
0010
0001
0000
,
0001
1000
0010
0000
,
0010
0100
0001
0001
,
0001
1000
0100
0000
,
0100
0010
0000
0000
,
0000
0010
0001
0000
,
0001
1000
0000
0000
,
0000
0010
1000
0000
,
1000
0001
0000
0000
,
0100
0010
1000
0010
,
0100
0001
0000
1000
,
0000
0001
1000
0000
,
1000
0010
0100
0000
,
0100
0001
1000
0000
,
1000
0010
0100
0000
,
0100
0001
1000
0000
,
1000
0010
0100
0000
,
0100
0001
1000
0000
,
1000
0010
0100
0000
,
0100
0002
0000
0000
,
0000
0000
0000
0000
,
0000
1003
0000
0010
,
0000
1000
0000
0010
,
0000
0100
0000
0001
,
0000
0100
0001
0100
,
0010
2000
0000
0000
,
0000
0000
0000
0000
,
0000
3002
0000
0000
,
0000
0000
0000
0000
,
0000
0203
0000
0000
,
0000
0000
0000
0000
,
0000
0010
0000
1000
,
0000
0001
0000
0010
,
0000
0301
0000
0000
;
