#TITLE:More Like You EX;
#SUBTITLE:;
#ARTIST:Kryptic Minds;
#TITLETRANSLIT:;
#SUBTITLETRANSLIT:;
#ARTISTTRANSLIT:;
#CRChallenge:;
#BANNER:you-banner.avi;
#BACKGROUND:you-bg.png;
#LYRICSPATH:;
#CDTITLE:;
#MUSIC:you.ogg;
#OFFSET:0.000;
#SAMPLESTART:47.700;
#SAMPLELENGTH:12.000;
#SELECTABLE:NO;
#DISPLAYBPM:175.000;
#BPMS:0.000=175.000,64.000=10.938,66.000=174.995,127.000=349.991,151.000=174.995,155.000=349.991,179.000=174.995,251.000=349.990,267.000=174.995;
#STOPS:90.000=2.400
;
#BGCHANGES:;
#NOTES:
     dance-single:
     Renard:
     Hard:
     12:
     0.743,0.938,0.764,0.157,0.497:
0000
0000
0000
0000
,
0000
0000
0000
0000
,
0000
0000
0000
0000
,
0000
0000
0000
0000
,
1000
0000
0001
0000
0100
0000
0100
0001
0000
0000
0100
0000
0010
1000
0000
0000
,
0001
0000
0100
0001
0000
0000
1000
0000
0010
1000
0000
0000
0001
0000
0100
0001
,
0000
0000
1000
0000
0010
0100
0000
0000
0010
0000
1000
0001
0000
0000
0100
0000
,
0001
1000
0000
0000
0010
0000
1000
0001
0000
0000
0100
0000
0001
1000
0000
0000
,
1000
0100
0010
0001
2000
0002
3013
0000
,
0001
0010
0100
1000
0002
2000
3013
0000
,
1000
0100
0010
0001
2000
0002
3013
0000
,
0001
0010
0100
1000
0002
2000
3013
0000
,
0001
0000
1000
0100
1000
0000
0001
0000
0100
0001
0100
0000
0001
0000
1000
0000
,
0100
0000
1000
0001
1000
0000
0001
0000
0100
0001
0100
0000
0010
0000
1000
0000
,
0001
0000
0100
0000
0100
0000
0010
0000
1000
0000
1000
0000
0010
1000
0010
1000
,
0010
0100
0001
0010
0100
1000
0001
0000
,
0202
0000
0313
0000
0000
0000
0000
0000
1011
0000
0000
0000
1010
0000
0000
0011
,
0000
0000
0000
0000
0000
0000
1100
0000
0000
0000
0000
0000
0000
0000
0000
0011
0000
0000
0000
0000
0000
0000
0000
0000
1000
0000
0000
0000
0000
0000
0001
0000
0000
0000
0000
0000
0100
0000
0000
0000
0000
0000
0010
0000
1000
0000
0010
0000
,
1000
0000
0000
0000
0101
0000
0000
0000
1011
0000
0000
0000
0101
0000
0000
0011
,
0000
0000
1100
0000
0000
1010
0000
0000
0010
0000
0010
0000
0010
0000
0000
0000
,
0010
0000
0000
0000
0000
0000
0010
0000
0000
0000
0000
0000
1000
0000
0001
0000
1000
0000
0001
0000
0000
0000
0000
0000
1011
0000
0000
0000
0000
0000
0000
0000
0000
0000
0000
0000
1010
0000
0000
0000
0000
0000
0000
0000
0000
0011
0000
0000
,
0000
0000
0000
0000
0000
0000
1100
0000
0000
0000
0000
0000
0000
0000
0000
0101
0000
0000
0000
0000
0000
0000
0000
0000
1001
0000
0000
0000
0000
0000
0010
0000
0000
0000
0000
0000
0101
0000
0000
0000
0000
0000
0001
0000
0100
0000
0001
0000
,
0100
0000
2002
0000
3003
0000
0001
0100
,
0101
0000
0010
1000
0000
0010
1000
0000
0101
0000
0010
1000
0100
0000
0010
0000
,
0011
0000
0100
1000
0000
0100
1000
0000
0011
0000
0100
1000
0001
0000
0100
0000
,
1010
0000
0100
0001
0000
0100
0001
0000
1010
0000
1000
0100
0010
0000
0001
0000
,
0011
0000
0100
1000
0000
0100
1000
0000
0011
0000
0100
1000
0001
0000
0100
0000
,
1010
0000
0100
0001
0000
0100
0001
0000
1010
0000
0001
0100
0010
0000
1000
0000
,
0101
0000
0010
1000
0000
0001
0100
0000
1010
0000
1000
0001
0100
0000
0010
0000
,
1010
0000
0100
0001
0000
1000
0010
0000
1001
0000
0000
0000
0201
0000
0001
0000
,
0020
0000
0000
0300
0000
0000
1000
0000
0000
1030
0000
0000
0010
1000
0010
1000
0000
0000
1010
0000
0000
0000
0000
0000
,
0111
0000
0000
1011
0000
0000
0111
0000
0000
1011
0000
0000
0111
0000
0000
0000
,
0000
0000
0000
0000
,
0000
0000
0000
0000
,
0000
0000
0000
0000
,
0000
0000
0000
0000
,
0000
0000
0000
0000
,
0000
0000
0000
1001
,
1110
0000
0000
1011
0000
0000
1110
0000
0000
1011
0000
0000
1110
0000
0000
0000
,
0000
0000
0000
0000
,
0000
0000
0000
0000
,
0000
0000
0000
0000
,
0000
0000
0000
0000
,
0000
0000
0000
0000
,
0000
0000
0000
0000
0000
0000
0000
0000
0000
0000
0000
0000
0001
0100
0001
0100
,
0010
0100
0001
0100
0001
0100
0001
0100
0010
0100
0001
0100
0001
0000
0100
0000
,
0010
0000
0010
0000
0010
0000
2000
0000
0002
0000
3003
0000
0001
0100
0001
0100
,
0010
0100
0001
0100
0001
0100
0001
0100
0010
0100
0001
0100
0101
0000
0000
1001
,
0000
1100
0000
1100
1010
1001
0201
0000
,
1000
0010
0301
0101
,
1011
0000
0000
0110
0000
0000
1010
0000
0000
0101
0000
0000
0101
0000
0101
0000
,
1010
0000
0000
1001
0000
0000
1010
0000
0000
1100
0000
0000
1100
0000
1100
0000
,
1110
0000
0000
1101
0000
0000
1110
0000
0000
1101
0000
0000
1100
0000
1001
0000
,
1010
0000
0000
1001
0000
0000
0101
0000
0000
1111
0000
0000
1001
0000
0000
0000
,
0000
0000
1101
0000
0000
0000
1100
0000
1010
0000
1001
0000
0001
0100
0001
0100
,
0010
0000
1000
0000
0100
0000
0010
0000
0001
0000
0010
0000
0100
1000
0100
1000
,
0010
0000
1000
0000
0010
0000
0100
0000
0001
0000
0010
0000
0100
1000
0001
1000
,
0010
0000
1000
0000
0001
0000
0100
0000
0010
0000
1000
0000
0001
0100
0001
1000
,
0001
0000
0010
0000
0001
0000
0100
0000
0010
0000
0000
0000
1000
0010
1000
0010
,
0100
0000
0001
0000
0010
0000
0100
0000
1000
0000
0100
0000
0010
0001
0010
0001
,
0100
0000
0001
0000
0100
0000
0010
0000
1000
0000
0100
0000
0010
0001
1000
0001
,
0100
0000
0001
0000
1000
0000
0010
0000
0100
0000
0001
0000
1000
0100
0010
0001
,
1000
0000
0001
0010
0100
1000
0001
0000
1000
0100
0010
0001
0011
0000
0000
0000
,
0000
0000
0000
0000
,
0000
0000
0000
0000
,
0000
0000
0000
0000
,
0000
0000
0000
0000
0000
0000
0001
0010
,
0100
0000
1000
0100
0010
0000
0001
0000
0010
0100
1000
0000
0001
0000
1000
0100
,
0010
0000
0001
0000
0010
0100
1000
0000
0001
0000
0100
0000
0010
0000
0000
0000
,
1000
0001
0100
0010
1000
0001
0100
0000
,
0001
0100
0010
1000
0001
0100
0010
0000
,
1000
0000
0001
0100
0010
0000
1000
0000
0010
0100
0001
0000
1000
0000
0001
0100
,
0010
0000
1000
0000
0010
0100
0001
0000
1000
0000
0001
0100
0010
0000
0000
0000
;
