#TITLE:Moonglow;
#SUBTITLE:;
#ARTIST:Venetian Snares;
#TITLETRANSLIT:;
#SUBTITLETRANSLIT:;
#ARTISTTRANSLIT:;
#CRChallenge:;
#BANNER:moonglow.png;
#BACKGROUND:moonglow-bg.png;
#LYRICSPATH:;
#CDTITLE:;
#MUSIC:moonglow.ogg;
#OFFSET:0.000;
#SAMPLESTART:40.936;
#SAMPLELENGTH:11.520;
#SELECTABLE:YES;
#BPMS:0.000=328.000;
#STOPS:;
#BGCHANGES:;
#NOTES:
     dance-single:
     Renard:
     Hard:
     11:
     0.945,1.000,0.234,0.000,0.088:
0000
0000
0000
0000
,
0000
0000
0000
0000
,
0000
0000
0000
0000
,
0000
0000
0000
0000
,
0000
0000
0000
0000
,
0000
0000
0000
0000
,
0000
0000
0000
0000
,
1001
0000
0110
0000
,
0010
1000
0001
0100
0010
1000
0001
0000
,
1000
0000
0000
0000
1001
0000
0001
0100
,
0010
1000
0001
1000
0001
0000
0000
0000
,
0010
0000
0100
0000
1000
0100
0010
0001
,
1000
0100
0010
0000
0000
0001
0000
0000
,
1000
0000
0000
0000
0001
0010
0000
0000
,
0011
0100
1000
0010
,
0100
0001
1000
0100
,
1100
1000
0100
0010
,
0001
1000
1001
0001
,
0100
0010
1000
0100
,
0010
0001
0011
0010
,
0100
0000
1000
0001
1000
0100
0010
0001
,
1000
0000
1001
0000
,
0001
0100
0001
1000
0000
0000
0001
0000
,
1000
0000
0000
0000
0100
0000
0010
0001
,
1000
0100
0010
0001
1000
0000
0000
0000
,
0001
0000
0100
0000
0010
1000
0001
0100
,
0001
1000
0100
0000
0000
0100
0000
0000
,
0100
0000
0000
0000
0100
1000
0100
0010
,
0001
0000
0000
0010
0000
0000
0100
0000
,
1000
0001
0100
0010
,
1000
0010
0100
0001
,
0010
0000
0000
0000
0100
1000
0001
0010
,
0100
1000
0001
0010
0001
1000
0100
0010
,
0001
1000
0100
1000
0001
0010
0100
0010
,
0001
1000
0100
0010
0100
1000
0001
0000
,
1000
0000
0000
0100
0000
0000
0010
0000
,
0001
1000
0010
0100
,
0001
0100
0010
1000
,
0100
0000
0000
0000
0010
0001
1000
0100
,
0010
0001
1000
0100
1000
0001
0010
0100
,
1000
0001
0010
0001
1000
0100
0010
0100
,
1000
0001
0010
0100
0010
0001
1000
0001
,
1000
0000
0000
0100
0000
0000
0010
0000
,
0001
1000
0010
0001
,
0010
1000
0100
0010
,
0001
0000
1000
0000
0001
0010
0100
1000
,
0001
0100
0001
0010
0100
1000
0100
1000
,
0001
0010
0100
1000
0001
0100
0010
1000
,
0100
1000
0001
0010
0001
0100
0001
1000
,
0001
0000
0000
0010
0000
0000
0100
0000
,
1000
0001
0100
1000
,
0100
0001
0010
0100
,
1000
0000
0001
0000
1000
0100
0010
0001
,
1000
0010
1000
0100
0010
0001
0010
0001
,
1000
0100
0010
0001
1000
0000
1000
0000
,
1000
0000
1000
0000
0001
0010
0001
0000
,
0011
0100
1000
0001
,
0100
0010
1000
1010
,
1000
0100
0010
0001
,
1000
0100
1100
1000
,
0001
0100
0101
0010
,
1000
0100
0010
0001
,
1000
0000
0100
0000
0010
0001
0010
0100
,
1000
0100
0010
0001
,
1000
0010
0100
0110
,
0010
1000
0100
0010
,
0001
1000
1001
0100
,
0010
1000
0101
0000
,
0010
0000
1000
0001
0100
0000
0010
1000
,
0100
0000
0010
0000
0001
0010
0100
0000
,
1100
0010
0001
1000
,
0010
0100
0001
0101
,
0001
0010
0100
1000
,
0001
0010
0011
0001
,
1000
0010
1010
0100
,
0001
0010
0100
1000
,
0001
0000
0010
0000
0100
1000
0100
0010
,
0001
0010
0100
1000
,
0001
0100
0010
0110
,
0100
0001
0010
0100
,
1000
0001
1001
0010
,
0100
0001
1010
0000
,
0100
0000
0001
1000
0010
0000
0100
0001
,
0010
0000
0100
0000
1000
0100
0010
0000
,
0001
1000
0100
0010
,
0001
0100
0010
1000
,
0010
0100
0001
0010
,
0100
1000
0001
1000
,
0100
0010
0001
0100
,
0010
1000
0010
0100
,
0001
0000
0010
0000
0100
0000
0000
1000
,
0001
0010
0100
1000
0100
0010
0001
1000
,
0100
0010
0001
0010
0100
1000
0001
0100
,
0010
1000
0010
0100
0001
1000
0001
0100
,
0010
1000
0001
1000
0001
0010
0100
1000
,
0001
0010
0100
1000
0100
0010
0001
1000
,
0100
0010
0001
1000
0100
0010
0001
0010
,
0100
1000
0001
0100
0010
1000
0001
0000
,
1000
0001
0010
0100
,
1000
0010
0100
0001
,
0100
0010
1000
0100
,
0010
0001
1000
0001
,
0010
0100
1000
0010
,
0100
0001
0100
0010
,
1000
0100
0010
0001
0010
0001
0010
0001
,
1000
0000
0100
0010
0001
0000
0010
0100
,
1000
0000
0001
0010
0100
0000
1000
0100
,
1000
0010
1000
0001
0010
0001
0100
0001
,
1000
0010
1000
0100
1000
0000
0100
0000
,
0010
0001
0100
0010
,
1000
0100
0010
0010
,
0010
0000
0010
0000
0001
1000
0001
1000
,
0001
0100
0010
0100
,
1000
0100
0010
0100
,
0001
0000
0010
0000
0100
1000
0100
1000
,
0100
0000
1000
0000
0001
0000
0000
0100
,
0010
1000
0100
0000
0000
1000
0100
0000
,
0000
0010
0001
0000
,
1000
0100
0010
0001
1000
0100
1000
0001
,
0010
0001
1000
0100
,
1000
0001
0100
0010
,
1000
0000
0001
0000
0010
0100
1000
0001
,
0010
0000
0110
0000
,
0110
0000
0010
0100
,
0000
1000
0000
0000
0010
0000
0000
0001
,
0000
0000
0010
0000
0000
1000
0000
0000
,
0100
0010
0001
0100
,
0010
0100
1000
0100
,
0010
0000
0000
0100
0000
0000
0001
0100
0001
0100
0001
0100
,
0001
0100
0001
0100
0001
0100
0001
0000
0000
1000
0000
0000
,
0100
0010
0001
1000
,
0010
0000
0100
0000
0001
0100
0001
0000
,
0100
0000
0001
1000
0100
0010
0001
0000
,
1000
0100
1000
0010
,
1000
0001
0100
0001
,
0010
0000
0000
0001
0000
0000
0010
0000
0000
0000
0000
0000
0100
0000
1000
0000
0100
0000
1000
0000
0100
0000
1000
0000
,
0100
1000
0100
1000
0100
1000
0100
0000
0000
0010
0000
0000
,
0001
1000
0100
1000
,
0001
0100
0001
0100
0000
0000
0000
0000
0000
0000
0000
0000
;
#NOTES:
     dance-single:
     WinDEU:
     Medium:
     9:
     0.847,1.000,0.449,0.078,0.000:
0000
0000
0000
0000
,
0000
0000
0000
0000
,
0000
0000
0000
0000
,
0000
0000
0000
0000
,
0000
0000
0000
0000
,
0000
0000
0000
0000
,
0000
0000
0000
0000
,
1000
0000
0001
0000
,
0100
0001
0100
0001
0100
0001
0100
0000
,
0010
0000
0000
0000
1000
0000
0001
1000
,
0001
1000
0001
1000
0001
0000
0000
0000
,
0100
0000
0010
0000
1000
0010
1000
0010
,
1000
0010
1000
0000
0000
0001
0000
0000
,
0010
0000
0100
1000
0100
1000
0000
0000
,
0001
0000
0100
0000
,
0010
1000
0000
0100
,
0010
0000
0001
0000
,
0010
0100
1000
0000
,
0001
0000
0100
0001
,
0000
0100
0001
0000
0010
0000
0000
0000
,
0100
0000
1000
0001
1000
0001
1000
0001
,
1000
0000
0010
0000
,
0100
0001
0100
0001
0000
0000
0001
0000
,
0010
0000
0000
0000
0010
0000
0100
0010
,
0100
0010
0100
0010
0100
0000
0000
0000
,
1000
0000
1000
0000
0010
1000
0001
1000
,
0010
1000
0001
0000
0000
0001
0000
0000
,
1000
0000
0100
0000
0010
0000
0001
0010
,
0001
0010
0100
1000
,
0001
0000
0010
0001
0010
0001
0010
0000
,
0001
1000
0010
0100
,
0001
0100
0001
0100
0001
0000
1000
0100
,
1000
0000
0001
0010
0001
0000
1000
0010
,
1000
0010
0100
0000
,
0001
0000
0000
0001
0100
0001
0100
0001
,
0100
0000
0000
0010
0000
0000
1000
0000
,
0100
0000
1000
0100
1000
0100
1000
0000
,
0001
0000
0010
0000
0000
0001
0000
0010
,
0001
0010
0001
0010
0001
0000
1000
0001
,
1000
0000
0100
1000
0100
0000
0010
0100
,
0010
0001
0100
0000
,
0010
0000
1000
0010
1000
0010
1000
0010
,
1000
0000
0000
0010
0000
0000
0100
0000
,
0001
0000
0100
0001
0100
0001
0100
0000
,
0010
0000
1000
0000
0000
0000
1000
0100
,
1000
0100
1000
0100
1000
0000
0100
0010
,
0100
0000
0010
0001
0010
0000
0001
0100
,
0001
0100
0001
0000
1000
0000
0010
1000
,
0010
0000
0100
0010
0100
0010
0100
0010
,
0100
0000
0000
0001
0000
0000
0100
0000
,
0001
0000
1000
0001
1000
0001
1000
0000
,
0100
0000
0010
0000
0000
0001
0000
0000
,
0100
0001
0100
0001
0100
0000
0001
1000
,
0001
0000
1000
0100
1000
0000
0100
0010
,
0100
0000
0010
0001
0010
0000
0010
0000
,
0010
0000
0010
0000
0001
0100
0001
0100
,
0001
0000
2200
0000
,
0000
0011
3300
1100
,
0000
1001
0000
0101
,
0000
0110
0000
0000
1010
0000
0000
0000
,
1100
0000
0011
0000
,
0001
0000
1000
0001
1000
0001
1000
0001
,
1000
0000
0000
0000
0010
1000
0010
1000
,
0010
0000
1010
0000
,
0101
0000
0000
1001
0000
0000
1100
0000
,
0000
0110
0000
0011
,
0000
1001
0000
0000
1010
0000
0000
0000
,
0110
0000
0101
0000
,
0001
0000
1000
0100
1000
0100
1000
0100
,
1000
0000
0010
0000
0100
0001
0100
0001
,
0100
0000
0202
0000
,
0000
1010
0303
0101
,
0000
1001
0000
1100
,
0000
0110
0000
0010
0001
0000
0000
0000
,
0100
0000
0010
1000
0010
0000
0000
0000
,
0100
0000
0001
1000
0001
1000
0001
1000
,
0001
0000
0010
0000
0100
1000
0100
1000
,
0100
0000
1100
0000
,
0110
0000
0000
0011
0000
0000
1001
0000
,
0000
1010
0000
0110
,
0000
0101
0000
0000
0011
0000
0000
0000
,
0110
0000
1100
0000
,
1000
0000
0010
1000
0010
1000
0010
1000
,
0010
0000
0100
0001
0100
0001
0100
0000
,
0001
0000
1000
0000
,
0100
0000
0000
0010
0000
0000
0001
0000
,
0000
1000
0000
1000
0010
1000
0010
1000
,
0001
1000
0001
1000
0001
0000
0000
0000
,
0101
0000
0000
0000
0110
0000
0000
1010
,
0000
0000
1000
0001
1000
0001
0000
0100
,
0001
0100
0001
0100
0001
0000
0000
0001
,
0100
0010
1000
0100
,
0010
0000
0001
0100
0000
0010
1000
0010
,
1000
0010
1000
0010
0100
0010
0100
0010
,
0100
0001
0010
0100
,
0010
0000
0001
0000
1000
0000
0010
0100
,
0000
0001
0100
0001
0100
0001
0100
0000
,
0001
1000
0001
1000
0001
0000
1000
0000
,
0100
0000
0010
0000
,
0001
0000
0000
0100
0000
0000
0010
0000
,
0000
1000
0000
1000
0010
1000
0010
1000
,
0010
0100
0010
0100
0010
0000
0000
0000
,
0100
0000
0000
0000
0001
0000
0000
0010
,
0000
0000
0100
1000
0100
1000
0100
0000
,
0010
0100
0010
0100
0010
0100
0010
0001
,
0010
0000
0100
0000
,
1000
0000
0000
0010
0000
0000
0100
0001
,
0100
0001
0100
0001
1000
0001
1000
0001
,
1000
0001
1000
0001
1000
0000
0000
0000
,
0100
0000
0000
0000
0010
0000
0000
0001
,
0000
0000
0100
0001
0100
0000
0110
0000
,
1010
0000
1000
0000
0001
1000
0001
1000
,
0001
0000
0011
0000
,
1000
0000
1100
0000
,
0001
0000
0000
0000
0100
0010
0100
0010
,
0100
0000
0010
0000
1000
0000
0000
0010
,
1000
0010
1000
0000
0000
0001
0010
0000
,
0000
0000
0100
0000
1000
0000
0000
0001
,
0100
0001
0100
0001
0100
0001
0100
0001
,
0100
0000
0101
0000
,
1000
0000
1010
0000
,
0100
0000
0000
0000
0001
0100
0001
0100
,
0001
0000
0101
0000
,
1100
0000
0200
0310
,
0000
0001
0000
0000
0100
0000
0000
0010
,
0000
0000
1000
0000
0000
0100
0000
0000
,
0010
0001
0100
0010
,
1000
0100
0010
0001
,
0000
1000
0010
0000
0200
0000
0000
0000
,
0000
0000
0310
1000
,
0100
0000
0000
0010
0001
0000
1000
0000
,
0010
0000
0100
0000
0000
0001
0100
0000
,
0001
0000
1000
0001
1000
0001
1000
0000
,
0100
0000
0000
0010
0001
0000
0000
0000
,
1000
0000
0010
0100
,
0000
0001
0100
0000
0002
0000
0000
0000
,
0000
0000
1003
0000
,
0100
0000
0010
0001
,
0200
1300
0000
0000
;
#NOTES:
     dance-single:
     WinDEU:
     Easy:
     6:
     0.542,0.675,0.068,0.117,0.000:
0000
0000
0000
0000
,
0000
0000
0000
0000
,
0000
0000
0000
0000
,
0000
0000
0000
0000
,
0000
0000
0000
0000
,
0000
0000
0000
0000
,
0000
0000
0000
0000
,
1000
0000
0001
0000
,
0100
0010
1000
0010
,
0100
0000
0001
1000
,
0100
0010
0001
0000
,
0100
0100
0010
1000
,
0001
0000
0010
0000
0000
0010
0000
0000
,
0000
0000
0000
0000
0000
1100
0000
0000
,
0100
1000
0010
0100
,
0001
0000
0020
0000
0000
0130
0000
0000
,
1000
0010
0100
0010
,
1000
0000
0001
0010
,
0100
0010
0001
2000
,
0000
3010
0000
0000
0100
0000
0001
0000
,
1000
1000
0100
0100
,
0010
0000
0001
0000
,
0010
0000
0100
0000
0000
0100
0000
0000
,
1000
0000
0010
0100
,
0001
1000
0100
0000
,
0010
0000
0010
0000
0001
0000
0000
1000
,
0000
0000
0010
0000
0000
0100
0000
0000
,
0001
0000
0000
0000
,
1000
0000
0000
0100
0000
0000
1000
0000
,
0000
0100
0010
0001
,
0100
0010
0000
1000
,
0010
0100
0001
0010
,
1000
0010
0001
0100
,
1000
0100
0001
0010
,
1000
0010
0001
0100
,
0010
0000
0000
1000
0000
0000
0010
0000
,
0000
0100
0001
0010
,
0000
0000
0100
0000
0000
0010
0000
0000
,
0001
0100
0010
0001
,
0010
1000
0100
0001
,
0100
1000
0010
0001
,
0010
1000
0100
0010
,
0001
0000
0000
1000
0000
0000
0001
0000
,
0000
0100
0010
1000
,
0001
0010
0000
0100
,
1000
0001
0010
1000
,
0010
0001
0100
1000
,
0100
0001
0010
1000
,
0010
0001
0100
0010
,
1000
0000
0000
0001
0000
0000
0010
0000
,
0000
0100
1000
0010
,
0000
0000
0100
0000
0000
0001
0000
0000
,
0010
0100
1000
0100
,
1000
0100
1000
0100
,
1000
0100
1000
1000
,
1000
1000
0000
0000
,
0001
0000
0101
0000
,
0000
1010
0000
1000
,
0000
0100
0000
0010
,
0000
0001
0000
0000
0010
0000
0000
0000
,
0100
0000
1000
0000
,
0010
0100
0001
0010
,
0100
0000
0010
0001
,
0100
0000
0010
0000
,
1000
0000
0000
0001
0000
0000
0010
0000
,
0000
0100
0000
1000
,
0000
0100
0000
0000
0010
0000
0000
0000
,
0001
0000
0010
0000
,
0100
0010
0001
1000
,
0010
0100
0001
0100
,
0001
0000
1001
0000
,
0000
0110
0000
0001
,
0000
0010
0000
0100
,
0000
1000
0000
0000
0100
0000
0000
0000
,
0010
0000
0001
0000
,
0100
0010
1000
0100
,
0010
0000
0100
1000
,
0010
0000
0100
0000
,
0001
0000
0000
1000
0000
0000
0100
0000
,
0000
0010
0000
0001
,
0000
0010
0000
0000
0100
0000
0000
0000
,
1000
0000
0100
0000
,
0010
0100
1000
0001
,
0100
0010
1000
0001
,
0010
0200
0000
0000
0000
0000
0000
0000
,
1300
0000
0000
1000
0000
0000
0010
0000
,
0000
0100
0000
0000
0001
0000
0000
0000
,
1000
0100
0010
0000
,
0001
0000
0000
0000
0100
0000
0000
0010
,
0000
0000
1000
0000
0000
0010
0000
0000
,
0100
0000
0000
0000
0001
0000
0000
0001
,
0100
0010
1000
0100
,
0010
0001
0100
0010
,
1000
0100
0010
0001
,
0100
0010
1000
0010
,
0100
0001
0010
0100
,
1000
0010
0100
0001
,
0010
0100
1000
0001
,
0100
0020
0000
0000
0000
0000
0000
0000
,
1030
0000
0000
0001
0000
0000
0100
0000
,
0000
0010
0000
0000
1000
0000
0000
0000
,
0001
0010
0100
0000
,
1000
0000
0000
0000
0010
0000
0000
0100
,
0000
0000
0001
0000
0000
0100
0000
0000
,
0010
0000
0000
0000
1000
0000
0000
1000
,
0020
0130
0002
0013
,
0200
1300
0020
0000
,
0000
0000
0000
0000
,
0000
0030
0100
0000
,
0001
0000
0000
0000
0010
0000
0000
0100
,
0000
0010
0001
0001
,
0001
0001
1000
0010
,
0100
0000
0001
0000
,
0010
0000
0100
0000
,
1000
0000
0010
0100
,
0001
0000
0010
0000
0100
0000
0000
1000
,
0000
0000
0010
0000
0000
0100
0001
0000
,
0000
0000
0100
0000
0001
0000
0000
0100
,
0000
0000
0000
0000
,
0001
0000
0010
0000
,
0100
0000
1000
0000
,
0010
0000
0100
0001
,
0010
0000
0110
0000
,
0110
0000
0200
1300
,
0000
0010
0000
0000
0100
0000
0000
0001
,
0000
0000
0010
0000
0000
0100
0000
0000
,
1000
0000
0010
0000
,
0100
0000
0010
2000
,
0000
0000
3000
0000
,
0000
0000
0100
0000
,
0010
0000
0000
0010
0001
0000
0000
0000
,
0001
0200
0000
0000
,
0300
0000
0000
0000
,
0010
0000
0000
0010
1000
0000
0000
0000
,
0100
0000
0010
0002
,
0000
0000
0003
0000
,
0000
0000
0100
0000
,
0010
0000
1000
0000
,
0001
1000
0000
0000
;
#NOTES:
     dance-single:
     WinDEU:
     Beginner:
     3:
     0.357,0.608,0.195,0.410,0.000:
0000
0000
0000
0000
,
0000
0000
0000
0000
,
0000
0000
0000
0000
,
0000
0000
0000
0000
,
0000
0000
0000
0000
,
0000
0000
0000
0000
,
0000
0000
0000
0000
,
0001
0000
0010
0000
,
0200
0000
0000
0000
,
1300
0000
0010
0200
,
0000
0000
0301
0000
,
0010
0100
0020
0000
,
0000
0030
0000
0000
,
0000
0000
0000
0000
,
1000
0000
0010
0000
,
0100
0000
0000
0002
,
0013
0000
0100
0000
,
1000
0000
0010
0000
,
0100
0000
0001
1000
,
0000
0100
1000
0000
,
0001
0200
0000
0000
,
0310
0000
1000
0000
,
0002
0000
0000
0000
,
0013
0000
0100
2000
,
0000
0000
3010
0000
,
0100
0001
0200
0000
,
0000
0000
0000
0000
,
0000
0000
0300
0000
,
0010
0000
0000
1000
0000
0000
0010
0000
,
0000
0000
0000
0000
,
1000
0100
0000
0010
,
0000
0001
0020
0000
,
0230
0000
2300
0000
,
3020
0000
0230
0000
,
0302
0000
0023
0000
,
0130
0000
0000
1000
0000
0000
0100
0000
,
0000
1000
0100
0010
,
0000
0000
0001
0000
0000
0010
0000
0000
,
0001
0000
0200
0000
,
0320
0000
2030
0000
,
3200
0000
0320
0000
,
0032
0000
0203
0000
,
0301
0000
0000
1000
0000
0000
0100
0000
,
0000
0000
0000
0000
,
0010
0001
0000
0100
,
0000
0010
2000
0000
,
3020
0000
0230
0000
,
0302
0000
0023
0000
,
0230
0000
2300
0000
,
3010
0000
0000
0100
0000
0000
0001
0000
,
0000
0010
0100
1000
,
0000
0000
0001
0000
0000
0100
0000
0000
,
0010
0000
2000
0000
,
3200
0000
0320
0000
,
0032
0000
0103
0001
,
0100
0001
0000
0000
,
1100
0000
0000
0000
,
0000
0000
0000
0011
,
0000
0000
0000
0000
,
0000
0000
0101
0000
,
0000
0000
1010
0000
,
0000
0000
0000
0000
,
0000
0000
0000
0000
,
1100
0000
0000
0000
,
0000
0000
0000
0011
,
0000
0000
0000
0000
,
0000
0000
0110
0000
,
0000
0000
1100
0000
,
0000
0000
0000
0000
,
0000
0000
0000
0000
,
0101
0000
0000
0000
,
0000
0000
0000
1010
,
0000
0000
0000
0000
,
0000
0000
1100
0000
,
0000
0000
0011
0000
,
0000
0000
0000
0000
,
0000
0000
0000
0000
,
1001
0000
0000
0000
,
0000
0000
0000
0110
,
0000
0000
0000
0000
,
0000
0000
1010
0000
,
0000
0000
0011
0000
,
0000
0000
0000
0000
,
0000
0000
0000
0000
,
2000
0000
0000
0000
,
0000
0000
0000
0000
,
0000
0000
0000
0000
,
0000
0000
3100
0000
,
0000
0000
0000
0000
,
0000
0000
0000
0000
,
0000
0000
0000
0000
,
0001
0100
0001
0100
,
0001
0100
0001
1000
,
0001
1000
0001
1000
,
0001
1000
0010
1000
,
0010
1000
0010
1000
,
0010
0100
0010
0100
,
0010
0100
0010
0100
,
0002
0000
0000
0000
,
0000
0000
0000
0000
,
0000
0000
0000
0000
,
0000
0000
0103
0000
,
0000
0000
0000
0000
,
0000
0000
0000
0000
,
0000
0000
0000
0000
,
0010
1000
0010
1000
,
0010
1000
0020
0000
,
0000
0000
0000
0000
,
0000
0000
0130
0000
,
0001
0000
0000
0000
0010
0000
0000
0100
,
0000
2000
0000
0000
,
0000
0000
0000
0000
,
3100
0000
0020
0000
,
0031
0000
0200
0000
,
0310
0000
0000
0000
,
0000
0000
0000
0000
,
0000
0000
0000
0000
,
0000
0000
0000
0000
,
0000
0000
0000
0000
,
1000
0000
0200
0000
,
0310
0000
0002
0000
,
1003
0000
0000
0000
,
1001
0000
0110
0000
,
1001
0000
0002
1003
,
0000
0001
0000
0000
1000
0000
0000
0001
,
0000
0000
1000
0000
0000
0001
0000
0000
,
1000
0000
0010
0000
,
0100
0000
0001
0000
,
0000
0000
0000
0000
,
0000
0000
1000
0000
,
0100
0000
0100
0000
,
1000
0010
0000
0000
,
0000
0000
0000
0000
,
0100
0000
0001
0000
,
0010
0000
0100
0000
,
0000
0000
0000
0000
,
0000
0000
0010
0000
,
0001
0000
0100
0010
,
0000
1001
0000
0000
;
