#TITLE:Midnight Runner;
#SUBTITLE:;
#ARTIST:Pendulum;
#TITLETRANSLIT:;
#SUBTITLETRANSLIT:;
#ARTISTTRANSLIT:;
#CRChallenge:;
#BANNER:runner.png;
#BACKGROUND:runner-bg.png;
#LYRICSPATH:;
#CDTITLE:;
#MUSIC:runner.ogg;
#OFFSET:0.000;
#SAMPLESTART:33.043;
#SAMPLELENGTH:12.000;
#SELECTABLE:YES;
#BPMS:0.000=174.000;
#STOPS:;
#BGCHANGES:;
#NOTES:
     dance-single:
     Renard:
     Challenge:
     14:
     1.000,1.000,1.000,0.407,0.476:
0000
0000
0000
0000
,
0000
0000
0000
0000
,
0000
0000
0000
0000
,
0000
0000
0000
0000
,
0000
0000
0000
0000
,
0000
0000
0000
0000
,
0000
0000
0000
0000
,
0000
0000
0000
0000
,
1MM1
0001
0MM1
1001
1MM0
1000
M11M
0010
,
1MM1
1000
1MM0
1001
0MM1
0001
M11M
0010
,
1MM1
0001
0MM1
1001
1MM0
1000
M11M
0010
,
1MM1
100M
1MM1
M001
1MM1
100M
1MM1
M001
,
1MM1
1000
1MM0
1001
0MM1
0000
1011
0000
,
1MM1
0001
0MM1
1001
1MM0
0000
1011
0000
,
1MM1
1000
1MM0
1001
0MM1
0000
1011
0000
,
1MM1
M001
1MM1
100M
1MM1
M001
1MM1
100M
,
M11M
0000
0100
0000
M01M
0000
0100
0001
0100
0000
1000
0100
1000
0000
0100
0000
,
M11M
0000
0100
0000
M01M
0000
0100
0001
0100
0000
1000
0100
0010
0000
0100
0000
,
M1M1
0000
0100
0000
M0M1
0000
0100
0010
0100
0000
1000
0100
0010
0000
0100
0000
,
M1M1
0000
0100
0000
M0M1
0000
0100
0010
0100
0000
1000
0100
1000
0000
0100
0000
,
M11M
0000
0100
0000
M01M
0000
0100
0001
0100
0000
1000
0100
1000
0000
0100
0000
,
M11M
0000
0100
0000
M01M
0000
0100
0001
0100
0000
1000
0100
0010
0000
0100
0000
,
M1M1
0000
0100
0000
M0M1
0000
0100
0010
0100
0000
1000
0100
0010
0000
0100
0000
,
M1M1
0000
0100
0000
M0M1
0000
0100
0010
0100
0000
1000
0100
0010
0000
0000
0000
,
M22M
0000
133M
0000
M2M2
1000
0313
0000
,
22MM
0000
331M
0000
11MM
1100
MM11
0011
,
M2M2
0000
M313
0000
02M2
1000
0313
0000
,
22MM
0000
331M
0000
11MM
0110
MM11
0000
,
2M12
0000
3M13
0000
02M2
1000
0313
0000
,
221M
0000
331M
0000
1MM1
0110
1MM1
0110
,
2MM2
0000
3M13
0000
02M2
1000
0313
0000
,
2M12
0000
3M13
0000
11MM
0011
11MM
0000
,
111M
0000
0000
0000
11M1
0000
0000
0000
0001
0010
0100
1000
0001
0000
0001
0000
,
22M0
0000
001M
0000
33M1
0000
0000
0000
1000
0100
0010
0001
1000
0000
0000
0000
,
111M
0000
0000
0000
11M1
0000
0000
0000
0001
0010
0100
1000
0001
0000
0001
0000
,
22M0
0000
001M
0000
33M1
0000
0000
0000
1000
0100
0010
0001
1000
0000
0000
0000
,
M111
0000
0000
0000
11M1
0000
0000
0000
1000
0100
0010
0001
1000
0000
1000
0000
,
02M2
0000
M010
0000
13M3
0000
0000
0000
0001
0010
0100
1000
0001
0000
0000
0000
,
M111
0000
0000
0000
11M1
0000
0000
0000
1000
0100
0010
0001
1000
0000
1000
0000
,
02M2
0000
M010
0000
13M3
0000
0000
0000
0001
0010
0100
1000
0001
0000
0000
0000
,
M001
0M10
M001
0M10
M001
0M10
M001
0M10
M001
0M10
M001
0M10
M001
0M10
M001
0M10
,
M001
0000
0000
0000
1000
0100
0010
0000
0001
0010
0100
0000
1000
0100
0010
0000
,
M001
01M0
M001
01M0
M001
01M0
M001
01M0
M001
01M0
M001
01M0
M001
01M0
M001
01M0
,
M001
0000
1000
0010
0100
0000
0001
0100
0010
0000
1000
0010
0100
0000
0001
0000
,
100M
01M0
100M
01M0
100M
01M0
100M
01M0
100M
01M0
100M
01M0
100M
01M0
100M
01M0
,
100M
0000
0100
0001
0100
0000
0010
0001
0010
0000
1000
0010
0100
1000
0100
0000
,
100M
0M10
100M
0M10
100M
0M10
100M
0M10
100M
0M10
100M
0M10
100M
0M10
100M
0000
,
0010
0100
0001
0100
1000
0100
0010
0001
0010
1000
0100
0010
0001
0000
0000
0000
,
MM21
MM01
MM01
MM01
MM01
MM01
MM01
MM31
,
MM21
MM01
MM31
MM21
MM01
MM01
MM01
MM31
,
M12M
M10M
M10M
M10M
M10M
M10M
M10M
M13M
,
M12M
M10M
M13M
M12M
M10M
M10M
M10M
M13M
,
1M2M
1M0M
1M0M
1M0M
M10M
M10M
M10M
M13M
,
MM21
MM01
MM31
MM21
M10M
M10M
M10M
M13M
,
1M2M
1M0M
M10M
M10M
MM01
MM01
M10M
M13M
,
1M2M
M10M
MM31
M12M
1M0M
M10M
MM31
0000
,
M1M1
0010
1MM1
0010
M1M1
0010
1MM1
0010
,
0100
0001
1000
0000
0001
1000
0100
0000
1000
0000
M1M1
0000
1M1M
0000
0000
0000
,
1M1M
0100
1MM1
0100
1M1M
0100
1MM1
0100
,
0010
1000
0001
0000
1000
0001
0010
0000
0001
0000
1M1M
0000
M1M1
0000
0000
0000
,
M1M1
0010
1MM1
0010
M1M1
0010
1MM1
0010
,
0100
0001
1000
0000
0001
1000
0100
0000
1000
0000
M1M1
0000
1M1M
0000
0000
0000
,
1M1M
0100
1MM1
0100
1M1M
0100
1MM1
0100
,
0010
1000
0001
0000
1000
0001
0010
0000
0001
0000
1M1M
0000
M1M1
0000
0000
0000
,
MM11
MM11
MM11
MM11
MM11
MM11
MM11
MM11
,
1000
0100
0001
0100
1000
0100
0001
0100
1M00
0000
1MM0
0000
1MMM
0000
1MMM
0000
,
MM11
MM11
MM11
MM11
MM11
MM11
MM11
MM11
,
1000
0100
0001
0100
1000
0100
0001
0100
1M00
0000
1MM0
0000
1MMM
0000
0000
0000
,
11MM
11MM
11MM
11MM
11MM
11MM
11MM
11MM
,
0001
0010
1000
0010
0001
0010
1000
0010
00M1
0000
0MM1
0000
MMM1
0000
MMM1
0000
,
11MM
M1M1
1M1M
MM11
11MM
M1M1
1M1M
MM11
,
0001
0010
1000
0001
0100
1000
0001
0010
1M00
0000
1MM1
0000
M11M
0000
MMMM
0000
,
1111
0000
0000
0000
;
#NOTES:
     dance-single:
     Renard:
     Medium:
     9:
     0.544,0.566,0.536,0.176,0.000:
0000
0000
0000
0000
,
0000
0000
0000
0000
,
0000
0000
0000
0000
,
0000
0000
0000
0000
,
0000
0000
0000
0000
,
0000
0000
0000
0000
,
0000
0000
0000
0000
,
0000
0000
0000
0000
,
1001
0000
0000
0110
0000
0000
1001
0000
,
0110
0000
0000
1001
0000
0000
0110
0000
,
1001
0000
0000
0110
0000
0000
1001
0000
,
0220
0000
0000
1000
0000
0000
0331
0000
,
1001
0000
0000
0110
0000
0000
1001
0000
,
0110
0000
0000
1001
0000
0000
0110
0000
,
1001
0000
0000
0110
0000
0000
2002
0000
,
0010
0000
0000
0100
0000
0000
3013
0000
,
1000
0000
0001
0100
1000
0100
0001
0000
,
0001
0000
0001
0010
1000
0010
0001
0000
,
1000
0000
1000
0100
0001
0100
1000
0000
,
1000
0000
1000
0010
0001
0010
0100
1000
,
0100
0000
0100
1000
0100
0001
0100
0000
,
0001
0000
0001
0010
1000
0010
0100
0000
,
0100
0001
0100
1000
0010
0001
0010
0100
,
1000
0100
0001
1000
0001
0000
1011
0000
,
0001
0000
1100
0000
1000
0100
0010
0001
,
1000
0000
0101
0000
0001
0100
0010
1000
,
0100
0000
1100
0000
1000
0100
0010
0001
,
0100
0101
0010
1100
,
0010
0000
0101
0000
0001
0100
0010
1000
,
0100
0000
1100
0000
1000
0100
0010
0001
,
0100
0000
0101
0000
0001
0100
0010
1000
,
0100
0010
0001
0010
0100
1000
0001
0000
,
0100
0000
1001
0000
0010
0100
0001
1000
,
0100
0011
1100
1001
,
1010
0000
0101
0000
0001
0100
0010
1000
,
0100
1100
0011
0110
,
1100
0000
1001
0000
1000
0010
0100
0001
,
0010
0110
0011
1100
,
1000
0000
1001
0000
0100
0010
1000
0100
,
0010
0001
0010
0100
1000
0001
0100
0010
,
2000
0001
0010
0001
,
3100
0000
0100
1000
0100
0010
0001
1000
,
0002
0100
0010
1000
,
0100
0000
0103
0001
0100
0010
1000
0100
,
0020
0100
1000
0100
,
0130
0000
0100
0010
0100
1000
0010
0100
,
0002
0100
1000
0100
,
1000
0000
1003
0001
0100
0010
1000
0100
,
0020
0000
0000
0000
,
0032
0000
0000
2003
0000
0000
0000
0000
,
3020
0000
0000
0000
,
2030
0000
0000
3002
0000
0000
0000
0000
,
2003
0010
0001
0010
,
3020
0000
0000
0200
0000
0000
0030
0000
,
0010
0001
0010
0001
,
0302
0000
0000
2000
0000
0000
3003
0000
,
1001
0000
0110
0000
0010
0100
0001
0010
,
0100
1000
0100
0010
0001
0100
0010
1000
,
0100
0000
1100
0000
0100
1000
0010
0100
,
0001
0010
0100
0010
0001
0100
0010
0000
,
1000
0000
1010
0000
1000
0010
0100
0001
,
0010
0100
1000
0100
0010
0001
0100
0000
,
0101
0000
1001
0000
1000
0100
0010
0001
,
0010
0100
0010
1000
0010
0001
0010
0000
,
0011
0000
0101
0000
0100
1000
0100
0001
,
0010
0100
0001
0100
1000
0010
0001
0010
,
0100
0000
0110
0000
0100
1000
0100
0001
,
1000
0100
0010
1000
0010
0100
0010
0000
,
0110
0000
0101
0000
1100
0000
1000
0010
,
0001
0010
0100
1000
0100
0001
1000
0000
,
1100
0000
0110
0000
0010
0100
0010
0001
,
0010
1000
0010
0001
0010
0100
1000
0000
,
1001
0000
0000
0000
;
#NOTES:
     dance-single:
     Renard:
     Easy:
     6:
     0.374,0.433,0.083,0.166,0.000:
0000
0000
0000
0000
,
0000
0000
0000
0000
,
0000
0000
0000
0000
,
0000
0000
0000
0000
,
0000
0000
0000
0000
,
0000
0000
0000
0000
,
0000
0000
0000
0000
,
0000
0000
0000
0000
,
0001
0000
0000
1000
0000
0000
0001
0000
,
0100
0000
0000
0010
0000
0000
0100
0000
,
0001
0000
0000
1000
0000
0000
0001
0000
,
1000
0100
1000
0000
0001
0100
0001
0000
,
1000
0000
0000
0100
0000
0000
0010
0000
,
0001
0000
0000
1000
0000
0000
0010
0000
,
0100
0000
0000
0001
0000
0000
1000
0000
,
0001
0100
0001
0000
1000
0100
1000
0000
,
0001
0000
0000
0000
1000
0001
1000
0000
,
0010
0000
0000
0000
1000
0001
1000
0000
,
0001
0000
0000
0000
1000
0001
1000
0000
,
0100
0000
0000
0000
1000
0001
1000
0000
,
0010
1000
0001
0100
,
0010
0100
0010
0000
0100
0010
0100
0000
,
0001
1000
0100
0010
,
0001
1000
0001
0000
0010
0000
1001
0000
,
1000
0000
1001
0000
0000
0001
1000
0000
,
0010
0000
0110
0000
0000
0010
0100
0000
,
0001
0000
1001
0000
0000
0001
1000
0000
,
0010
0000
0110
0000
0000
0010
0100
0000
,
0001
0000
0101
0000
0000
0001
0100
0000
,
0010
0000
1010
0000
0000
1000
0010
0000
,
1000
0000
1100
0000
0000
0100
1000
0000
,
0001
0000
0010
0000
0001
1000
0001
0000
,
0200
0000
0310
0000
0010
1000
0010
1000
,
0010
1000
0010
0000
,
0200
0000
0301
0000
0001
0100
0001
0100
,
0010
0010
1000
0000
,
0002
0000
0103
0000
0100
0010
0100
0010
,
1000
0001
1000
0000
,
0200
0000
1300
0000
0001
0010
0001
1000
,
0100
1000
0001
0100
,
0020
0000
0000
0000
,
0000
0000
1030
0010
0100
0000
0001
0100
,
0020
0000
0000
0000
,
0000
0000
1030
0100
0010
0000
0001
0010
,
0200
0000
0000
0000
,
0000
0000
1300
0100
0010
0000
0001
0010
,
0200
0000
0000
0000
,
0000
0000
0000
0000
,
2300
0000
0000
0000
,
3002
0000
0000
0203
0000
0000
0000
0000
,
0302
0000
0000
0000
,
2003
0000
0000
3002
0000
0000
0000
0000
,
0203
0000
0000
0000
,
0320
0000
0000
2030
0000
0000
0000
0000
,
3002
0000
0100
0000
,
1000
0100
1000
0100
,
0103
0001
0100
0001
0100
0001
0100
0000
,
0010
0010
0010
0010
,
1000
0100
1000
0100
1000
0100
1000
0100
,
0010
0010
0010
0010
,
0001
0100
0001
0100
0001
0100
0001
0000
,
0010
0010
0001
0100
,
1000
0100
1000
0100
1000
0100
0010
0000
,
0100
1000
0010
0100
,
0001
0001
0001
0001
,
1000
0100
1000
0100
1000
0000
0100
0000
,
1000
1000
1000
1000
,
0001
0100
0001
0100
0001
0000
0100
0000
,
0010
0010
0010
0010
,
1000
0001
1000
0001
1000
0000
0010
0000
,
1000
0001
0100
0010
,
1000
0001
0010
0100
1000
0001
1000
0000
,
1001
0000
0000
0000
;
#NOTES:
     dance-single:
     Renard:
     Beginner:
     4:
     0.273,0.466,0.286,0.074,0.000:
0000
0000
0000
0000
,
0000
0000
0000
0000
,
0000
0000
0000
0000
,
0000
0000
0000
0000
,
0000
0000
0000
0000
,
0000
0000
0000
0000
,
0000
0000
0000
0000
,
0000
0000
0000
0000
,
1000
0000
1000
0001
,
0100
0000
0100
0010
,
1000
0000
1000
0010
,
0100
0001
0010
0000
,
0100
0000
0100
0010
,
0001
0000
0001
1000
,
0010
0000
0010
1000
,
0001
0100
0010
0000
,
2000
0000
0001
0000
,
0010
0000
0001
0000
,
3002
0000
1000
0000
,
0010
0000
1000
0000
,
2003
0000
0001
0000
,
0010
0000
0001
0000
,
0002
0000
0000
0000
,
0000
0000
0000
3013
,
0000
1001
0000
0110
,
0000
1001
0001
1000
,
0000
1001
0000
0110
,
0000
1001
1000
0001
,
0000
1001
0000
0110
,
0000
1001
0001
1000
,
0000
1001
0000
0110
,
0000
1001
1000
0001
,
1000
0100
0001
0100
,
1000
0000
1000
0000
,
0001
0010
1000
0010
,
0001
0000
0001
0000
,
1000
0100
0001
0100
,
1000
0000
1000
0000
,
1000
0010
0001
0010
,
1000
0000
1000
0010
,
0200
0000
0000
0000
,
0000
0010
0001
0010
,
0302
0000
0000
0000
,
0000
1000
0100
1000
,
0200
0000
0000
0000
,
0000
0010
1000
0010
,
2000
0000
0000
0000
,
0000
0000
0000
3303
,
0001
0000
0000
0000
,
0001
0001
0001
0000
,
1000
0000
0000
0000
,
1000
1000
1000
0000
,
0010
0000
0010
0000
,
0100
0000
0100
0000
,
0001
0001
0001
0001
,
1000
1000
1000
1000
,
0010
1000
0010
1000
,
0010
1000
0010
1000
,
0001
0100
0001
0100
,
0001
0100
0001
0100
,
0010
1000
0010
1000
,
0010
1000
0010
1000
,
0001
0100
0001
0100
,
0001
0100
0001
0100
,
0010
1001
0000
1001
,
0000
1001
0000
1001
,
0000
0110
0000
0110
,
0000
1001
0000
1001
,
0000
0110
0000
1001
,
0000
1010
0000
0101
,
0000
0011
0000
1100
,
1010
0011
0101
1100
,
1001
0000
0000
0000
;
