#TITLE:Mermaid;
#SUBTITLE:;
#ARTIST:Tsukasa;
#TITLETRANSLIT:;
#SUBTITLETRANSLIT:;
#ARTISTTRANSLIT:;
#CRChallenge:;
#BANNER:mermaid.jpg;
#BACKGROUND:mermaid-bg.jpg;
#LYRICSPATH:;
#CDTITLE:;
#MUSIC:mermaid.ogg;
#OFFSET:0.000;
#SAMPLESTART:38.029;
#SAMPLELENGTH:12.000;
#SELECTABLE:YES;
#BPMS:0.000=145.000;
#STOPS:;
#BGCHANGES:;
#NOTES:
     dance-single:
     Renard:
     Medium:
     11:
     0.793,1.000,0.284,0.146,0.755:
0000
0000
0000
0000
,
0000
0000
0000
0000
,
0000
0000
0000
0000
,
0000
0000
0000
0000
,
0000
0000
0000
0000
,
1000
0000
1000
0010
0000
0010
0100
0000
0001
0000
0010
0000
0100
0000
1000
0000
,
0001
0100
0010
1000
0100
0000
0010
0000
0001
0000
0010
0000
0100
0000
1000
0000
,
0001
0000
0001
0010
0100
1000
0100
0010
0001
0000
0001
0010
0100
1000
0100
0010
,
0001
1000
0000
1000
0100
0000
0100
0010
0000
0010
0001
1000
0100
0000
0000
0000
,
1000
0000
0100
0010
0000
0001
0010
0000
0100
0000
1000
0000
0001
0000
0100
0000
,
0010
1000
0010
0100
0001
0000
0100
0000
0010
0000
1000
0000
0100
0000
0010
0000
,
0001
0000
0010
0100
1000
0100
0010
0001
1000
0010
0100
0000
0001
0000
0100
0000
,
0010
1000
0010
0100
0001
0000
0100
0000
0010
0000
1000
0000
0100
0000
0010
0000
,
0001
0000
0001
0100
0000
0100
0010
0000
1000
0000
0100
0000
0010
0000
0001
0000
,
1000
0010
0100
0001
0010
0000
0100
0000
1000
0000
0100
0000
0010
0000
0001
0000
,
1000
0000
1000
0100
0010
0001
0010
0100
1000
0000
1000
0100
0010
0001
0010
0100
,
1000
0001
0000
0001
0010
0000
0010
0100
0000
0100
1000
0001
0010
0000
0100
0000
,
1000
0100
0010
0001
1000
0000
0001
0000
0010
0100
1000
0001
0010
0000
0001
0000
,
0000
1000
0100
0010
0000
0001
0010
0100
0000
1000
0010
0100
0000
0001
0100
0010
,
1000
0100
0010
0001
0010
0100
1000
0001
0100
0010
1000
0100
0010
0001
1000
0010
,
0100
0001
0010
0100
1000
0001
0100
0010
1000
0100
0010
0001
0010
0100
1000
0001
,
1000
0100
1000
0100
1000
0100
1000
0100
1000
0100
1000
0100
1000
0100
1000
0100
1000
0100
1000
0100
1000
0100
1000
0100
,
1000
0000
0000
0000
,
1100
0000
0000
0011
0000
0000
0010
0000
0100
1000
0001
0000
0100
0000
0010
0000
,
1000
0100
0010
0001
0010
0000
0100
0000
1000
0000
0001
0100
0010
0000
1000
0000
,
0100
0000
0010
0001
0010
0100
1000
0001
0100
0000
0010
0000
1000
0000
0100
0000
,
0010
0000
0001
0010
0100
0000
1000
0000
0001
0000
0100
0010
1000
0000
0100
0000
,
0010
0000
0001
0010
0100
0000
1000
0000
0001
0000
0100
0010
1000
0000
0001
0000
,
0100
0010
1000
0100
0010
0000
0001
0000
0010
0000
0100
0000
1000
0000
0001
0000
,
0100
0000
0010
1000
0000
0001
0100
0000
0010
0000
1000
0100
0000
0010
0001
0000
,
1000
0000
0000
0100
0000
0000
0000
0000
0000
0010
0000
0000
0001
0000
0000
0000
0000
0000
0100
0000
0000
0010
0000
0000
0000
0000
0000
1000
0000
0000
0100
0000
0000
0010
0000
0000
0001
0000
0000
0000
0000
0000
1000
0000
0001
0000
1000
0000
,
0001
0100
0110
0000
1000
0100
0110
0000
,
0001
1000
0110
1000
0001
0010
0110
0000
,
1000
0010
0110
0000
0100
0001
0110
0000
,
0010
0100
1000
0010
0100
0001
1001
0000
,
1100
0010
0101
0010
1100
0010
0101
0000
,
0101
0010
1100
0010
0101
0010
1100
0000
,
1010
0100
0011
0100
1010
0001
0110
0000
,
1000
0000
0000
1000
0000
0000
0000
0000
0000
0001
0000
0000
0001
0000
0000
0000
0000
0000
1000
0000
0000
1000
0000
0000
0000
0000
0000
0001
0000
0000
0100
0000
0000
0010
0000
0000
1000
0000
0000
0000
0000
0000
0001
0000
1000
0000
0001
0000
,
1000
0000
1000
0010
0000
0010
0100
0000
0001
0000
0010
0000
0100
0000
1000
0000
,
0001
0100
0010
1000
0100
0000
0010
0000
0001
0000
0010
0000
0100
0000
1000
0000
,
0001
0000
0001
0010
0100
1000
0001
0100
0010
0000
1000
0000
0100
0000
0010
0000
,
0001
0000
1000
0000
0001
0000
0100
0000
0010
1000
0010
0000
0100
0000
0001
0000
,
1000
0000
1000
0100
0000
0100
0010
0000
0001
0000
0010
0000
0100
0000
1000
0000
,
0001
0010
0100
1000
0100
0000
0010
0000
0001
0000
0100
0000
0010
0000
1000
0000
,
0001
0000
0001
0010
0100
1000
0100
0010
0001
0000
0001
0010
0100
1000
0100
0010
,
0001
0100
0000
0100
0010
0000
0010
1000
0000
1000
0100
0010
0001
0000
0000
0000
,
1000
0000
0100
0000
0010
0000
0001
1000
0001
0000
0100
0010
0000
1000
0100
0000
,
0000
0010
0001
0000
0010
0000
0100
1000
0001
0000
0100
0010
0000
1000
0100
0000
,
0010
0000
0001
0000
0010
0000
0100
1000
0001
0000
0100
0010
0000
1000
0100
0000
,
0010
0001
0010
0100
1010
0101
1001
0000
,
1000
0000
0100
0000
0010
0000
0001
1000
0010
0000
0100
0001
0000
0100
0010
0000
,
1000
0000
0100
0000
0010
0000
0001
1000
0001
0000
0100
0010
0000
1000
0100
0000
,
0010
0000
0001
0000
0010
0000
0100
1000
0001
0000
0100
0010
0000
1000
0100
0000
,
0010
0000
0001
0010
0100
0000
1000
0000
0101
0000
1010
0000
1001
0000
0000
0000
,
0002
0000
0203
0000
0002
0000
0000
0000
0010
0000
0000
1000
0000
0000
0313
0000
,
0000
0000
0010
0000
2000
0000
0200
0000
0010
0000
0000
0001
0000
0000
3310
0000
,
0000
0000
0002
0000
0200
0000
0000
0000
0010
0000
0000
1000
0000
0000
0313
0000
,
0001
0100
0010
1000
2002
0000
3013
0000
,
0002
0000
0203
0000
0002
0000
0000
0000
0010
0000
0000
1000
0000
0000
0313
0000
,
0000
0000
0010
0000
2000
0000
0200
0000
0010
0000
0000
0001
0000
0000
3310
0000
,
0000
0000
0002
0000
0200
0000
0000
0000
0010
0000
0000
1000
0000
0000
0313
0000
,
0001
0100
0010
1000
1011
1011
1011
0000
;
#NOTES:
     dance-single:
     Renard:
     Easy:
     9:
     0.558,0.718,0.037,0.037,0.316:
0000
0000
0000
0000
,
0000
0000
0000
0000
,
0000
0000
0000
0000
,
0000
0000
0000
0000
,
0000
0000
0000
0000
,
1000
0000
0000
0001
0000
0000
0100
0000
0010
0000
1000
0000
0100
0000
0000
0000
,
0010
0000
0001
0010
0001
0000
0010
0000
0100
0000
1000
0000
0001
0000
0000
0000
,
0100
0000
0010
1000
0100
0000
0010
0001
,
1000
0000
0000
0001
0000
0000
0100
0000
0000
0100
0010
0000
1000
0000
0000
0000
,
0100
0010
0001
0010
0100
1000
0001
0000
,
0100
0000
0010
0100
0010
0000
1000
0000
0100
0000
0010
0000
0001
0000
0000
0000
,
0010
0000
0000
0010
0001
0000
0010
0000
0100
0000
0000
0000
0100
0000
0000
0000
,
1000
0000
0010
0000
0100
0000
0001
0100
0001
0000
0100
0000
0010
0000
0000
0000
,
1000
0000
0000
0010
0000
0000
1000
0000
0001
0000
0100
0000
0001
0000
0000
0000
,
1000
0000
0100
1000
0100
0000
1000
0000
0001
0000
0010
0000
0100
0000
0000
0000
,
1000
0000
0000
1000
0001
0000
0010
0000
0100
0000
0000
0100
1000
0000
0010
0000
,
0100
0000
0000
0010
0000
0000
1000
0000
0000
0100
0000
0000
0010
0000
0000
0000
,
0001
0010
0100
1000
,
0001
0010
0100
1000
0001
0010
0100
1000
,
0001
1000
0001
1000
0001
1000
0001
1000
0001
1000
0001
1000
0001
1000
0001
1000
,
0001
1000
0001
1000
0001
1000
0001
1000
0001
1000
0001
1000
0001
1000
0001
2000
,
0002
0000
0000
3003
,
0220
0000
0000
0331
,
1000
0000
0000
0100
0000
0000
0010
0000
0001
0000
0010
0000
0100
0000
0000
0000
,
1000
0001
1000
0001
1000
0000
0000
0000
0001
0000
0010
0000
0001
0000
0000
0000
,
1000
0000
0010
1000
0001
0100
0010
0000
,
1000
0000
0001
0010
0100
1000
0001
0000
,
1000
0000
0000
1000
0000
0000
1000
0000
0001
0000
0010
0000
0100
0000
1000
0000
,
0001
0100
0001
0100
0001
0000
0100
0000
0010
0000
1000
0000
0100
0000
0000
0000
,
0010
0000
0001
0010
0100
0000
1000
0001
,
0010
0000
0000
0010
0000
0000
0001
0000
0000
0001
0000
0000
1000
0000
0000
0000
,
0010
0100
0001
0100
0010
1000
0100
0000
,
1000
0000
0001
1000
0001
0000
1000
0000
0001
0000
0010
0000
0100
0000
0000
0000
,
1000
0000
0001
0100
0001
0000
0100
0000
0010
0000
1000
0000
0100
0000
0000
0000
,
1000
0000
0001
0000
0010
0000
0001
1000
0001
0000
1000
0000
0001
0000
0000
0000
,
0100
0000
0000
0100
0000
0000
0010
0000
1000
0000
0100
0000
0010
0000
0000
0000
,
0001
0000
0010
0001
0010
0000
0100
0000
1000
0000
0001
0000
1000
0000
0000
0000
,
0010
0000
0000
0010
1000
0000
0100
0000
0010
0000
0000
0010
0001
0000
0010
0000
,
0100
1000
0000
0001
0010
0000
0100
1000
0000
0001
0010
0000
0100
0000
0000
0000
,
1000
0001
0100
0010
1000
1000
1000
0000
,
0010
0100
0001
0010
0001
0001
0001
0000
,
0010
0100
1000
0001
0010
0001
0001
0000
,
1000
0010
0100
0001
1000
1000
0001
0000
,
0010
0000
0000
0100
0000
0000
1000
0000
0001
0000
0010
0000
0100
0000
0000
0000
,
1000
0000
0001
1000
0001
0000
0100
0000
0001
0000
1000
0000
0010
0000
0000
0000
,
1000
0000
0000
1000
0100
0000
0010
0000
0001
0000
0000
0001
0010
0000
0100
0000
,
1000
0001
0000
0001
1000
0000
1000
0001
0000
0001
1000
0000
0100
0000
0000
0000
,
0010
0000
0001
0000
0010
0000
0100
0000
1000
0000
0000
1000
0000
0000
1000
0000
,
0001
0000
0010
0000
0100
0000
1000
0000
0001
0000
0000
0001
0000
0000
0001
0000
,
1000
0000
0010
0000
0100
0000
0001
0000
1000
0000
0000
1000
0000
0000
1000
0000
,
0001
0100
0010
1000
0001
0001
0001
0000
,
1000
0000
0100
0000
0010
0000
0001
0000
1000
0000
0000
1000
0000
0000
1000
0000
,
0001
0000
0010
0000
0100
0000
1000
0000
0001
0000
0000
0001
0000
0000
0001
0000
,
1000
0000
0010
0000
0100
0000
0001
0000
1000
0000
0000
1000
0000
0000
1000
0000
,
0001
0100
0010
1000
0001
0001
0001
0000
,
1000
0000
0100
0000
0010
0000
0001
0000
1000
0000
0001
1000
0000
0000
0000
0000
,
0001
0000
0010
0000
0100
0000
1000
0000
0001
0000
1000
0001
0000
0000
0000
0000
,
1000
0000
0010
0000
0100
0000
0001
0000
1000
0000
0001
1000
0000
0000
0000
0000
,
0001
0000
0010
0000
0100
0000
1000
0000
0001
1000
0001
0000
1000
0000
0000
0000
,
0001
0000
0100
0000
0010
0000
1000
0000
0001
0000
1000
0001
0000
0000
1000
0000
,
0100
0000
0010
0000
0001
0000
1000
0000
0001
0000
1000
0001
0000
0000
1000
0000
,
0001
0000
0100
0000
0010
0000
1000
0000
0001
0000
1000
0001
0000
0000
1000
0000
,
0100
0010
0001
1000
1001
1001
1001
0000
;
#NOTES:
     dance-single:
     Renard:
     Beginner:
     6:
     0.378,0.488,0.101,0.000,0.000:
0000
0000
0000
0000
,
0000
0000
0000
0000
,
0000
0000
0000
0000
,
0000
0000
0000
0000
,
0000
0000
0000
0000
,
1000
0000
0100
0000
1000
0100
0010
0000
,
0001
0010
0100
1000
0100
0010
0001
0000
,
1000
0000
0001
0000
,
1000
0000
0000
0000
,
1001
0000
0000
0000
0001
0100
0010
0000
,
0100
0010
1000
0100
0010
0001
0010
0000
,
0100
0000
0000
0000
1000
0010
1000
0000
,
0001
0000
0000
0000
0100
0010
0100
0000
,
0001
0000
0000
0000
,
1000
0100
0010
0000
0001
1000
0010
0000
,
1000
0000
0001
0000
,
0110
0000
0000
0000
,
1001
0000
0110
0000
,
1001
0110
1001
0110
,
0010
0100
0001
0100
0010
0100
0001
0100
,
0010
1000
0100
1000
0010
1000
0100
1000
,
0010
0100
0001
0100
0010
1000
0100
0010
,
0001
0000
0000
1001
,
0001
0000
1000
0000
0100
1000
0001
0000
,
0100
0001
1000
0001
0100
0001
1000
0000
,
0001
0000
1000
0000
0010
1000
0010
0000
,
1000
0000
0001
0000
0100
0001
1000
0000
,
0001
0000
1000
0000
0100
1000
0001
0000
,
1000
0100
0010
0001
1000
0010
0100
0000
,
0010
0000
1000
0001
1000
0000
0001
0000
,
0100
0100
0010
0010
,
1000
0000
0010
0000
0100
0001
1000
0000
,
0100
1000
0001
0010
0100
1000
0001
0000
,
0100
0001
0100
0000
0001
1000
0001
0000
,
1000
0100
1000
0000
0001
0010
0001
0000
,
1000
0000
0010
0000
0100
0001
0100
0000
,
0001
1000
0100
1000
0001
0100
0001
0000
,
1000
0100
1000
0001
1000
0001
1000
0010
,
1000
0001
1000
0100
,
1000
0000
0001
0000
0100
0001
0100
0000
,
0001
1000
0001
0100
0001
1000
0100
0000
,
1000
0000
0001
0000
0100
0001
1000
0000
,
0001
0000
1000
0000
0100
1000
0001
0000
,
1000
0000
0001
0000
0100
0001
1000
0000
,
0010
0000
1000
0001
1000
0100
1000
0000
,
0001
0100
0001
1000
,
0010
0000
0000
0000
,
0010
0000
1000
0000
0100
0000
1000
0001
,
0100
0000
0001
0000
0010
0000
0001
1000
,
0100
1000
0001
0100
,
0001
0001
0100
0010
,
1000
0000
0100
0000
0010
0001
0010
0000
,
0100
0000
1000
0000
0001
0100
0001
0000
,
0100
0010
1000
0100
,
1000
0000
0001
0000
0100
0001
0100
0000
,
0001
1000
0100
0010
,
0001
1000
0010
0010
,
0100
0001
0010
0010
,
0001
0000
0010
0000
0100
1000
0100
0000
,
1000
0010
0100
0100
,
0001
0010
0100
0100
,
0010
0001
1000
0001
,
0100
0010
1000
0100
0010
0011
0011
0000
;
