#TITLE:Mermaid EX;
#SUBTITLE:;
#ARTIST:Tsukasa;
#TITLETRANSLIT:;
#SUBTITLETRANSLIT:;
#ARTISTTRANSLIT:;
#CRChallenge:;
#BANNER:mermaid.png;
#BACKGROUND:mermaid-bg.png;
#LYRICSPATH:;
#CDTITLE:;
#MUSIC:mermaid.ogg;
#OFFSET:0.000;
#SAMPLESTART:29.680;
#SAMPLELENGTH:12.000;
#SELECTABLE:NO;
#BPMS:0.000=102.000,24.000=204.000,57.000=102.000,73.000=204.000,314.000=102.000,330.500=204.000;
#STOPS:24.000=0.882
,73.000=2.059
;
#BGCHANGES:;
#NOTES:
     dance-single:
     Renard:
     Hard:
     12:
     0.861,1.000,0.192,0.450,0.217:
0000
0000
0000
0000
,
0000
0000
0000
0000
,
0000
1000
0000
0001
,
0100
0010
1000
0100
,
0010
0000
0001
0000
1000
0001
0010
1000
,
0100
0010
0001
0100
0010
1000
0100
0001
,
2000
3000
0000
0000
0000
0000
0000
0000
0000
0000
0000
0000
0000
0000
0000
0000
0001
0000
0000
0000
0000
0000
0000
0000
0100
0000
0000
0000
0000
0000
0000
0000
1000
0000
0000
0000
0000
0000
0000
0000
0100
0000
0000
0000
0000
0000
0000
0000
0001
0000
0000
0000
0000
0000
0000
0000
0010
0000
0000
0000
0000
0000
0000
0000
,
1000
0010
0001
0100
1000
0100
0001
0001
,
0010
0010
0100
1000
0010
0001
0010
1000
,
0100
0001
0100
1000
0010
0010
0100
0100
,
0001
0001
1000
0100
0010
0001
0010
0100
,
0010
0100
1000
0010
0100
0001
0010
0100
,
0010
0100
0010
0001
0100
0001
0100
1000
,
0100
1000
0100
0010
0001
0010
1000
0010
,
1000
0000
0000
0000
0000
0000
0000
0000
0100
0000
0000
0000
0000
0000
0000
0000
0020
0000
0000
0000
0000
0000
0000
0000
2000
3000
0000
0000
0000
0000
0000
0000
0200
0300
0000
0000
0000
0000
0000
0000
0002
0003
0000
0000
0000
0000
0000
0000
0032
0000
0000
0000
0000
0000
0000
0000
0200
0300
0000
0000
0000
0000
0000
0000
,
0020
0030
0000
0000
0000
0000
0000
0000
2000
3000
0000
0000
0000
0000
0000
0000
2003
0000
0000
0000
0000
0000
0000
0000
0200
0300
0000
0000
0000
0000
0000
0000
0002
0003
0000
0000
0000
0000
0000
0000
0020
0030
0000
0000
0000
0000
0000
0000
3020
0000
0000
0000
0000
0000
0000
0000
0200
0300
0000
0000
0000
0000
0000
0000
,
0002
0003
0000
0000
0000
0000
0000
0000
2000
3000
0000
0000
0000
0000
0000
0000
0230
0000
0000
0000
0000
0000
0000
0000
2000
3000
0000
0000
0000
0000
0000
0000
0020
0030
0000
0000
0000
0000
0000
0000
0002
0003
0000
0000
0000
0000
0000
0000
0002
0000
0000
0000
0000
0000
0000
0000
0000
0000
0000
0000
0000
0000
0000
0000
,
0300
0000
2000
0000
0000
0003
0022
0000
,
0000
0000
0000
0000
0000
0000
0000
0000
0000
0000
0000
0000
0000
0000
0000
0000
0000
3033
0000
0000
0000
0000
0000
0000
0000
0000
0000
0000
0000
0000
0000
0000
0001
0000
0000
0000
0000
0000
0000
0000
0100
0000
0000
0000
0000
0000
0000
0000
1000
0000
0000
0000
0000
0000
0000
0000
0001
0000
0000
0000
0000
0000
0000
0000
,
0010
0000
1000
0000
0100
0010
0001
0010
0100
0000
1000
0000
0100
0000
0001
0000
,
1000
0010
0001
0010
0100
1000
0100
0001
,
1000
0000
0010
0000
0001
0010
0100
1000
0001
0000
0100
0000
1000
0000
0001
0000
,
0010
1000
0010
0100
0001
0100
1000
0100
,
0010
0000
1000
0000
0010
1000
0010
0100
0001
0000
0100
0000
0010
0000
1000
0000
,
0100
0001
1000
0010
0001
0010
1000
0001
,
0100
0000
1000
0000
0100
0010
0001
1000
0100
0000
0010
0000
0001
0000
0010
0000
,
1000
0010
0100
1000
0100
0001
0100
0010
,
0001
0000
1000
0000
0010
0100
0001
0100
0010
0000
1000
0000
0010
0000
0001
0000
,
0010
0100
1000
0100
0001
0100
0010
1000
,
0100
0000
0001
0000
0100
1000
0100
0010
0001
0000
0010
0000
1000
0000
0010
0000
,
0001
0010
0100
1000
1100
0100
0110
0010
,
0011
0001
0101
0100
0110
0010
1010
1000
,
1100
0100
0110
0010
0001
0010
0001
0010
,
1000
0010
1000
0010
0001
0010
0011
0001
,
1001
1000
1001
0001
1001
0100
0001
0100
,
1000
0100
1000
0100
0001
0100
0001
0100
,
1000
0000
0100
0000
1000
0100
1000
0100
0001
0000
0010
0000
0001
0000
0010
0000
,
1000
0010
1000
0010
0001
0010
0011
0001
,
0010
1000
1010
0000
0011
0100
0001
0100
,
1000
0100
1000
0100
0001
0100
0010
1000
,
0100
0010
0001
0010
0110
1000
0100
1000
,
0100
1000
0100
1000
0100
0001
0100
0001
,
0100
0001
0100
0001
0100
0100
1000
1000
,
0010
0010
1000
1000
0100
0100
0010
0010
,
0001
0001
0010
0010
0100
0100
1000
1000
,
0010
0010
1000
1000
0100
0100
0010
0010
,
0001
0001
0010
0010
0001
0001
0100
0100
,
0010
0010
1000
1000
0001
0001
0010
0010
,
0001
0001
0100
0100
0010
0010
1000
1000
,
0100
0100
0010
0010
0001
0001
0001
0001
,
1000
1000
1000
1000
0101
0010
1000
0100
,
0010
0001
0010
0100
1000
0010
0100
0001
,
0010
0100
1000
0100
0011
0100
1000
0010
,
0100
0001
0100
0010
1000
0010
0100
0001
,
0010
0100
1000
0100
0011
0100
1000
0010
,
0101
0010
1000
0100
0011
0100
1000
0010
,
0101
0000
0010
0000
1000
0000
0100
0000
0010
0001
0010
0100
1000
0100
0010
0001
,
1000
0100
0010
0001
0010
0100
1000
0100
0010
0001
1000
0100
0010
0001
0010
0100
,
1000
0100
0010
0001
1000
0100
0010
0001
2000
0000
0000
0000
0010
0000
0010
0000
,
0010
0000
0100
0100
0100
0000
0001
0001
,
0001
0000
0010
0010
0010
0000
0100
0100
,
0100
0000
0001
0001
0001
0000
0010
0010
,
0010
0000
0100
0100
3100
1000
0010
0001
,
0010
0000
0100
0000
0001
0100
1000
0100
0010
0000
1000
0000
0010
0000
0001
0000
,
0010
0100
0001
0100
0010
1000
0100
0001
,
0100
0000
0010
0000
0001
0010
1000
0010
0100
0000
1000
0000
0010
0000
0001
0000
,
0010
0100
0001
0100
0010
1000
0010
0001
,
0010
0000
0100
0000
0001
0100
1000
0100
0010
0000
1000
0000
0010
0000
0100
0000
,
0001
1000
0100
0010
0001
1000
0100
1000
,
0001
0000
0010
0000
1000
0010
0001
0010
0100
0000
1000
0000
0010
0000
1000
0000
,
0001
0100
0010
0100
0001
0010
0001
0100
,
0001
0000
1000
0000
0001
0100
1000
0100
0001
0000
1000
0000
0100
0000
1000
0000
,
0010
1000
0001
1000
0010
0100
0001
0100
,
1000
0000
0100
0000
0010
1000
0010
0001
0010
0000
0100
0000
0001
0000
0100
0000
,
1000
0100
0010
0100
0001
0010
0001
1000
,
0100
0000
1000
0000
0001
0010
1000
0010
0001
0000
0001
0000
1000
0000
1000
0000
,
0010
0010
0100
0100
0001
0100
1000
0100
,
0001
0000
0000
0000
0000
0000
0000
0000
0010
0000
0000
0000
0000
0000
0000
0000
1000
0000
0000
0000
0010
0000
0000
0000
0001
0000
0000
0000
0010
0000
0000
0000
0100
0000
0000
0000
0000
0000
0000
0000
0000
0000
0000
0000
0000
0000
0000
0000
0200
0300
0000
0000
2000
3000
0000
0000
0020
0030
0000
0000
0200
0300
0000
0000
,
0002
0003
0000
0000
0020
0030
0000
0000
0200
0300
0000
0000
2000
3000
0000
0000
0002
0003
0000
0000
0200
0300
0000
0000
0020
0030
0000
0000
2000
3000
0000
0000
0002
0000
0000
0000
0000
0000
0000
0000
0000
0000
0000
0000
0000
0000
0000
0000
0200
0000
0300
0000
0000
0000
0000
0000
0000
0000
0000
0000
0000
0000
0000
0000
,
0203
0000
0000
0000
0000
0000
0000
0000
2000
3000
0000
0000
0000
0000
0000
0000
0320
0000
0000
0000
0000
0000
0000
0000
0002
0003
0000
0000
0000
0000
0000
0000
,
2030
0000
0000
0000
0000
0000
0000
0000
0020
0030
0000
0000
0000
0000
0000
0000
3200
0000
0000
0000
0000
0000
0000
0000
0002
0003
0000
0000
0000
0000
0000
0000
,
0320
0000
0000
0000
0000
0000
0000
0000
2000
3000
0000
0000
0000
0000
0000
0000
0032
0000
0000
0000
0000
0000
0000
0000
0200
0300
0000
0000
0000
0000
0000
0000
,
2000
0000
0000
0000
0000
0000
0000
0000
0000
0000
0000
0000
0000
0000
0000
0000
0000
0000
0000
0000
0000
0000
0000
0000
0000
0000
0000
0000
0000
0000
0000
0000
0000
0000
0000
0000
0000
0000
0000
0000
0000
0000
0000
0000
0000
0000
0000
0000
0000
0000
0000
0000
0000
0000
0000
0000
0000
0000
0000
0000
0000
0000
0000
0000
0000
0000
0000
0000
0000
0000
0000
0000
0000
0000
0000
0000
0000
0000
0000
0000
0000
0000
0000
0000
0000
0000
0000
0000
0000
0000
0000
0000
0000
0000
0000
0000
0020
3033
0000
0000
0000
0000
0000
0000
0000
0000
0000
0000
0000
0000
0000
0000
0000
0000
0000
0000
0000
0000
0000
0000
0000
0000
0000
0000
0000
0000
0000
0000
0000
0000
0000
0000
0000
0000
0000
0000
0000
0000
0000
0000
0000
0000
0000
0000
0000
0000
0000
0000
0000
0000
0000
0000
0000
0000
0000
0000
0000
0000
0000
0000
0000
0000
0000
0000
0000
0000
0000
0000
0000
0000
0000
0000
0000
0000
0000
0000
0000
0000
0000
0000
0000
0000
0000
0000
0000
0000
0000
0000
0000
0000
0000
0000
;
