#TITLE:Masodik Galamb;
#SUBTITLE:;
#ARTIST:Venetian Snares;
#TITLETRANSLIT:;
#SUBTITLETRANSLIT:;
#ARTISTTRANSLIT:;
#CRChallenge:;
#BANNER:galamb-banner.avi;
#BACKGROUND:galamb-bg.png;
#LYRICSPATH:;
#CDTITLE:!cdtitle.png;
#MUSIC:galamb.ogg;
#OFFSET:0.000;
#SAMPLESTART:35.000;
#SAMPLELENGTH:11.580;
#SELECTABLE:YES;
#BPMS:0.000=168.000;
#STOPS:193.000=0.714
;
#BGCHANGES:;
#NOTES:
     dance-single:
     Renard:
     Hard:
     11:
     0.799,0.926,1.000,0.089,0.755:
0000
0000
0000
0000
,
0000
0000
0000
0000
,
0000
0000
0000
0000
,
0000
0000
0000
0000
,
0000
0000
0000
0000
,
0000
0000
0000
0000
,
0000
0000
0000
0000
,
0000
0000
0000
0000
,
0000
0000
0000
0000
,
0000
0000
0000
0000
,
0000
0000
0000
0000
0000
0000
0000
0000
1000
0001
1000
0000
0000
0000
0001
0100
,
0001
1000
0001
0000
0000
0000
1000
0000
0000
1000
0000
1000
0001
0100
0001
0000
,
1000
0100
1000
0010
1000
0000
0000
0000
0001
0100
0001
0000
0000
0000
1000
0010
,
1000
0000
0001
0100
0001
0000
1000
0000
0100
0000
0000
0000
0020
0000
0000
0000
,
0031
0000
0010
0100
1000
0000
0001
0000
0100
0000
0010
0000
1000
0010
1000
0000
,
0001
0010
0001
0000
1000
0000
0100
0000
0010
0000
0001
1000
0001
0010
0001
0000
,
0100
0001
1000
0100
0010
0000
0001
1000
0001
0000
0100
0000
0010
1000
0010
0000
,
0100
0000
0010
1000
0010
1000
0001
0100
0002
0000
0000
0000
0000
0000
0203
0000
,
0000
0000
0000
0000
,
0320
0000
0000
0000
2030
0000
0000
3200
,
0000
0000
0000
0000
,
0320
0000
0000
0032
0000
0000
0000
0000
,
0000
0000
2003
0000
,
0000
3000
0000
0000
,
0000
0000
0000
0000
0000
0000
0000
0000
0001
0000
0001
0000
0100
0000
0010
1000
,
0010
1000
0010
1000
0001
0000
0100
0000
0001
0000
1001
0000
0100
0000
0100
0000
,
0100
0000
0100
0000
1001
0000
0010
0000
1000
0000
0110
0000
0001
0000
0100
0010
,
1000
0001
1000
0000
0001
0000
0100
0000
0001
0000
0100
0000
0000
1001
0000
0000
,
0110
0000
0110
0000
1001
0000
0110
0000
0000
0000
0010
0000
0010
0000
1000
0001
,
0100
0001
0010
0000
0011
0000
0000
1100
0000
0000
0010
0000
0101
0000
0000
0000
,
0010
1000
0010
1000
0001
0000
1000
0100
1000
0100
0010
0000
0001
0100
0001
0100
,
0001
0100
0001
0000
0000
1010
0000
0000
0101
0000
0010
0000
1000
0000
0100
0000
,
0010
0001
1000
0100
0010
0000
0010
0000
0001
0000
0100
0000
0010
0000
0000
1010
,
0000
0000
0101
0000
0010
0000
0000
0101
0000
0000
1001
0000
0000
0110
0000
0000
,
1010
0000
0000
0101
0000
0000
0110
0000
0000
1001
0000
0000
1011
0000
0000
0000
,
0101
0000
0000
0000
1010
0000
0000
0010
1000
0000
0101
0000
0000
0001
0010
0001
,
1000
0000
0000
0000
0100
1000
0100
0000
0011
0000
0000
0000
1100
0000
0000
0000
,
1001
0000
0010
0100
0010
0000
1001
0000
0000
0001
1000
0001
1000
0001
1000
0001
,
0000
0001
1000
0000
0000
0001
0000
0000
0110
0000
0000
0000
1010
0000
0000
0000
,
0100
0000
0011
0000
0000
0000
0100
0010
0100
0010
0100
0010
0100
0000
1010
0000
,
0100
0000
0010
0000
1001
0000
0000
0000
0101
0000
0010
1000
0010
0000
0101
0000
,
0000
0000
1000
0000
0001
0000
1100
0000
0000
0011
0000
0000
1001
0000
0000
0000
,
1011
0000
0000
0000
0101
0000
0010
0000
1000
0000
0110
0000
0000
0000
0001
1000
,
0001
0000
0100
0001
0100
0001
0100
0000
1001
0000
0000
0000
0110
0000
0000
0000
,
1010
0000
0000
0000
0100
0000
1001
0000
0000
0000
0100
0001
0100
0001
0010
0000
,
0001
1000
0100
0000
0000
0011
0000
0000
1100
0000
0000
0000
1001
0000
0001
0100
,
0001
0000
1000
0000
0100
1000
0100
1000
0100
1000
0100
1000
0100
0000
0011
0000
,
1000
0100
0010
0000
0011
0000
0000
0000
1100
0000
0000
0001
0010
0100
1000
0000
,
0000
1000
0100
0010
0001
0000
000M
0000
1111
0000
0000
0000
0000
0000
0000
0000
,
0000
0000
0000
0000
1100
0000
0010
0000
0101
0000
0010
0000
1000
0010
0100
0001
,
0010
0001
1000
0000
1100
0000
0000
0011
0000
0000
1000
0100
0010
0001
0010
0100
,
1000
0100
0010
0001
1000
0000
0001
0000
0100
0000
0001
1000
0100
0010
0001
0000
,
1100
0000
0000
0011
0000
0000
0000
0000
1001
0000
0000
0000
0001
0100
0001
1000
,
0001
0000
0000
0010
0000
0000
0100
0000
0000
1000
0000
0000
0001
0000
0000
0000
0010
0000
0000
0000
0100
0000
0000
0000
1000
0000
0000
0100
0000
0000
0000
0000
0000
0000
0000
0000
0011
0000
0000
0000
0000
0000
0000
0000
0000
0011
0000
0000
,
0000
0000
1100
0000
0000
1100
0000
0000
1000
0000
0100
0000
0001
0000
0101
0000
,
0001
0100
1000
0010
1000
0010
0100
0000
1001
0000
0000
0100
0010
1000
0001
0000
,
1000
0100
0010
0000
0000
0011
0000
0000
1000
0100
0010
0001
1000
0000
0000
0001
,
0000
0000
1011
0000
0000
0000
0000
1011
0000
0000
0000
0000
1000
0100
0010
0001
,
1000
0000
0000
1100
0000
0000
1000
0000
0000
1100
0000
0000
0001
0000
0100
0000
,
0101
0000
0000
0110
0000
0000
1010
0000
0000
1100
0000
0000
0110
0000
0000
0011
,
0000
0000
1000
0100
0010
0001
0000
1000
0100
0010
0001
0000
1000
0100
1000
0001
,
0100
0001
1000
0100
0010
0001
0010
0100
0000
0000
1100
0000
0000
0011
0000
0000
,
1000
0100
1000
0010
1000
0001
0100
0001
0010
0000
0000
0011
0000
0000
0001
0000
,
0000
0101
0000
0000
0100
0000
0000
0110
0000
0000
0010
0000
0000
1010
0000
0000
,
1000
0000
0000
1100
0000
0000
0100
0000
0000
0110
0000
0000
0010
0000
0000
0011
,
0000
0000
0001
0000
0000
1001
0000
0000
0101
0000
0000
0110
0000
0000
1010
0000
,
0000
1100
0000
0000
0110
0000
0000
0011
0000
0000
1001
0000
0000
0110
0000
0000
,
1010
0000
0000
1100
0000
0000
0110
0000
0000
1001
0000
0000
0110
0000
0000
1001
,
0000
0000
0110
0000
0000
0011
0000
0000
1001
0000
0000
0101
0000
0000
1010
0000
,
0000
1001
0000
0000
0000
0000
0000
0000
0000
0000
0000
0000
0000
0000
0000
0000
;
#NOTES:
     dance-single:
     WinDEU:
     Medium:
     9:
     0.650,0.790,0.576,0.427,0.581:
0000
0000
0000
0000
,
0000
0000
0000
0000
,
0000
0000
0000
0000
,
0000
0000
0000
0000
,
0000
0000
0000
0000
,
0000
0000
0000
0000
,
0000
0000
0000
0000
,
0000
0000
0000
0000
,
0000
0000
0000
0000
,
0000
0000
0000
0000
,
0000
0000
0000
0000
0000
0000
0000
0000
1000
0000
0100
0000
0000
0000
1000
0001
,
1000
0000
0010
0000
0000
0000
0100
0000
0000
0001
0000
0000
0010
0000
0000
0000
,
0100
1000
0100
1000
0100
0000
0000
0000
0010
0000
0001
0000
0000
0000
0100
0000
,
0010
0000
1000
0010
0000
1000
0010
0000
0100
0000
0000
0000
0002
0000
0000
0000
,
0023
0000
0130
1000
0001
0100
0010
1000
,
0010
0100
0001
1000
0001
0100
0010
1000
,
0001
0010
0100
1000
0100
0010
0001
0100
,
0010
1000
0100
0010
0002
0000
0000
0000
,
0000
0000
0000
0000
,
0203
0000
0000
0000
0320
0000
0000
2030
,
0000
0000
0000
0000
,
3200
0000
0000
0320
0000
0000
0000
0000
,
0000
0000
0032
0000
,
0000
0000
0000
0000
,
0000
0000
0003
0000
1001
1001
0100
0010
,
1000
0100
0010
0001
1000
0010
0200
0001
,
0001
0301
0101
0000
0000
1010
0000
0000
,
2200
0000
0000
3300
,
0100
0000
0100
0000
0100
0000
0100
0000
1000
0001
1000
0000
0010
0000
0000
0010
,
0000
0100
0001
0000
0101
0000
0000
1001
0000
0000
1000
0000
1100
0000
0000
0000
,
0100
0000
0010
0000
0001
0000
1000
0001
1000
0001
1000
0001
0000
1000
0000
0001
,
0000
1000
0002
0000
0000
0203
0000
0000
0310
0000
1000
0000
0100
0000
0010
0000
,
0001
0010
0001
0010
0001
0000
1000
0001
1000
0001
1000
0000
0010
0000
0000
0010
,
0000
0000
0100
0000
0101
0000
0000
0101
0000
0000
0101
0000
0000
1001
0000
0000
,
1100
0000
0000
0110
0000
0000
0011
0000
0000
0201
0000
0000
0310
0000
0000
0000
,
1000
0000
0010
0100
0001
0010
0000
0100
,
2000
0000
3001
0011
,
0010
0000
0100
0000
1000
0000
0010
0000
0000
0100
0000
0001
0000
1000
0000
0100
,
0000
0100
0010
0000
0000
0001
0000
0000
0011
0000
0000
0000
0010
0000
0100
0000
,
1000
0000
0010
0000
0100
0001
0000
1000
0000
0100
0000
0010
0000
0001
1000
0000
,
0000
0000
1010
0000
0010
0100
0001
0010
,
0000
0000
0000
0000
0000
0000
1001
0000
0000
0101
0000
0000
0011
0000
0000
0000
,
1100
0000
1000
0010
0100
0001
0010
0100
,
2000
0100
3001
0101
,
0001
0000
1000
0100
1000
0000
0010
0000
0000
0100
0000
0001
0000
0010
0100
0000
,
0000
0000
1000
0000
0000
0010
0000
0000
0101
0000
0000
0000
0001
0000
0010
0000
,
0100
0000
1000
0000
0000
0010
0000
0100
0000
0001
0000
0100
0000
0010
1000
0000
,
0000
0100
0000
0010
0001
0000
0000
0000
1000
0000
0000
1000
0001
1000
0010
0000
,
0000
0100
0000
0001
1000
0000
0000
0000
2002
0000
0000
0000
0000
0000
0000
0000
,
3003
0000
1000
0010
0100
0010
2000
0000
,
3000
0000
0000
0000
0011
0000
0000
0011
0000
0000
0001
1000
0001
1000
0001
1000
,
0001
1000
0100
1000
0100
0000
1000
0000
0001
0000
0100
0000
0001
0100
0001
0100
,
0001
0000
0000
2000
0000
0000
0000
0000
3200
0000
0000
0000
0000
0000
0000
0000
,
0000
0000
0000
0000
0000
0000
0000
0000
0000
0000
0000
0000
0310
0000
0000
0000
0001
0000
0000
0000
1000
0000
0000
0000
0010
0000
0000
0100
0000
0000
0000
0000
0000
0000
0000
0000
0110
0000
0000
0000
0000
0000
0000
0000
0000
0101
0000
0000
,
0000
0000
1001
0000
0000
1100
0000
0000
0100
0000
0010
0000
0001
0000
1000
0000
,
0010
1000
0010
1000
0010
1000
0010
0000
0100
0000
0000
0001
0100
0001
0100
0000
,
0001
1000
0001
0000
0000
1000
0000
0000
0100
1000
0100
1000
0100
0000
0000
0010
,
0000
0000
0011
0000
0000
0001
0010
0100
0000
0000
1000
0100
1000
0100
1000
0100
,
1000
0000
0000
0010
0000
0000
0100
0000
0000
0001
0000
0000
0100
0000
0010
0000
,
1010
0000
0000
1001
0000
0000
0011
0000
0000
0110
0000
0000
1100
0000
0000
1001
,
0000
0000
0001
0100
0001
0100
0000
0001
1000
0002
0000
0000
1003
0100
1000
0100
,
0010
0100
0010
0001
0010
0001
0010
0001
0000
0000
0101
0000
0000
2000
0000
0000
,
0000
0000
0000
0000
3000
0000
0000
0000
2100
0000
0000
3001
0000
0000
0012
0000
,
0000
0103
0000
0000
0120
0000
0000
1030
0000
0000
1200
0000
0000
0310
0000
0000
,
0012
0000
0000
0103
0000
0000
2010
0000
0000
3100
0000
0000
0012
0000
0000
1003
,
0000
0000
1020
0000
0000
0130
0000
0000
0102
0000
0000
0013
0000
0000
0210
0000
,
0000
1300
0000
0000
1020
0000
0000
0130
0000
0000
0102
0000
0000
1003
0000
0000
,
1200
0000
0000
0310
0000
0000
0012
0000
0000
1003
0000
0000
1020
0000
0000
0130
,
0000
0000
0102
0000
0000
0013
0000
0000
0210
0000
0000
1300
0000
0000
2010
0000
,
0000
0002
0000
3003
0000
0000
0000
0000
0000
0000
0000
0000
0000
0000
0000
0000
;
#NOTES:
     dance-single:
     WinDEU:
     Easy:
     6:
     0.389,0.549,0.089,0.417,0.219:
0000
0000
0000
0000
,
0000
0000
0000
0000
,
0000
0000
0000
0000
,
0000
0000
0000
0000
,
0000
0000
0000
0000
,
0000
0000
0000
0000
,
0000
0000
0000
0000
,
0000
0000
0000
0000
,
0000
0000
0000
0000
,
0000
0000
0000
0000
,
0000
0000
0000
0000
1000
0100
0000
1000
,
0001
0000
1000
0000
0000
0000
0001
0000
0000
0100
0000
0000
0010
0000
0000
0000
,
1000
0001
1000
0000
0100
0010
0000
0001
,
0010
0100
1000
0100
1000
0000
0002
0000
,
0103
0010
1000
0100
,
0010
0000
0001
1000
0001
1000
0001
0000
,
0100
0010
1000
0001
,
0010
0000
0100
0000
2000
0000
0000
3020
,
0000
0000
0000
0000
,
0230
0000
0000
0000
0302
0000
0000
0023
,
0000
0000
0000
0000
,
0230
0000
0000
2300
0000
0000
0000
0000
,
0000
0000
3020
0000
,
0000
0000
0000
0000
,
0000
0000
0030
0000
0100
0100
0001
0000
,
0010
0100
1000
0000
0010
0000
0100
0001
,
0100
0001
0100
0000
0000
0010
0000
0000
,
2000
0000
0000
3000
,
0100
1000
0100
1000
0000
0001
0100
0000
,
0000
0000
0000
0000
0010
0000
0000
0010
0000
0000
0000
0000
1000
0000
0000
0000
,
0100
0000
0010
0001
0010
0000
0000
0000
,
0000
0000
0100
0000
0000
1000
0000
0000
0001
0000
0100
0000
0001
0000
1000
0000
,
0001
0000
0100
0000
0001
0000
0000
0000
1000
0000
0000
0000
0100
0000
0000
0100
,
0000
0000
1000
0000
0010
0000
0000
0010
0000
0000
0010
0000
0000
0100
0000
0000
,
0001
0000
0000
1000
0000
0000
0100
0000
0000
0010
0000
0000
0001
0000
0000
0000
,
2000
0000
3010
0000
0100
0001
0000
0010
,
0200
0000
1300
1100
,
1100
0000
0000
1001
0000
0000
0000
0000
,
0000
0000
0001
0000
0000
0100
0000
0000
0010
0000
0000
0000
2000
0000
0000
0000
,
0000
3100
0000
0000
0000
0000
0000
0022
,
0000
0033
0011
0000
0002
0000
0000
0103
,
0000
0000
0000
0000
0000
0000
0010
0000
0000
0010
0000
0000
1000
0000
0000
0000
,
1010
0000
0001
0000
0000
0010
0000
0000
,
0200
0000
1300
0010
,
0100
0000
0000
0010
0000
0000
0000
1000
,
0000
0000
0100
0000
0000
1000
0000
0000
0001
0000
0000
0000
0200
0000
0000
0000
,
0000
0000
0000
0000
,
0300
0000
1001
0000
0001
0000
0000
1000
,
0000
1100
0022
0000
,
0033
0000
0001
0100
0001
1000
0200
0000
,
0320
0000
0000
0000
0031
0000
0000
0001
0000
0000
0002
0000
0000
0000
0000
0000
,
0003
0100
0000
0000
0010
0000
1000
0000
0010
0000
0100
0000
0001
0000
1000
0000
,
0001
0000
0000
2000
0000
0000
0000
0000
0000
0000
0000
0000
0000
0000
0000
0000
,
0000
0000
0000
0000
0000
0000
0000
0000
0000
0000
0000
0000
3001
0000
0000
0000
1000
0000
0000
0000
0001
0000
0000
0000
1000
0000
0000
0000
0000
0000
0000
0000
0000
0000
0000
0000
0100
0000
0000
0000
0000
0000
0000
0000
0000
0100
0000
0000
,
0000
0000
0100
0000
0000
0100
0000
0000
0100
0000
1000
0000
0100
0000
0010
0000
,
0001
1000
0001
0100
0001
0000
0000
0000
,
0000
0000
0000
0000
0000
0000
0000
0000
0000
0000
0000
0000
1000
0000
0000
0100
,
0000
0000
1000
0000
0000
0000
0000
0001
0000
0000
0000
0000
0000
0000
0000
0000
,
0100
0000
0000
0010
0000
0000
1000
0000
0000
0010
0000
0000
0100
0000
0000
0000
,
0001
0000
0000
0001
0000
0000
0001
0000
0000
0001
0000
0000
0001
0000
0000
0001
,
0000
1000
0000
0000
0000
0000
0000
0000
,
0000
0000
0000
0000
0100
0000
0000
1000
0000
0000
1000
0000
0000
0000
0000
0000
,
0000
0000
0000
0000
0000
0000
0000
0000
0200
0000
0000
1300
0000
0000
0020
0000
,
0000
0130
0000
0000
0002
0000
0000
0013
0000
0000
0200
0000
0000
0310
0000
0000
,
0002
0000
0000
1003
0000
0000
0020
0000
0000
1030
0000
0000
0200
0000
0000
1300
,
0000
0000
0020
0000
0000
0130
0000
0000
0002
0000
0000
0013
0000
0000
0200
0000
,
0000
0310
0000
0000
0002
0000
0000
0103
0000
0000
0020
0000
0000
1030
0000
0000
,
0020
0000
0000
0130
0000
0000
0002
0000
0000
0013
0000
0000
0200
0000
0000
0310
,
0000
0000
0002
0000
0000
1003
0000
0000
0200
0000
0000
1300
0000
0000
0020
0000
,
0000
0130
0000
0000
0000
0000
0000
0000
0000
0000
0000
0000
0000
0000
0000
0000
;
#NOTES:
     dance-single:
     WinDEU:
     Beginner:
     3:
     0.264,0.412,0.109,0.189,0.114:
0000
0000
0000
0000
,
0000
0000
0000
0000
,
0000
0000
0000
0000
,
0000
0000
0000
0000
,
0000
0000
0000
0000
,
0000
0000
0000
0000
,
0000
0000
0000
0000
,
0000
0000
0000
0000
,
0000
0000
0000
0000
,
0000
0000
0000
0000
,
0000
0000
1000
0000
,
0100
0000
0000
0010
,
0001
0000
0100
0000
0000
0010
0000
0000
,
1000
0000
0100
0100
0000
0000
0000
0000
,
0010
0001
0100
0010
,
1000
0010
0100
0001
,
1000
0100
0010
0001
,
1000
0010
0200
0000
,
0000
0000
0000
0000
,
0302
0000
0000
0000
0023
0000
0000
0230
,
0000
0000
0000
0000
,
2300
0000
0000
0000
,
0000
0000
3020
0000
,
0000
0000
0000
0000
,
0000
0030
1001
0001
,
0100
0000
0010
0000
1000
0000
0100
1000
,
0100
1000
0100
0000
0000
0000
0000
0000
,
2002
0000
3003
0000
,
0001
0100
0001
0100
0000
0000
0000
0000
,
0000
0010
0000
1000
,
0100
0010
0001
1000
,
0000
0000
0000
0000
0000
0100
0000
0000
0100
0000
0000
0000
0000
0000
0100
0000
,
0000
0000
0000
0000
0000
0000
0000
0000
0000
0000
0000
0000
0100
0000
0000
0100
,
0000
0000
0100
0000
0000
0100
0000
0000
,
0100
0000
0000
0100
0000
0000
0100
0000
,
1000
0010
0100
0001
,
0022
0033
0110
1100
,
1000
0100
0010
0001
,
0000
0000
1000
0001
,
0000
0001
0000
0000
0000
0000
0000
0100
,
0000
0000
1001
0000
1000
0000
0000
1000
,
0000
0000
0000
0010
0000
0000
0010
0000
,
0010
0100
0001
0010
,
0200
0000
1300
1100
,
1000
0010
0100
0010
,
1000
0000
0101
2002
,
0000
0000
0000
0000
,
3003
0000
1001
0000
0001
0000
0000
0100
,
0000
0010
1010
0000
,
0000
0000
0001
1000
0001
1000
0001
0000
,
0010
0000
0200
0000
0000
0300
0000
0000
,
0000
0000
0000
0000
,
2000
3000
0000
0000
0000
0000
0000
0000
,
0000
0000
0002
0000
0003
0000
0200
0300
,
0000
0000
0000
0000
0010
1000
0010
1000
,
0000
0000
0000
0000
0200
0300
0000
0000
,
0000
0000
0000
0000
,
0000
0000
0001
0000
0000
0000
0000
0001
0000
0000
0000
0000
0000
0000
0000
0000
,
0000
0000
0000
0000
,
0200
0000
0000
0000
,
0300
0000
0000
0000
,
0000
0000
0000
0000
0000
0000
0000
1000
0000
0000
1000
0000
0000
0010
0000
0000
,
0000
0000
0000
0000
0000
0000
0000
0000
1000
0000
0000
0001
0000
0000
1000
0000
,
0000
0001
0000
0000
1000
0000
0000
0001
0000
0000
1000
0000
0000
0001
0000
0000
,
1000
0000
0000
0001
0000
0000
1000
0000
0000
0001
0000
0000
1000
0000
0000
0001
,
0000
0000
1000
0000
0000
0001
0000
0000
1000
0000
0000
0001
0000
0000
1000
0000
,
0000
0001
0000
0000
1000
0000
0000
0001
0000
0000
1000
0000
0000
0001
0000
0000
,
1000
0000
0000
0001
0000
0000
1000
0000
0000
0001
0000
0000
1000
0000
0000
0001
,
0000
0000
1000
0000
0000
0001
0000
0000
1000
0000
0000
0001
0000
0000
1000
0000
,
0000
0001
0000
0000
0000
0000
0000
0000
0000
0000
0000
0000
0000
0000
0000
0000
;
