#TITLE:Masochist;
#SUBTITLE:;
#ARTIST:Pendulum;
#TITLETRANSLIT:;
#SUBTITLETRANSLIT:;
#ARTISTTRANSLIT:;
#CRChallenge:;
#BANNER:masochist.jpg;
#BACKGROUND:masochist-bg.jpg;
#LYRICSPATH:;
#CDTITLE:;
#MUSIC:masochist.ogg;
#OFFSET:0.000;
#SAMPLESTART:75.381;
#SAMPLELENGTH:12.000;
#SELECTABLE:YES;
#BPMS:0.000=175.000;
#STOPS:;
#BGCHANGES:;
#NOTES:
     dance-single:
     Renard:
     Medium:
     9:
     0.589,0.653,0.509,0.331,0.348:
0000
0000
0000
0000
,
0000
0000
0000
0000
,
0000
0000
0000
0000
,
0000
0000
0000
0000
,
1000
0000
0000
0000
0000
0001
0000
0000
0001
0100
0000
0010
,
1000
0000
0000
0000
0000
1001
0000
0000
0000
0000
0000
0000
,
1000
0000
0000
1000
0000
0100
0000
0000
0010
0001
0000
1000
,
0010
0000
0000
0000
0000
0220
0000
0000
0000
0000
0000
0000
,
M002
M000
M000
M000
M000
M000
M000
M000
,
M000
M000
M000
M000
M000
M000
M000
M000
,
M000
M000
M000
M000
M000
M000
M000
M000
,
M000
M000
M000
M000
M000
M000
M000
M000
,
M000
M000
M000
M000
M003
0000
0330
0000
,
M01M
M01M
M01M
M01M
M01M
M01M
M01M
M01M
,
M10M
0000
M10M
0000
M10M
0000
M10M
0000
M10M
0000
0001
0000
1000
0001
1000
0000
,
0001
0000
0000
0000
0110
0000
0000
0010
1000
0000
0000
0000
1100
0000
0000
0000
,
0110
0000
0000
0000
0011
0000
0000
0001
0010
0000
0000
0000
0110
0000
0000
0000
,
0100
0000
1000
0000
0010
0000
0000
0100
0000
0000
0001
0000
0000
1000
0000
0000
,
0100
0000
0010
0000
0001
0000
0000
0010
0000
0000
0100
0000
1000
0000
1000
0000
,
0001
0000
0000
0000
0110
0000
0000
0010
1000
0000
0000
0000
1100
0000
0000
0000
,
0110
0000
0000
0000
0011
0000
0000
0010
0100
0000
0000
0000
1001
0000
0000
0000
,
0001
0000
0100
0000
0010
0000
0000
1000
0000
0000
0100
0000
0000
0010
0000
0000
,
0001
0000
0010
0000
0100
0000
1000
0000
0001
0000
0100
0000
0010
0100
0010
0000
,
0110
0000
0000
0000
1001
0000
0000
0010
0100
0000
0000
0000
1001
0000
0000
0000
,
0110
0000
0000
0000
1001
0000
0000
0010
0100
0000
0000
0000
1001
0000
0000
0000
,
0001
0000
1000
0000
0100
0000
0000
0010
0000
0000
0011
0000
0000
0010
0000
0000
,
0100
0000
1000
0000
0001
0000
0000
0100
0000
0000
0110
0000
0000
0000
0010
0000
,
1000
0000
0000
0000
0110
0000
0000
0010
0001
0000
0000
0000
0110
0000
0000
0100
,
1000
0000
0000
0000
0110
0000
0000
0001
0010
0000
0000
0000
0110
0000
0000
0100
,
1000
0000
0100
0000
0010
0000
0000
0001
0000
0000
0011
0000
0000
0001
0000
0000
,
0010
0000
0100
0000
1000
0000
0001
0000
0100
0000
0010
1000
0010
0000
0000
0000
,
1000
0010
0002
0000
0013
2000
0000
3100
,
0002
0000
0103
0010
0000
0001
0020
0000
,
0130
1000
0020
0100
0000
0230
0000
0000
,
0301
0010
0200
1000
0000
2300
0000
0000
,
3100
0001
0200
0000
0010
0000
0310
0001
,
0010
2000
0000
3002
0000
0100
0203
0000
,
1000
0000
2300
0000
0010
0000
3010
0001
,
0010
2000
0000
3002
0000
1000
2003
0000
,
0100
0000
3200
0001
0000
0302
1000
0000
,
2003
0001
0000
3001
0000
0100
2000
0000
,
3020
0000
0032
1000
0000
2003
0001
0000
,
3001
0000
0020
1000
0000
2030
0100
0000
,
3200
0000
0302
0100
0000
0000
0103
1000
,
0010
0001
0010
0100
0000
0001
0020
0000
,
0130
1000
0100
0001
0100
1000
0010
0001
,
0010
0100
0001
0100
0010
1000
0100
0000
,
0000
0000
0000
0000
,
0000
0000
0000
0000
,
2M02
0000
00M0
0000
0M00
0000
00M0
0000
0M00
0000
00M0
0000
0M00
00M0
0M00
00M0
,
0M00
0000
0000
0000
0000
0000
0000
0000
0000
0000
0000
0000
00M0
0000
0000
0000
0000
0000
0000
0000
0000
0000
0000
0000
0M00
0000
0000
0000
0000
0000
0000
0000
00M0
0000
0000
0000
0000
0000
0000
0000
0M00
0000
0000
0000
0000
0000
0000
0000
00M0
0000
0000
0000
0000
0000
0000
0000
0M00
0000
0000
0000
0000
0000
0000
0000
00M0
0000
0000
0000
0000
0000
0000
0000
0M00
0000
0000
0000
0000
0000
00M0
0000
0000
0000
0000
0000
0M00
0000
0000
0000
0000
0000
00M0
0000
0000
0000
0000
0000
0M00
0000
0000
0000
00M0
0000
0000
0000
0M00
0000
0000
0000
00M0
0000
0000
0000
0M00
0000
0000
0000
0000
00M0
0000
0000
3M03
0000
0000
00M0
0000
0000
0000
0000
0000
0000
0000
0000
0000
0000
0000
0000
0000
0000
0000
0000
0000
0000
0000
0000
1000
0000
0000
0000
0000
0000
0000
0000
0000
0000
0000
0000
0000
0000
0000
0000
0100
0000
0000
0000
0000
0000
0000
0000
0000
0000
0000
0000
0000
0000
0000
0000
0010
0000
0000
0000
0000
0000
0000
0000
0000
0000
0000
0000
0000
0000
0000
0000
,
0001
0000
0000
M000
0000
0000
0001
0000
0010
0000
0100
0000
1000
0000
0000
000M
0000
0000
1000
0000
0010
0000
0100
0000
,
0001
0000
0000
M000
0000
0000
0001
0000
0100
0000
0010
0000
1000
0000
0000
000M
0000
0000
1000
0000
0010
0000
0100
0000
,
0001
0000
0000
M000
0000
0000
0001
0000
0010
0000
0100
0000
1000
0000
0000
000M
0000
0000
1000
0000
0100
0000
0010
0000
,
0001
0000
0000
M000
0000
0000
0001
0000
0010
0000
0100
0000
1000
0000
0000
000M
0000
0000
0011
0000
0000
0000
0000
0000
,
1000
0000
0000
0000
0101
0000
0000
0011
0000
0000
1001
0000
0000
0101
0000
0000
,
0001
0000
0000
0000
1100
0000
0000
1010
0000
0000
1001
0000
0000
1100
0000
0000
,
1000
0100
0010
0000
0010
0001
0000
0001
,
0010
0000
0100
1000
0000
0010
0100
0000
,
0101
0000
0000
0000
0011
0000
0000
0001
0000
0000
0010
0000
0000
0100
0000
0000
,
1100
0000
0000
0000
1010
0000
0000
0100
0000
0000
0001
0000
0000
0010
0000
0000
,
0001
0000
0100
0000
0010
0000
0000
0000
1000
0000
0100
0000
0000
0010
0000
0000
,
0001
0000
0000
0000
1000
0000
0010
0000
0000
0000
0100
0000
0001
1000
0001
0000
,
1000
0000
0000
0000
0110
0000
0000
0110
0000
0000
1001
0000
0000
0110
0000
0000
,
0001
0000
0000
0000
0110
0000
0000
0110
0000
0000
1001
0000
0000
0110
0000
0000
,
0010
1000
0100
0010
0001
0010
1000
0010
,
0100
0001
0100
1000
0010
0200
0002
0000
,
1010
0303
0000
0000
0001
0000
0000
0010
0000
0000
0200
0000
0000
2000
0000
0000
,
0011
3300
0000
0000
1000
0000
0000
0100
0000
0000
0010
0000
0000
0001
0000
0000
,
1010
0000
0000
0000
0101
0000
0000
0001
0010
0000
0100
0000
0000
0000
0000
0000
,
1100
0000
0100
0010
0001
1000
0001
0000
,
0101
0000
1001
0000
1000
0100
0000
0100
,
0010
0000
0010
0001
0000
1000
0010
0100
,
0001
0010
1000
0000
1010
0000
0011
0000
,
0010
0100
1000
0000
0101
0000
1100
0000
,
1000
0010
0100
0000
0100
0001
0100
1000
,
0100
0010
0001
0010
0000
0010
1000
0000
,
1100
0000
0101
0000
0100
0010
0001
0010
,
1000
0000
0010
0100
1000
0020
0200
0000
,
0000
0000
0000
0000
,
0000
0000
0000
0000
,
0330
0000
0000
0000
;
#NOTES:
     dance-single:
     Renard:
     Easy:
     6:
     0.331,0.401,0.195,0.085,0.000:
0000
0000
0000
0000
,
0000
0000
0000
0000
,
0000
0000
0000
0000
,
0000
0000
0000
0000
,
1000
0000
0001
0100
,
0010
0000
0110
0000
,
0010
0000
1000
0100
,
0010
0000
2002
0000
,
0020
0000
0000
0000
,
0000
0000
0000
0000
,
0000
0000
0000
0000
,
0030
0000
3003
0000
,
0000
0000
0000
0000
,
1000
1000
1000
1000
,
0001
0000
0001
0000
0100
0010
0100
0000
,
0010
1000
0100
0010
,
0001
0010
0100
1000
,
0001
0100
0010
1001
,
1000
0100
0010
1001
,
0001
0100
0110
0010
,
1000
0100
1100
1000
,
0001
0100
0001
1000
,
0100
0000
1000
0000
0001
0100
0001
0000
,
1000
1100
0010
0011
,
1000
1100
0010
0011
,
1000
0001
0100
0010
,
1000
0000
0001
0000
0100
0001
0100
0000
,
0001
1100
0001
1100
,
0001
1010
0001
1010
,
0001
0000
0100
0000
0000
1010
0000
0000
,
0100
0000
0001
0010
0001
0000
1000
0000
,
0100
0000
0010
0000
0000
0001
0000
0000
,
1000
0000
0000
0010
0000
0100
0001
0000
,
1000
0000
0001
0000
0000
0100
0000
0000
,
0010
0000
1000
0000
0000
0001
0000
0000
,
1000
0000
0100
0000
0000
0000
0010
0001
,
0010
0100
0000
1000
0000
0000
0001
0000
,
0000
0000
0100
0000
0000
0000
0010
1000
,
0010
0100
0000
0001
0000
0000
1000
0000
,
0100
0000
0010
0000
0000
0001
0000
0000
,
1000
0000
0000
0010
0000
0100
0001
0000
,
1001
0000
1000
0000
0000
0100
0000
0000
,
0010
0000
0001
0000
0000
1000
0000
0000
,
0001
0000
0100
0000
0000
0000
0010
1000
,
0010
0000
0000
1000
0000
0000
0001
0000
,
0100
0000
0001
0000
0000
1000
0000
0000
,
0100
0010
0001
2000
,
0000
0000
0000
0000
,
0000
0000
0000
0000
,
0020
0000
0000
0000
,
0000
0000
0000
3030
,
1000
1000
0001
0001
,
0100
0100
0010
0010
,
1000
0001
1000
0000
0010
0100
0010
0000
,
1000
0001
1000
0001
1000
0000
0001
0000
,
1000
0001
0100
0110
,
1000
0100
1000
1100
,
1000
0001
0100
0010
,
1000
0000
1000
0010
0000
0010
1000
0000
,
0101
0010
1000
0100
,
1100
0010
0001
1000
,
0010
0100
0001
0100
,
0020
0000
0000
0130
,
0100
0001
0100
0010
,
0100
0001
0100
0010
,
2000
0000
0000
0000
0000
3100
0000
0000
,
0020
0000
0000
0031
0000
0000
1000
0000
,
0202
0000
0000
0000
,
1010
0303
0000
0000
,
0001
0000
0100
0000
0000
0010
0000
0000
,
1000
0100
0010
0001
,
1000
0000
0001
0000
0000
0100
0000
0000
,
0010
0000
0000
1000
0000
0010
1000
0000
,
0101
0000
0000
0000
,
0001
0000
1000
0000
0000
0100
0000
0000
,
0010
0000
0001
0000
0000
0000
1000
0100
,
1000
0000
0000
0001
0000
0000
0100
0000
,
0010
0000
1000
0000
0000
0001
0000
0000
,
0100
0000
0001
0000
0000
1000
0100
0000
;
#NOTES:
     dance-single:
     Renard:
     Beginner:
     3:
     0.230,0.305,0.025,0.051,0.000:
0000
0000
0000
0000
,
0000
0000
0000
0000
,
0000
0000
0000
0000
,
0000
0000
0000
0000
,
1000
0000
1000
1000
,
0001
0000
0001
0000
,
0100
0000
0100
0100
,
0010
0000
0010
0000
,
2000
0000
0000
0000
,
0000
0000
0000
0000
,
0000
0000
0000
0000
,
0000
0000
0000
0000
,
0000
0000
0000
0000
,
3010
0010
0010
0010
,
0010
0010
0010
0000
,
0100
0100
0100
0100
,
0001
0001
0001
0001
,
1000
0000
0000
0000
0000
0100
0000
0000
,
0010
0000
0000
0000
0000
0001
0000
0000
,
1000
1000
1000
1000
,
0001
0001
0001
0001
,
0100
0000
0000
0000
0000
0010
0000
0000
,
1000
0000
0000
0010
,
0100
0001
0100
0001
,
1000
0001
1000
0001
,
1000
0000
0000
0000
0000
0010
0000
0000
,
0100
0000
0000
0000
0000
0001
0000
0000
,
1000
0100
1000
0000
,
0001
0010
0001
0000
,
1000
0000
0010
0000
0000
0100
0000
0000
,
0001
0000
1000
0000
,
0100
0000
0010
0000
0000
0001
0000
0000
,
0010
0000
0000
0100
0000
0000
1000
0000
,
0001
0000
0100
0000
,
0010
0000
1000
0000
,
0001
0100
0000
0001
,
1000
0000
0000
0100
0000
0000
0010
0000
,
0000
0001
0000
1000
,
0010
0000
0000
0100
0000
0000
0001
0000
,
1000
0000
0100
0000
0000
0010
0000
0000
,
0001
0000
0000
1000
0000
0000
0001
0000
,
0200
0000
0010
0000
,
0010
0000
0310
0000
,
0100
0001
0000
1000
,
0100
0000
0000
0010
0000
0000
0001
0000
,
1000
0000
1000
0000
,
0001
0000
0200
0000
,
0000
0000
0000
0000
,
0000
0000
0000
0000
,
0020
0000
0000
0000
,
0000
0000
0000
0330
,
0010
0000
0100
0000
,
0010
0000
0100
0000
,
0001
1000
0001
1000
,
0010
0100
0010
1000
,
0010
0010
1000
1000
,
0010
0010
1000
1000
,
0001
0000
0000
0000
0000
0100
0000
0000
,
0010
0000
0000
1000
0000
0000
0100
0000
,
0010
0000
0000
0000
,
0011
0000
0000
0000
,
0001
0000
0000
0000
0000
0010
0000
0000
,
0100
0000
0000
1000
0000
0000
0010
0000
,
0100
0001
0100
0001
,
1000
0100
1000
0000
,
0001
0000
0000
0000
0000
1000
0000
0000
,
0010
0000
0000
0100
0000
0000
0001
0000
,
1001
0000
0000
0000
,
0110
0000
0000
0000
,
0010
0000
1000
0000
0000
0100
0000
0000
,
0010
0000
0001
0000
,
1000
0000
0001
0000
0000
0100
0000
0000
,
0001
0000
0000
1000
0000
0000
0100
0000
,
0010
0000
0010
0000
,
0010
0000
0010
0000
,
0010
0001
0000
1000
,
0010
0000
0000
0100
0000
0000
0001
0000
,
1000
0100
0000
0010
,
0001
0000
1000
0000
0000
0020
0200
0000
,
0000
0000
0000
0000
,
0330
0000
0000
0000
;
