#TITLE:Manner Des Westens;
#SUBTITLE:;
#ARTIST:Falco;
#TITLETRANSLIT:;
#SUBTITLETRANSLIT:;
#ARTISTTRANSLIT:;
#CRChallenge:;
#BANNER:;
#BACKGROUND:;
#LYRICSPATH:;
#CDTITLE:;
#MUSIC:westens.ogg;
#OFFSET:0.000;
#SAMPLESTART:47.219;
#SAMPLELENGTH:12.000;
#SELECTABLE:YES;
#BPMS:0.000=104.673;
#STOPS:;
#BGCHANGES:;
#NOTES:
     dance-single:
     Renard:
     Medium:
     8:
     0.508,0.536,0.467,0.000,0.286:
0000
0000
0000
0000
,
0000
0000
0000
0000
,
0000
0000
0000
0000
,
0000
0000
0000
0000
,
1000
0001
0000
0001
0100
0000
0010
0000
1000
0000
0000
0000
1100
0000
0000
0000
,
1000
0001
0000
0001
0100
0000
0010
0000
1000
0000
0001
0000
0011
0000
0000
0000
,
0001
0000
0010
0100
1000
0000
0001
0000
0101
0000
0000
0000
1001
0000
0000
0000
,
1010
1000
1001
1000
1100
0000
1001
0000
,
0001
0000
0100
0010
0000
1000
0010
0000
1000
0000
0001
0000
0101
0000
0000
0000
,
0001
0000
1000
0100
0000
1000
0001
0000
1001
0000
0000
0000
0110
0000
0000
0000
,
0010
1000
0000
1000
0010
0000
1000
0000
0010
0000
0000
0000
1010
0000
0000
0000
,
0100
0000
0001
0100
0001
0000
0010
0000
0001
0000
0000
0000
1100
0000
0000
0000
,
1000
0001
0000
0001
0010
0000
0100
0000
1100
0000
0000
0000
1001
0000
0000
0000
,
0001
0000
0100
0001
0000
0010
0001
0000
1001
0000
0000
0000
1010
0000
0000
0000
,
1000
0010
0000
0010
0100
0000
0001
0000
1000
0000
0000
0000
1001
0000
0000
0000
,
0001
0000
0100
0001
0000
1000
0100
0000
0010
0000
0001
0000
0010
0000
0001
0010
,
0100
0100
0000
0100
0100
0000
0100
0000
1000
0000
0010
0000
0100
0000
0000
0000
,
0001
0001
0000
0001
0001
0000
0001
0000
0010
0000
0100
0000
1000
0000
0000
0000
,
0010
0010
0000
0010
0010
0000
0010
0000
0100
0000
0001
0000
0010
0000
0100
1000
,
0001
0100
0101
0100
0010
1000
1010
1000
,
0100
1000
1100
0011
1001
0001
1000
0000
,
0001
0000
0100
0010
0100
0000
0010
0000
1000
0000
0000
0000
1100
0000
0000
0000
,
1000
0000
0001
0010
0001
0000
0010
0000
0100
0000
0000
0000
0110
0000
0000
0000
,
0100
0000
1000
0001
1000
0000
0001
0000
0100
0000
0000
0000
0110
0000
0000
0000
,
0010
1000
0001
0100
0001
0010
0100
1000
,
0001
0000
0100
0001
0100
0000
0001
0000
1000
0000
0000
0000
1001
0000
0000
0000
,
1000
0000
0001
0010
0001
0000
0010
0000
0100
0000
0000
0000
0110
0000
0000
0000
,
0100
0000
1000
0100
1000
0000
0010
0000
0100
0000
0001
0000
1000
0000
0100
0000
,
1100
1100
0011
0011
0101
0101
1010
1010
,
0000
0000
1000
0010
1000
0000
0000
0000
0101
0000
0001
0000
0100
0000
0110
0000
,
0000
0000
0010
1000
0010
0000
0000
0000
1000
0000
0100
1000
0001
0010
0100
1000
,
0001
0010
0011
0000
0010
0100
1000
1100
,
0000
1000
0001
0000
0100
0000
0000
0000
0001
0100
0010
0000
1000
0000
0010
0000
,
1000
0000
0010
0000
1000
0000
0001
0000
0100
0000
0001
0001
0000
0001
0001
0000
,
0001
0000
0000
0010
0100
0000
1000
0000
1000
0000
0000
0010
0100
0000
0001
0000
,
0001
0000
0000
0100
0010
0000
1000
0000
0100
0000
0010
0010
0000
0010
0010
0000
,
0010
0000
0001
0010
0001
0000
0010
0000
0010
0000
0000
0000
0100
1000
0100
0000
,
1000
0000
0001
0100
0001
0000
0000
0000
0100
0000
0010
1000
0010
0000
1000
0000
,
0100
0000
0010
0000
0000
0000
0001
0000
0010
0000
0000
0000
0100
1000
0001
0000
,
0100
0000
0000
0100
0001
0000
1000
0100
0000
1000
0001
0000
0010
0000
0001
0000
,
0010
0000
0010
0000
0100
0000
0100
0000
1000
0000
0100
1000
0001
0010
0001
0000
,
1000
1100
1001
1010
0000
1000
0010
0100
,
0001
0101
0011
1001
0000
0001
0100
0010
,
1000
1000
1100
0100
0110
0010
0011
0001
,
0001
0000
1000
0010
1000
0000
0001
0000
0100
0000
0001
0000
1000
0000
0100
1000
,
0001
0000
0000
0000
;
#NOTES:
     dance-single:
     pyroko:
     Hard:
     9:
     0.659,0.000,0.353,0.095,0.529:
0000
0000
0000
0000
,
0000
0000
0000
0000
,
1000
0000
0001
0010
0001
0000
1000
0000
0010
0000
0000
0000
0100
0000
0000
0000
,
0010
1000
0100
0010
0100
1000
0100
0010
,
0001
0000
1000
0001
1000
0000
0001
0000
0010
0000
0001
0000
1000
0000
0010
0000
,
0100
0000
0010
0100
0010
0000
0100
0000
0010
0000
1000
0000
0100
0000
0010
0000
,
0001
0000
1000
0001
0010
0000
0100
0000
1000
0000
0100
0000
0010
0000
0100
0000
,
1000
1100
0100
0110
0100
1001
0001
0011
,
0001
1000
0001
0100
0000
0001
0010
0001
1000
0000
0000
0001
0010
0000
0100
1000
,
0100
0010
0100
1000
0010
0100
0010
0001
0010
0000
1000
0000
0100
0000
0010
0100
,
0010
0000
0100
1000
0000
0100
0010
0100
1000
0000
0001
0010
0000
0000
0001
0100
,
0001
0010
0001
1000
0100
0010
0100
0000
1000
0000
0010
0000
0100
0000
0010
0001
,
0010
0000
0100
0010
0000
1000
0100
0010
0100
0000
1000
0000
0100
0000
0010
0100
,
1000
0100
0010
0001
1000
0001
0010
0001
1000
0000
0010
0000
0100
0000
0010
0001
,
0010
0000
0100
0010
0000
1000
0100
0010
0100
0000
1000
0000
0100
0000
0010
0100
,
1000
0100
0010
0001
1000
0001
0010
0100
1000
0100
0010
0001
1000
0010
0100
0010
,
0000
0000
0100
0010
0100
0000
0000
0000
1010
0000
0100
0000
0010
0000
0100
1000
,
0100
0000
0010
0000
0100
0000
1000
0100
0010
0000
0001
0000
1000
0000
0001
0010
,
0001
0000
1000
0000
0001
0000
0010
0001
1000
0000
0010
0000
0100
0000
0010
0100
,
0010
0011
0110
1010
1100
0110
1100
1001
,
0101
0110
1010
1001
0101
0010
0001
1000
,
0001
0000
0010
0001
1000
0000
0001
0000
0020
0000
0000
0030
0200
0000
0000
0300
,
1100
0000
0100
1000
0100
0000
0010
0000
0002
0000
0000
0003
2000
0000
0000
3000
,
0001
0000
0010
0001
1000
0000
0001
0010
0001
0000
1000
0010
0100
0000
0010
0100
,
0010
1000
0100
0010
0100
1000
0001
0010
,
0001
0000
1000
0001
1000
0000
0010
0000
0200
0000
0000
0300
0020
0000
0000
0030
,
1100
0000
0100
0010
0100
0000
0010
0000
0002
0000
0000
0003
0020
0000
0000
0030
,
0100
0000
0010
0100
0010
0000
0100
1000
0100
0000
0010
0100
1000
0000
0001
0010
,
0001
1000
0001
0010
0100
1000
0100
0010
,
0011
0001
1001
0000
1001
0001
0101
0010
,
0110
0000
0010
0000
1010
0000
0010
0000
1000
0000
0100
0010
0100
1000
0001
0010
,
0001
1001
0001
0011
0001
1001
0010
0110
,
0010
0000
1100
0000
0110
0000
0100
0000
1000
0100
0010
0000
0100
0000
1000
0000
,
1000
0100
0010
0100
1000
0000
0001
0010
0001
1000
0001
0010
0001
0000
1000
0000
,
0010
0100
0010
0001
0010
0000
0100
0010
1000
0100
0010
0100
1000
0000
0100
0000
,
0010
0100
1000
0100
0010
0000
0001
1000
0001
0010
0100
1000
0100
0000
0010
0000
,
0100
1000
0010
1000
0010
0000
1000
0010
0100
0010
0001
0010
1000
0000
0100
0000
,
0010
0100
1000
0001
0010
0000
0001
1000
0100
0010
0100
1000
0100
0000
0010
0000
,
0100
1000
0010
0001
0010
0000
1000
0010
0100
0010
1000
0100
0010
0000
0100
0000
,
0010
0001
1000
0001
1000
0000
0010
0100
0010
0001
0010
0100
0010
0000
1000
0100
,
0110
0000
1100
0000
1001
0000
0101
0000
0110
0000
0001
1000
0100
0000
0010
0000
,
0100
0000
1000
0100
0010
0000
0001
0000
2000
0000
0100
0000
0010
0000
0100
3000
,
1000
0000
0010
0100
0010
0000
0200
0000
0010
0000
0001
0000
0010
0300
1000
0100
,
1000
0000
0100
0010
0100
0000
1000
0001
1000
0000
0001
0010
0100
0000
0010
0100
,
0010
0100
1000
0010
0100
0010
0001
0010
,
1100
0000
0000
0000
;
#NOTES:
     dance-single:
     pyroko:
     Easy:
     4:
     0.386,0.000,0.286,0.038,0.000:
0000
0000
0000
0000
,
0000
0000
0000
0000
,
0000
0000
0000
0000
,
0000
0000
0000
0000
,
1000
0100
0010
0100
1100
0000
1001
0000
,
0000
0001
0100
0001
0101
0000
0110
0000
,
0000
0010
1000
0010
1100
0000
0110
0000
,
0100
1000
0100
0010
0100
1000
0100
0010
,
0110
0000
1001
0000
0001
1000
0001
0000
,
0100
0001
0010
0001
0100
0000
0010
0000
,
1000
0100
0010
0000
0100
1000
0100
0000
,
1000
0001
0101
0010
,
1000
0100
0010
0000
0100
1000
0100
0000
,
1000
0001
0101
0010
,
1000
0100
1000
0000
0100
0010
0100
0000
,
0010
0001
1000
0001
1000
0001
0100
0000
,
0010
1000
1010
0000
1010
0000
1100
0000
,
0001
1000
0001
0000
1001
0000
1001
0000
,
0001
0100
0001
0000
0101
0000
0101
0000
,
0010
1000
0010
1000
0010
1000
0010
1000
,
0010
1000
0010
1000
0010
0000
1000
0000
,
0001
0010
0001
1000
1001
0000
1001
0000
,
0001
1000
0001
0100
0110
0000
0110
0000
,
0010
1000
0010
1000
0100
0010
0100
0010
,
0001
1000
0001
0010
0100
1000
0100
1000
,
0100
0010
0001
0011
0000
0001
1000
0001
,
0100
0010
0100
0110
0000
0010
1000
0100
,
1000
0100
0010
0100
1000
0001
0010
0001
,
1000
0001
0010
0001
2000
0000
3020
0000
,
0130
0001
1000
0000
0001
0010
0001
0010
,
0000
0001
1000
0000
0010
0000
0100
0000
,
0010
0100
0010
0000
1000
0001
1000
0000
,
0001
0010
0001
0000
1000
0000
0100
0000
,
0010
0001
1000
0010
,
0100
0010
1000
0100
,
0010
0100
0010
0000
0001
1000
0001
0000
,
0100
0001
0100
0001
0101
0000
0101
0000
,
0010
1000
0010
0000
1000
0100
1000
0000
,
0100
0010
0100
0010
0001
1000
0001
0000
,
0010
0001
0010
0000
0001
1000
0001
0000
,
1000
1000
0010
0010
0200
0000
0302
0000
,
1003
0001
0010
0001
1001
0000
1001
0000
,
0001
0100
0001
0010
0011
0000
0011
0000
,
0001
1000
0001
1000
0010
1000
0010
0100
,
0010
0100
0001
0100
0001
0010
0100
0010
,
0110
0000
0000
0000
;
#NOTES:
     dance-single:
     pyroko:
     Beginner:
     3:
     0.213,0.000,0.114,0.019,0.000:
0000
0000
0000
0000
,
0000
0000
0000
0000
,
0000
0000
0000
0000
,
0000
0000
0000
0000
,
1000
0100
0020
0000
,
0030
0001
1000
0020
,
0030
0100
0010
1000
,
0100
0010
0001
1000
,
1001
0000
0110
0000
,
0010
1000
0010
0000
,
1010
0000
0101
0000
,
0001
0010
0100
0000
,
0110
0000
1001
0000
,
0010
0100
0010
0000
,
0011
0000
1100
0000
,
0001
0010
0100
1000
,
0010
0000
0100
0010
,
0000
0000
1000
0001
,
0000
0000
0100
0010
,
1000
1000
0001
0001
,
0010
0010
0100
0100
1000
0000
0010
0000
,
0100
0010
0110
0010
,
1000
0100
0100
0010
,
0001
0001
1000
1000
,
0010
0100
0010
1000
,
0001
0010
0011
0001
,
1000
0010
1010
0010
,
0100
0010
0100
0001
,
0010
0100
1000
0010
,
0100
0001
1000
0001
,
0000
0000
0100
0010
,
1000
0100
0010
0001
,
1000
0010
0100
0010
,
1000
0000
0100
0000
,
0010
0000
0001
0000
,
0100
0000
0010
0000
,
1000
0000
0100
0000
,
0010
0001
1000
0001
,
0100
0001
0010
0001
,
1000
0010
1000
0100
,
1000
0000
0100
0000
0010
0000
0001
1000
,
0001
0100
0010
1000
,
0100
0010
0100
1000
,
0001
0010
0100
1000
,
0010
1000
0010
1000
0010
1000
0010
0000
,
1001
0000
0000
0000
;
