#TITLE:Man Dem;
#SUBTITLE:;
#ARTIST:Grimeminister / Spike T;
#TITLETRANSLIT:;
#SUBTITLETRANSLIT:;
#ARTISTTRANSLIT:;
#CRChallenge:;
#BANNER:dem.png;
#BACKGROUND:dem-bg.png;
#LYRICSPATH:;
#CDTITLE:;
#MUSIC:dem.ogg;
#OFFSET:0.000;
#SAMPLESTART:57.852;
#SAMPLELENGTH:12.000;
#SELECTABLE:YES;
#BPMS:0.000=70.500,64.000=141.000;
#STOPS:64.000=2.553
;
#BGCHANGES:;
#NOTES:
     dance-single:
     Renard:
     Challenge:
     10:
     0.732,1.000,0.148,0.000,1.000:
0000
0000
0000
0000
,
0000
0000
0000
0000
,
1000
0000
0010
0000
0000
0000
0001
0000
0010
0000
1000
0000
0000
0000
0000
0000
0100
0000
0000
0100
0001
0000
0100
1000
0001
0000
0010
0000
0000
0000
0000
0000
,
1000
0000
0010
0000
0000
0000
1000
0000
0010
0000
0001
0000
0000
0000
0000
0000
0010
0000
0000
0010
0100
0000
0001
0100
1000
0000
0001
0000
0010
0000
1000
0000
,
0010
0000
0100
0000
1000
0000
0010
0000
0001
0000
1000
0000
0000
0000
0000
0000
0100
0000
0000
0100
0000
0000
0000
0000
0010
0000
1000
0000
0000
0000
0000
0000
,
0010
0000
0001
0000
0010
0000
0000
0000
0100
0000
0100
0000
0000
0000
0000
0000
0010
0000
0010
1000
0000
1000
0010
0000
0100
0001
0100
0000
0010
0000
1000
0000
,
0110
0000
1000
0000
0001
0000
0100
0000
1010
0000
1000
0000
0100
0100
0100
0100
1000
0000
0010
0000
0100
0000
0001
0000
0010
0000
0010
0000
0000
0000
0000
0000
,
0001
0000
1000
0000
0100
0000
0000
0000
0110
0000
0110
0000
0000
0000
0000
0000
0010
0000
0001
1000
0100
0000
1000
0001
0100
0000
0010
0000
1000
0000
0000
0000
,
0101
0000
0010
0000
1000
0000
0100
0000
0010
0000
0001
0000
1000
1000
1000
1000
0010
0000
0100
0001
0010
0000
0100
1000
0010
0000
0100
0000
0000
0000
0000
0000
,
0001
0000
1000
0000
0000
0000
0100
0000
0010
0000
0001
0000
0000
0000
0000
0000
1000
0000
0000
0001
0001
0000
0100
0010
0100
0000
0010
0000
0100
0000
0000
0000
,
0001
0000
1000
0000
0100
0000
0010
0000
0001
0000
1000
0000
0010
0010
0010
0010
1000
0000
0010
0100
0001
0000
0100
0010
1000
0000
0001
0000
0100
0000
0000
0000
,
0001
0000
0010
0000
0100
0000
1000
0000
0100
0000
0010
0000
0001
0010
0100
1000
0100
0000
1000
0001
0010
0000
0100
1000
0001
0000
0100
0000
0010
0000
1000
0000
,
0001
0100
0010
1000
0100
0010
0001
0010
0100
1000
0001
0100
0010
1000
0100
0010
0100
1000
0010
0100
0001
0010
0100
1000
0001
0100
0010
1000
0100
0010
0001
0010
,
0100
1000
0001
0100
0010
1000
0100
0010
0100
1000
0001
0010
0100
1000
0001
0100
0010
1000
0100
0010
0001
0010
0100
1000
0001
0000
0100
0000
0010
0000
1000
0000
,
0001
0010
0001
0010
0001
0100
0001
0100
0001
1000
0001
1000
0001
0100
0001
0100
0001
0010
0001
0010
0001
0100
0001
0100
0001
1000
0001
1000
0001
0100
0001
0100
,
0001
1000
0001
1000
0010
1000
0010
1000
0100
1000
0100
1000
0010
1000
0010
1000
0001
1000
0010
1000
0100
1000
0010
1000
0001
1000
0010
1000
0001
0000
0000
0000
,
1011
0000
0000
0000
0001
1000
0100
1000
,
0001
0000
0100
0000
0010
0010
0010
0010
1000
0000
0100
0010
0001
0000
0010
0100
,
1000
0000
0001
0010
0100
0000
1000
0010
0100
0000
0001
0100
0010
0000
1000
0000
,
0100
0000
0010
0000
0001
0000
1000
0000
0010
0000
0100
0001
0100
0000
0010
1000
,
0100
0010
0001
0010
0100
1000
0010
0100
,
0001
0000
0010
0000
0100
0100
0100
0100
0010
0000
0001
0100
0010
0000
1000
0100
,
0010
0100
1000
0010
0100
0001
0010
0100
,
1000
0000
0010
0000
0100
0001
0100
0000
0010
1000
0010
0000
0100
0001
0100
0000
,
0010
1000
0010
0000
1000
0000
0100
0000
0010
0000
0001
0010
0100
0000
1000
0000
,
0001
0000
0100
0000
0010
0010
0010
0010
1000
0000
0100
0010
0001
0000
0010
0100
,
1000
0001
0100
0000
0010
1000
0100
0010
,
0001
0010
0100
1000
0001
0000
0100
0000
0010
0000
1000
0100
0010
0000
0001
0010
,
0100
1000
0010
0100
0101
1010
0101
1010
,
1100
0000
0011
0000
0001
0001
0001
0001
1000
0000
0100
1000
0001
0000
0100
0010
,
1000
0010
0000
0000
1000
0001
0100
0000
,
0010
0000
1000
0000
0000
0000
0000
0000
0001
0010
0100
1000
0100
0010
0001
0010
,
0100
1000
0100
0010
0001
1000
0010
0000
1111
0000
0000
0000
0000
0000
0000
0000
;
