#TITLE:Makin' a Machine;
#SUBTITLE:;
#ARTIST:Emoticon;
#TITLETRANSLIT:;
#SUBTITLETRANSLIT:;
#ARTISTTRANSLIT:;
#CRChallenge:;
#BANNER:makina.png;
#BACKGROUND:makina-bg.png;
#LYRICSPATH:;
#CDTITLE:!cdtitle.png;
#MUSIC:makina.ogg;
#OFFSET:0.000;
#SAMPLESTART:21.434;
#SAMPLELENGTH:12.000;
#SELECTABLE:YES;
#BPMS:0.000=190.000;
#STOPS:;
#BGCHANGES:;
#NOTES:
     dance-single:
     Renard:
     Hard:
     9:
     0.734,0.672,0.034,0.000,0.18:
0000
0000
0000
0000
,
1000
0001
1000
0000
1000
0000
0001
0100
,
0010
0010
0000
0000
1000
0000
0100
0000
,
0010
0001
0010
0100
1000
0001
0000
0000
,
1000
0000
0010
0000
0100
0001
0100
0000
,
0001
0010
0000
0000
0100
0000
1000
0010
,
0100
0100
0000
0000
0010
1000
0100
0010
,
0001
1000
0001
0100
0010
1000
0001
0000
,
1000
0000
0000
0000
1000
0000
0000
0000
0100
0000
0010
0000
0001
0010
0001
0010
,
0001
0010
0100
1000
0001
0010
0100
1000
,
0001
0100
0010
1000
0001
0100
0010
1000
,
0100
0010
0001
0010
0100
1000
0001
0100
,
0010
1000
0100
0010
0001
0010
0100
1000
,
0100
0010
0001
0010
0100
1000
0001
0100
,
0010
1000
0100
0010
0100
1000
0001
0010
,
0100
1000
0001
0100
0010
1000
0010
0100
,
0001
0010
0100
1000
0001
0000
0110
0000
,
0010
1000
0100
0010
0001
0010
0100
1000
,
0001
0100
0010
1000
0100
0010
0100
1000
,
0001
0010
0100
0010
0001
1000
0010
0100
,
0001
0010
0100
1000
0001
0100
0010
0000
,
0010
0100
0001
0010
0100
1000
0100
0010
,
0100
1000
0010
0100
0001
0010
0100
0010
,
0001
1000
0010
0100
0010
1000
0100
0010
,
0001
0000
0010
0000
0100
0000
1000
0000
0001
0000
0000
0000
1000
0100
0010
0001
,
1000
0100
1000
0001
0010
0001
1000
0010
,
1000
0001
0100
0001
1000
0100
0010
0001
,
1000
0010
1000
0001
0100
0001
1000
0100
,
1000
0001
0010
0001
1000
0010
0100
0001
,
1000
0100
0010
0001
0010
0100
1000
0001
,
0100
0010
1000
0001
0010
0100
1000
0001
,
1000
0100
1000
0001
0010
0001
1000
0010
,
0100
0001
1000
0100
0010
0000
0011
0000
,
0001
0000
0010
0000
0000
0001
0000
0000
1000
0000
0000
0010
0000
0000
0100
0000
,
0001
0000
1000
0000
0000
0100
0000
0000
0010
0000
0000
0001
0000
0000
1000
0000
,
0010
0000
1000
0000
0000
0001
0000
0000
0010
0000
0000
0001
0000
0000
1000
0000
,
0010
0000
0100
0000
0000
0001
0000
0000
1000
0000
0100
0000
0010
0000
0001
0000
,
1000
0000
0001
0000
0000
0100
0000
0000
0010
0000
0000
1000
0000
0000
0100
0000
,
0010
0000
0001
0000
0000
0010
0000
0000
0100
0000
0000
1000
0000
0000
0001
0000
,
0100
0000
0010
0000
0000
1000
0000
0000
0100
0000
0000
0010
0000
0000
0001
0000
,
0010
0000
0100
0000
0000
1000
0000
0000
0001
0000
0001
0000
0001
0000
0000
0000
,
1000
0000
0100
0000
0010
0001
0000
0000
1000
0000
0000
0010
0000
0000
0100
0000
,
0001
0000
0010
0000
0100
1000
0000
0000
0001
0000
0000
0010
0000
0000
0001
0000
,
1000
0000
0010
0000
0100
0001
0000
0000
1000
0000
0000
0100
0000
0000
0010
0000
,
0001
0000
1000
0000
0010
1000
0000
0000
0001
0000
0100
0000
0010
0000
1000
0000
,
0001
0000
1000
0000
0100
1000
0000
0000
0001
0000
0010
0000
0100
0000
1000
0000
,
0001
0000
0100
0000
0010
1000
0000
0000
0001
0000
0010
0000
0100
0000
1000
0000
,
0001
0000
0010
0000
0100
1000
0000
0000
0001
0000
0010
0000
0100
0000
1000
0000
,
0001
0100
0010
1000
0100
0000
1001
0000
,
0001
0000
0001
1000
0100
0000
0100
0010
,
0001
0000
0001
1000
0000
0010
1000
0001
,
0000
0010
0010
0100
1000
0000
0001
0100
,
0010
0000
0000
0000
1000
0000
0000
0000
0001
0000
0100
0010
0100
0000
0010
0000
,
1000
0000
0100
0010
0001
0000
0001
0010
,
0100
0000
0100
1000
0000
1000
0010
0100
,
0000
0010
0010
1000
0100
0000
0010
0001
,
1000
0000
0000
0000
0001
0000
0000
0000
0100
0000
0010
0100
0010
0000
0100
0000
,
0010
0000
0010
1000
0100
0000
1000
0001
,
0010
0000
0001
1000
0000
0001
0100
0010
,
0000
1000
0001
0100
0010
0000
1000
0001
,
1000
0000
0000
0000
0100
0000
0000
0000
0010
0000
0001
0010
0001
0000
0010
0000
,
0100
0000
0100
1000
0001
0000
0001
0100
,
0010
0000
1000
0010
0000
0100
0001
1000
,
0000
0001
0001
0010
0100
0000
1000
0001
,
0100
0000
0000
0000
0010
0000
0000
0000
1000
0000
0001
0100
0001
0000
1000
0000
,
0010
0000
0000
0000
;
#NOTES:
     dance-single:
     Renard:
     Medium:
     8:
     0.555,0.523,0.080,0.011,0.000:
0000
0000
0000
0000
,
0001
1000
0000
0000
0000
0000
0001
1000
,
0010
0100
0000
0000
0000
0000
0000
0000
,
0010
0100
0001
1000
0100
0010
0000
0000
,
0000
0000
0000
0000
,
0100
1000
0000
0000
0000
0000
0001
0010
,
0100
1000
0000
0000
0000
0000
0000
0000
,
0001
0100
0010
1000
0001
1000
0000
0000
,
0000
0000
0000
0010
,
1000
0010
1000
0000
0001
0100
0001
0000
,
1000
0100
1000
0000
0001
0010
0001
0000
,
1000
0010
1000
0000
0001
0100
0001
0000
,
1000
0100
1000
0000
0001
0010
0100
1000
,
0001
0000
0001
1000
0100
0000
0100
1000
,
0010
0000
0010
0100
0001
0000
0001
0000
,
1000
0000
1000
0100
0010
0000
0010
0001
,
1000
0000
1000
0001
0100
0000
1001
0000
,
0001
0000
0100
0000
0010
1000
0010
0000
,
1000
0000
0100
0000
0010
0000
0001
0010
,
0001
0000
0010
0000
0100
0000
1000
0001
,
1000
0000
0001
0100
0001
0100
0001
0100
,
0010
0000
0010
1000
0010
0000
1000
0000
,
0100
0000
0010
0000
0001
1000
0001
1000
,
0001
0000
0100
0001
0100
0000
0001
0000
,
0100
0010
2000
0000
,
3010
1000
0010
0000
1000
0000
1000
0000
,
1000
0000
0001
0100
0001
0000
0001
0000
,
0010
0000
0001
0010
0100
0000
0100
0000
,
0100
0000
1000
0010
0100
0010
0000
0000
,
0100
0000
0001
0100
0001
0000
0100
0000
,
0100
0000
0010
1000
0100
0010
0010
0010
,
0010
0000
0001
0010
0001
0000
0010
0000
,
0010
0000
0100
1000
0001
0100
0010
0000
,
1000
0000
1000
0000
0010
1000
0010
0000
,
1000
0000
1000
0000
0010
1000
0010
0000
,
0100
0001
0010
0100
1000
0100
0010
0001
,
1000
1000
0001
0001
,
1000
0001
0100
0000
0001
0000
0100
0001
,
0100
0000
0100
0000
0100
0000
0001
0010
,
0100
1000
0100
0010
0001
0100
0010
1000
,
0001
0000
0001
0000
1000
1000
1000
0000
,
0001
0000
1000
0000
0010
0100
0010
0000
,
0100
0000
0001
0000
1000
0100
1000
0000
,
0001
0000
0010
0000
0100
1000
0100
0000
,
1000
0000
0001
0000
0100
0010
0100
0000
,
1000
0000
0101
0000
0010
1000
0100
0000
,
0010
0000
0011
0000
0010
0100
1000
0000
,
0001
0101
1000
1001
,
0100
1001
1001
0000
,
1000
0000
1000
0001
0100
0000
0100
0001
,
1000
0000
1000
0001
0000
0001
1000
0100
,
0000
0100
1000
0001
0100
0000
0001
0000
,
1000
0000
0010
0000
0100
0100
0100
0000
,
0001
0000
0001
1000
0100
0000
0100
1000
,
0001
0000
0001
0010
0000
0010
0001
1000
,
0000
0001
1000
0010
1000
0000
0001
0000
,
0100
0000
0001
0000
1000
1000
1000
0000
,
0001
0000
0001
0010
0100
0000
0100
1000
,
0001
0000
1000
0100
0000
1000
0010
1000
,
0000
0001
0010
0100
1000
0000
0001
0000
,
0100
0000
0010
0000
1000
0001
1000
0000
,
0001
0000
0010
0100
1000
0000
0100
0010
,
0001
0000
1000
0010
0000
1000
0100
1000
,
0000
0001
1000
0010
1000
0000
0100
0010
,
0001
0000
1000
0000
0001
0001
0010
0100
,
1000
0000
0000
0000
;
#NOTES:
     dance-single:
     Renard:
     Easy:
     6:
     0.471,0.448,0.000,0.011,0.000:
0000
0000
0000
0000
,
1000
0000
0000
1000
,
0001
0000
0000
0000
,
0001
1000
0001
1000
0001
1000
0000
0000
,
0010
0010
0010
0000
,
1000
0000
0000
0001
,
0001
0000
0000
0000
,
0001
1000
0001
1000
0001
1000
0000
0000
,
0010
0010
0010
0000
,
1000
0000
0010
0000
1000
0000
0010
1000
,
0010
0000
1000
0000
0010
0000
1000
0010
,
0100
0000
0001
0000
0100
0000
0001
0100
,
0001
0000
0100
0000
0001
0000
0100
0001
,
1000
0000
0001
1000
0001
0000
1000
0001
,
1000
0000
0001
1000
0001
0000
1000
0000
,
0100
0000
0010
0100
0010
0000
0100
0010
,
0100
0010
0002
1003
,
0010
0010
1000
1000
,
1000
0000
0001
0100
0001
0100
0001
0100
,
0001
0001
1000
1000
,
0100
0000
0010
0001
0010
0001
0000
0000
,
0010
0010
0001
0001
,
1000
0000
0010
1000
0010
1000
0010
1000
,
0010
0010
1000
1000
,
0001
0000
0100
0001
0100
0001
0000
0000
,
1000
1000
0100
0010
,
0010
0000
0001
0010
0001
0010
0001
0010
,
0100
0100
1000
1000
,
0001
0000
0100
0001
0100
0001
0000
0000
,
0100
0100
0010
0010
,
1000
0000
0001
1000
0001
1000
0001
1000
,
0100
0100
1000
1000
,
0100
0010
0001
1000
,
0001
0001
1000
1000
,
0010
0010
0100
0100
,
0001
0001
1000
1000
,
0100
0010
0001
0001
,
0010
0010
0001
0001
,
1000
1000
0100
0100
,
1000
0100
0010
0001
,
1000
0000
1000
0000
0010
0010
0010
0000
,
1000
1000
0010
0010
,
1000
1000
0010
0010
,
0100
0100
0001
0001
,
1000
0001
1000
0001
,
0010
0010
0100
0100
,
1000
1000
0001
0001
,
1000
0001
0100
0010
,
1000
0000
0001
0000
0100
0100
0100
0000
,
0001
0000
1000
0100
1000
0000
0001
0100
,
0001
0000
1000
0100
0000
1000
0001
0000
,
1000
1000
0001
0001
,
0100
0100
0001
0000
,
1000
0000
0100
1000
0100
0000
1000
0001
,
1000
0000
0001
0100
0000
0001
1000
0000
,
0001
0010
0100
1000
,
0001
0001
1000
0000
,
0001
0000
0010
0001
0010
0000
0001
1000
,
0001
0000
1000
0010
0000
1000
0001
0000
,
1000
0001
0010
0001
,
1000
0010
1000
0001
,
0010
0000
0001
1000
0001
0000
1000
0010
,
1000
0000
0001
0010
0000
0001
1000
0000
,
0001
1000
0010
0100
,
0001
0000
0001
0000
1000
0000
0100
0010
,
0001
0000
0000
0000
;
#NOTES:
     dance-single:
     Renard:
     Beginner:
     3:
     0.251,0.261,0.000,0.000,0.000:
0000
0000
0000
0000
,
1000
0000
0000
1000
,
0001
0000
0000
0000
,
0001
1000
0100
0000
,
0100
0000
1000
0000
,
0001
0000
0000
1000
,
0001
0000
0000
0000
,
0100
0001
1000
0000
,
1000
0000
0001
0000
,
0010
0000
0100
0000
,
1000
1000
0001
0000
,
1000
0000
0001
0000
,
0100
0100
0010
0000
,
1000
0000
0001
0000
,
0010
0010
0001
0000
,
1000
0000
0001
0000
,
0100
0001
1000
0000
,
0001
0000
0001
0000
,
1000
0000
1000
0000
,
0001
0000
0001
0000
,
1000
0100
0010
0001
,
1000
0000
1000
0000
,
0001
0000
0001
0000
,
1000
0000
1000
0000
,
0001
0010
0100
0000
,
1000
0000
1000
0000
,
0100
0000
0100
0000
,
0010
0000
0010
0000
,
0001
0010
0100
1000
,
0001
0000
0001
0000
,
0010
0000
0010
0000
,
0100
0000
0100
0000
,
1000
0100
0010
0000
,
0001
0000
0000
0000
,
0001
0000
1000
0000
,
0100
0000
0000
0000
,
0100
0000
1000
0000
,
0010
0000
0000
0000
,
0010
0000
0100
0000
,
0001
0000
0000
0000
,
0001
1000
0100
0100
,
1000
0000
1000
0000
,
0001
0000
0001
0000
,
0100
0100
0100
0000
,
0001
0000
0001
0000
,
1000
0000
1000
0000
,
0100
0000
0100
0000
,
0010
0001
0010
0000
,
0100
0100
0100
0000
,
1000
0000
1000
0000
,
0100
0100
1000
0000
,
0001
0000
0010
0000
,
0001
0001
1000
0001
,
0100
0000
0100
0000
,
0010
0010
1000
0000
,
0001
0000
0001
0000
,
0100
0001
0100
0001
,
1000
0000
1000
0000
,
0001
0001
0010
0000
,
0001
0000
1000
0000
,
0100
0100
1000
0001
,
0100
0000
0100
0000
,
0001
0001
1000
0001
,
1000
0000
1000
0000
,
0100
1000
0001
0010
,
0100
0000
0000
0000
;
