#TITLE:Make Me Bad;
#SUBTITLE:;
#ARTIST:KoRn;
#TITLETRANSLIT:;
#SUBTITLETRANSLIT:;
#ARTISTTRANSLIT:;
#CRChallenge:;
#BANNER:bad.png;
#BACKGROUND:bad-bg.png;
#LYRICSPATH:;
#CDTITLE:;
#MUSIC:bad.ogg;
#OFFSET:0.000;
#SAMPLESTART:52.284;
#SAMPLELENGTH:12.000;
#SELECTABLE:YES;
#BPMS:0.000=110.000,136.000=111.000,142.000=104.980,143.000=116.000,144.000=106.000,146.000=110.000,175.250=106.380,178.750=111.600,182.000=110.000,189.500=113.700,191.500=110.400;
#STOPS:;
#BGCHANGES:;
#NOTES:
     dance-single:
     Renard:
     Medium:
     9:
     0.658,0.584,0.640,0.000,0.398:
0000
0000
0000
0000
,
0000
0000
0000
0000
,
0000
0000
0000
0000
,
0000
0000
0000
1011
,
0001
0100
0010
0000
1000
0000
0100
0000
1110
0000
0000
0000
1000
0000
0100
0000
,
1000
0010
0100
0001
0010
0000
0001
0000
0111
0000
0000
0000
0001
0000
0100
0000
,
0010
1000
0100
0000
0010
0000
0001
0000
0111
0000
0000
0000
0001
0000
0100
0000
,
0010
0100
0010
0000
1000
0000
0100
0000
1110
0000
0000
0000
1000
0000
0001
0000
,
0100
0000
0100
1000
0100
0000
0100
0010
0100
0000
0100
0001
0100
0000
0100
0000
,
0001
0000
0001
0010
0100
0000
0100
0010
1000
0000
1000
0010
0100
0000
0100
0010
,
0001
0000
0001
0000
0100
0000
0100
1000
0100
0000
0100
0010
0100
0000
0100
0001
,
1000
0000
1000
0100
1000
0000
1000
0010
1000
0000
1000
0001
1000
0000
0000
0000
,
0010
0000
0010
0001
0010
0000
0010
0100
0010
0000
0010
1000
0010
0000
0010
0000
,
1000
0000
1000
0100
0010
0000
0010
0100
0001
0000
0001
0100
0010
0000
0010
0100
,
1000
0000
1000
0000
0010
0000
0010
0001
0010
0000
0010
0100
0010
0000
0010
1000
,
0001
0000
0001
0010
0001
0000
0001
0100
0001
0000
0001
1000
0001
0000
1000
0000
,
0101
1010
0101
0100
1010
0100
1001
0110
,
1000
0000
0010
1000
0100
0000
0010
0001
0100
0000
0010
0000
1000
0000
0100
0000
,
0011
0100
1000
0110
0101
0010
1010
0101
,
0010
0000
1000
0100
0010
0000
0001
0010
0100
0000
1000
0000
0001
0000
0100
0000
,
1010
0100
0011
0100
1010
0100
0011
0100
,
0010
0000
1000
0100
0010
0000
0001
0010
0100
0000
1000
0000
0001
0000
0100
0000
,
0101
0010
1100
0010
0101
0010
1100
0010
,
1000
0010
0100
0001
1000
0000
1011
0000
,
1000
0000
0001
0000
1001
0000
0001
0100
0010
1000
0001
0000
1001
0000
1000
0000
,
0100
0000
0010
0000
0011
0000
0001
0010
0100
1000
0001
0000
0101
0000
0100
0000
,
0010
0000
1000
0000
1010
0000
1000
0010
0100
0001
0010
0000
0011
0000
0010
0000
,
0100
0000
1000
0000
1100
0000
1000
0010
0100
0000
1001
0000
1001
0000
1000
0000
,
0100
0000
0010
0000
0110
0000
0010
0001
0100
0010
1000
0000
1010
0000
1000
0000
,
0010
0000
0100
0000
1001
0000
0001
0100
0010
1000
0100
0000
1100
0000
1000
0000
,
0001
0000
0010
0000
0011
0000
0010
0100
1000
0001
0100
0000
0101
0000
0100
0000
,
0010
0000
1000
0000
1001
0000
1000
0100
0010
0001
1000
0000
1001
0000
0010
0000
,
1000
0000
0100
0010
0110
0000
0011
0000
,
1011
0000
0001
0100
0110
0000
1010
0000
,
1011
0000
1000
0100
0110
0000
0011
0000
,
1011
0000
0001
0100
0110
0000
1010
0000
,
1011
0000
1000
0010
0110
0000
1001
0000
,
1011
0000
1000
0010
0110
0000
1001
0000
,
1011
0000
0001
0010
0110
0000
1001
0000
,
1001
0000
1010
0000
0000
0101
0000
0000
0011
0000
1100
0000
0001
0010
0100
1000
,
0001
0000
0001
0100
0001
0000
0001
0010
0001
0000
0001
1000
0001
0000
0001
0100
,
0010
0000
0010
1000
0010
0000
0010
0001
0010
0000
0010
0100
0010
0000
0010
1000
,
0100
0000
0100
0001
0100
0000
0100
1000
0100
0000
0100
0010
0100
0000
0001
0100
,
1000
0000
1000
0010
1000
0000
1000
0001
1000
0000
1000
0100
1000
0010
1000
0000
,
0001
0000
0001
0100
0001
0000
0001
0010
0001
0000
0001
1000
0001
0000
0001
0100
,
0010
0000
0010
1000
0010
0000
0010
0001
0010
0000
0010
0100
0010
0000
0010
1000
,
0100
0000
0100
0001
0100
0000
0100
1000
0100
0000
0100
0010
0100
0000
0001
0100
,
1000
0000
1000
0010
1000
0000
1000
0001
1000
0000
1000
0100
1000
0010
1000
0000
,
0010
0000
1001
0000
0100
0000
0010
1000
0100
0000
0010
0000
0001
0000
0010
0000
,
0100
0000
1001
0000
0010
0000
0100
0001
1000
0000
0100
0000
0010
0000
0001
0000
,
0010
0000
1001
0000
0010
0000
1000
0010
0100
0000
0001
0000
0010
0000
0100
0000
,
1000
0000
0101
0000
1010
0000
0100
0001
1000
0000
1100
0000
0011
0000
1000
0001
;
#NOTES:
     dance-single:
     Renard:
     Easy:
     5:
     0.319,0.381,0.277,0.078,0.000:
0000
0000
0000
0000
,
0000
0000
0000
0000
,
0000
0000
0000
0000
,
0000
0000
0000
0000
,
0101
0000
0101
0000
0010
1000
0100
0000
,
1100
0000
1100
0000
0010
0001
0100
0000
,
0101
0000
0101
0000
0010
1000
0100
0000
,
1100
0000
1100
0000
0010
0001
0100
0000
,
0001
0000
0100
0000
0010
0000
1000
0010
,
1000
0001
0001
1000
,
0100
0000
0010
0000
0001
0000
1000
0001
,
1000
0001
0100
0010
,
1000
0000
0100
0000
1000
0001
1000
0001
,
0000
0100
0000
0010
0000
1000
0000
0000
,
0010
0000
1000
0000
0100
0000
1000
0001
,
0000
0100
0010
0000
,
1000
0001
1000
0000
0010
0000
0010
0000
,
0100
0100
0010
0100
,
0001
1000
0001
0000
0100
0000
0010
0000
,
1000
0010
0100
0001
,
1000
0000
1000
0000
0100
0000
0010
0001
,
0010
0000
0001
0000
1000
0000
0010
1000
,
0010
0100
0001
1000
,
0000
0000
0010
0100
0000
0000
1001
0000
,
0001
0000
0100
0000
0001
0100
0000
0010
,
0000
1000
0000
0100
0000
0010
0000
0001
,
0000
0010
0000
0100
0000
1000
0000
0001
,
0100
0010
0100
0010
1000
0000
0010
0000
,
1000
0000
0000
0100
0010
0001
0000
0010
,
0000
0100
0000
1000
0000
0001
0000
0100
,
0000
0010
0000
1000
0000
0010
0000
0100
,
0001
1000
0100
1000
0001
0000
0100
0000
,
0001
0001
0110
1010
,
1100
1000
1100
0110
,
0011
0001
0101
0110
,
1010
1000
1010
1001
,
1000
1000
0201
0000
,
0310
1000
0120
0000
,
0031
0010
0100
1000
1100
0000
0000
0000
,
1000
0100
0010
0001
0012
0000
0000
0000
,
1003
0010
0100
0010
,
0100
0000
0001
0000
1000
0100
1000
0000
,
0001
0000
0010
0000
0001
0000
1000
0010
,
1000
0001
0100
0110
,
1002
0000
0103
0000
0010
0000
1000
0010
,
0000
1000
0010
0000
0100
0001
0100
0000
,
0001
1000
0100
0010
,
0001
1000
0001
0000
0100
0010
0100
0000
,
1002
0103
2001
3100
,
1002
0000
0103
0000
0001
0100
0010
1000
,
0100
1200
0310
0021
,
0130
0000
1100
0000
1000
0010
0100
0001
;
#NOTES:
     dance-single:
     Renard:
     Beginner:
     3:
     0.253,0.313,0.467,0.104,0.000:
0000
0000
0000
0000
,
0000
0000
0000
0000
,
0000
0000
0000
0000
,
0000
0000
0000
0000
,
1100
1100
1100
0000
,
0011
0011
0011
0000
,
0101
0101
0101
0000
,
1010
1010
1010
0000
,
2000
0001
0000
0001
,
0000
0001
0000
0001
,
3002
1000
0000
1000
,
0000
1000
0000
1000
,
0203
0010
0000
0010
,
0000
0010
0000
0010
,
0320
0100
0000
0100
,
0000
0100
0000
0100
,
0130
0100
0001
1000
,
0100
0000
0000
0000
,
0100
0100
1000
0001
,
0100
0000
0000
0000
,
0100
0100
0100
0100
,
0020
0000
0000
0000
,
1030
1000
1000
1000
,
0002
2000
0000
3013
,
0000
1001
0000
0110
,
0000
1010
0100
0101
,
0000
0011
0000
1100
,
0000
1001
0001
0101
,
0000
0110
0000
1010
,
0000
1001
0001
0011
,
0000
0110
0000
1100
,
0000
1010
0010
0110
,
0200
0000
0001
0010
,
0301
0000
2001
0100
,
3001
0000
0210
0001
,
0310
0000
2010
0001
,
3100
0100
1100
0000
,
0010
0010
0011
0000
,
0001
0001
0101
0000
,
0010
0010
1010
0000
,
1000
1100
0010
0011
,
1000
1010
0100
0101
,
1000
1100
0010
0011
,
1000
1000
0010
0100
,
0001
0000
0001
0101
,
0100
0110
0010
1010
,
1000
1100
0100
0110
,
0010
0011
2001
0010
,
3001
0101
0000
0110
,
0000
1010
0000
1100
,
0000
0110
0000
0011
,
0000
0001
1000
0010
;
