#TITLE:Machucando;
#SUBTITLE:;
#ARTIST:Daddy Yankee;
#TITLETRANSLIT:;
#SUBTITLETRANSLIT:;
#ARTISTTRANSLIT:;
#CRChallenge:;
#BANNER:cando.png;
#BACKGROUND:cando-bg.png;
#LYRICSPATH:;
#CDTITLE:;
#MUSIC:cando.ogg;
#OFFSET:0.000;
#SAMPLESTART:44.800;
#SAMPLELENGTH:12.000;
#SELECTABLE:YES;
#BPMS:0.000=94.000;
#STOPS:;
#BGCHANGES:;
#NOTES:
     dance-single:
     Renard:
     Medium:
     11:
     0.701,0.781,0.363,0.096,1.000:
0000
0000
0000
0000
,
0000
0000
0000
0000
,
0000
0000
0000
0000
,
1000
0001
0100
0001
0010
0000
0011
0000
0001
1000
0010
1000
0100
0000
1100
0000
,
1000
0001
0100
0001
0010
0000
0011
0000
0001
1000
0010
1000
0100
0000
1100
0000
,
2000
0000
0000
0000
,
3001
0000
0001
0100
0010
0000
0110
0000
0010
0000
1000
0100
0010
0000
0110
0000
,
0010
0000
0001
0100
0010
0000
0110
0000
0010
0000
1000
0100
0010
0000
0110
0000
,
0010
0000
0001
0100
0010
0000
0110
0000
0010
0000
1000
0100
0010
0000
0110
0000
,
0010
0000
0000
0000
0001
0000
0100
0000
0010
0000
0000
0000
0110
0000
0000
0000
0010
0000
0000
0000
1000
0000
0000
0000
0001
0000
0000
0000
1000
0000
0001
1000
,
0001
0000
0100
0001
0000
0000
1000
0100
1000
0000
0001
0010
0000
0000
0001
1000
0010
0000
1000
0001
0000
0000
0100
0001
1000
0000
0100
1000
0000
0000
0001
0010
,
0001
0000
1000
0010
0000
0000
1000
0001
0010
0000
0001
1000
0000
0000
0010
1000
0001
0000
0100
0010
1000
0000
0001
0000
1000
0000
0000
0000
0001
0000
1000
0100
,
1000
0000
0001
1000
0000
0000
0001
0100
0001
0000
0010
0001
0010
0000
0100
1000
0100
0000
1000
0010
0100
0000
0001
0100
0001
0000
0010
0001
0000
0000
1000
0010
,
1000
0000
0001
0010
0000
0000
0100
1000
0001
0000
0100
0001
0000
0000
1000
0010
0100
0000
0000
0000
0001
0000
0001
0000
1000
0000
0000
0000
0001
0000
0000
0000
,
1001
0000
0000
0010
0010
0010
0000
0000
1001
0000
0000
0010
0010
0010
0100
0100
,
0001
0100
0000
0001
0100
0000
0010
0000
1000
0000
0100
0000
0001
0000
0100
0000
1000
0010
0000
1000
0010
0000
0100
0000
0001
0000
0010
0000
1000
0000
0010
0000
,
1001
0000
0000
0010
0010
0010
0000
0001
1000
0000
0000
0100
0100
0100
1000
0001
,
0100
0000
0001
0100
0010
0000
1000
0000
0010
0000
0001
0000
0010
0000
1000
0000
0010
0000
0000
0000
2000
0000
0000
0000
3002
0000
0000
0000
2003
0000
0000
0000
,
3001
1000
0001
0100
0001
0000
0010
0000
0001
1000
0010
1000
0100
0000
1000
0000
,
0001
1000
0001
0100
0001
0000
0010
0000
0001
1000
0010
1000
0100
0000
1000
0000
,
0001
0100
0010
1000
0001
0000
1001
0000
1000
0100
0010
0001
1000
0000
1001
0000
,
0001
1000
0010
1000
0100
0000
1100
0000
1000
0010
0100
0001
0010
0000
0011
0000
,
2002
0000
0000
0000
0000
0000
0000
3003
,
1000
0000
0100
1000
0000
0000
0010
1000
0001
0000
0100
0001
0000
0000
0010
0001
1000
0000
0010
1000
0000
0000
0100
1000
0010
0000
0100
0001
0000
0000
0010
0001
,
0100
0000
0010
1000
0000
0000
0010
1000
0100
0000
0010
0001
0000
0000
0100
0001
1000
0000
0100
1000
0001
0000
0100
0001
1000
0000
0100
1000
0001
0000
0100
0000
,
0001
0000
0000
0000
0000
0000
0000
0000
0000
0000
0000
0000
0001
0000
0000
0000
0000
0000
0000
0000
0000
0000
0000
0000
1000
0000
0000
0000
0000
0000
0000
0000
0100
0000
0000
0000
0000
0000
0000
0000
0010
0000
0000
0000
0000
0000
0000
0000
0001
0000
0000
0000
0000
0000
0000
0000
0000
0000
0000
0000
1000
0000
0000
0000
0000
0000
0001
0000
0000
0000
0000
0000
0000
0000
0000
0000
0000
0000
0000
0000
0000
0000
0000
0000
1000
0000
0000
0000
0000
0000
0000
0000
0000
0000
0000
0000
0001
0000
0000
0000
0000
0000
0010
0000
0000
0000
0000
0000
0100
0000
0000
0000
0000
0000
1000
0000
0000
0000
0000
0000
0001
0000
0000
0000
0000
0000
0000
0000
0000
0000
0000
0000
1000
0000
0000
0000
0000
0000
0000
0000
0000
0000
0000
0000
0010
0000
0000
0000
0000
0000
0000
0000
0000
0000
0000
0000
1000
0000
0000
0000
0000
0000
0010
0000
0000
0000
0000
0000
0000
0000
0000
0000
0000
0000
0000
0000
0000
0000
0000
0000
0100
0000
0000
0000
0000
0000
0000
0000
0000
0000
0000
0000
,
0001
0001
1000
1000
0001
0001
0010
0000
0100
0000
1000
0001
0100
0000
0110
0000
,
1001
0000
0000
0100
0100
0100
0000
0000
1001
0000
0000
0010
0010
0010
0100
0100
,
0001
0000
0100
0001
0100
0000
0010
0000
1000
0000
0100
0000
0001
0000
0100
0000
1000
0010
0000
1000
0010
0000
0100
0000
0001
0000
0010
0000
1000
0000
0010
0000
,
1001
0000
0000
0010
0010
0010
0000
0001
1000
0000
0000
0100
0100
0100
1000
0001
,
0100
0000
0001
0100
0010
0000
1000
0000
0010
0000
0001
0000
0010
0000
1000
0000
0010
0000
0000
0000
2000
0000
0000
0000
3002
0000
0000
0000
2003
0000
0000
0000
,
3001
0010
0100
1000
0001
0000
1001
0000
1000
0100
0010
0001
1000
0000
1001
0000
,
0001
0100
0010
1000
0001
0000
1001
0000
1000
0010
0100
0001
1000
0000
1001
0000
,
0001
0010
0001
0100
0001
0000
0101
0000
0001
1000
0010
1000
0100
0000
1100
0000
,
1000
0010
0100
0001
0010
0000
0011
0000
0001
0100
0010
1000
0100
0010
0001
1000
,
0020
0000
0000
0000
,
1030
0010
0100
0001
0010
0000
0011
0000
0001
0010
0100
1000
0010
0000
1010
0000
,
1000
0010
0100
0001
0010
0000
0011
0000
0001
0100
0010
1000
0100
0000
1100
0000
,
0100
1000
0010
0100
0001
0000
0101
0000
0100
0001
0010
0100
1000
0000
1100
0000
,
1000
0010
0100
0001
0010
0000
0011
0000
0001
0100
0010
1000
0100
0000
1010
0000
;
#NOTES:
     dance-single:
     Renard:
     Easy:
     4:
     0.281,0.323,0.010,0.019,0.000:
0000
0000
0000
0000
,
0000
0000
0000
0000
,
0000
0000
0000
0000
,
0001
1000
0001
0100
0001
1000
0001
0100
,
0001
1000
0100
1000
0001
1000
0100
1000
,
0002
0000
0000
0000
,
1003
0100
1000
0100
0010
0001
0010
0001
,
1000
0100
1000
0100
0010
0001
0010
0001
,
1000
0100
1000
0100
0010
0001
0010
0001
,
1000
0100
0010
0001
1000
0001
1000
0000
,
0001
0001
0100
0100
0001
0000
0001
0000
,
1000
1000
0100
0100
1000
0000
0100
0000
,
0010
0010
0001
0001
0010
0010
0001
0000
,
1000
1000
0010
0010
1000
1000
0010
0000
,
0100
0100
0001
0000
0100
0000
0001
0000
,
1000
1000
0010
0000
1000
0000
0010
0000
,
1000
1000
0100
0000
1000
0000
0100
0000
,
0010
0010
0001
0000
1000
0000
0000
0000
,
0001
0100
0001
0000
0100
0001
0100
0000
,
0001
1000
0001
0000
1000
0001
1000
0000
,
0100
1000
0100
0000
1000
0100
1000
0000
,
0001
1000
0001
0000
0100
0010
0100
0000
,
1002
0000
0000
0000
,
1003
0000
1000
0000
0100
1000
0100
0000
,
1000
0000
1000
0000
0001
1000
0001
0000
,
0100
0000
0100
0000
0001
0100
0001
0000
,
1000
0000
1000
0000
0001
1000
0010
0000
,
1000
0000
1000
0000
0010
0010
0010
0000
,
0100
0000
0100
0000
0001
0001
0001
0000
,
1000
0000
1000
0000
0100
0100
0100
0000
,
0010
0010
0010
0000
,
0001
1000
0001
0000
1000
0001
1000
0000
,
0010
0100
0010
0000
0100
0010
0100
0000
,
0001
1000
0001
0000
1000
0001
1000
0000
,
0100
1000
0100
0000
1000
0001
1000
0001
,
0100
0000
0000
0000
,
0001
0000
0001
0100
0010
0000
0010
0000
,
1000
0000
1000
0100
0010
0000
0010
0000
,
0001
0000
0001
1000
0010
0000
0010
0000
,
0100
0000
0100
0001
1000
0100
0010
0000
;
#NOTES:
     dance-single:
     Renard:
     Beginner:
     2:
     0.141,0.171,0.010,0.057,0.000:
0000
0000
0000
0000
,
0000
0000
0000
0000
,
0000
0000
0000
0000
,
1000
0000
1000
0000
,
0001
0000
0001
0000
,
0100
0000
0000
0000
,
0010
0010
0010
0000
,
0100
0100
0100
0000
,
0001
0001
0001
0000
,
1000
1000
1000
0000
,
0010
0000
0010
0000
,
0100
0000
0100
0000
,
0001
0000
0001
0000
,
1000
0000
1000
0000
,
0010
0000
0010
0000
,
0010
0000
0010
0000
,
0100
0000
0100
0000
,
0001
1000
0001
0000
,
1000
0000
1000
0000
,
0010
1000
0001
0000
,
0010
0000
0010
0000
,
0001
1000
0001
0100
,
0001
0000
0000
0000
,
2000
3001
0000
0001
,
0002
1003
0000
1000
,
2000
3001
0000
0001
,
0002
1003
0000
1000
,
0010
0000
0100
0000
,
0010
0100
0010
0010
,
1000
0000
0001
0000
,
1000
0000
0000
0000
,
0001
0001
0001
0000
,
0100
0100
0100
0000
,
0010
0010
0010
0000
,
1000
1000
1000
0001
,
2002
0000
0000
3003
,
1000
1000
0001
0001
,
0100
0100
0010
0000
,
0010
0010
1000
1000
,
0001
0100
0010
1000
;
