#TITLE:Machucando EX;
#SUBTITLE:;
#ARTIST:Daddy Yankee;
#TITLETRANSLIT:;
#SUBTITLETRANSLIT:;
#ARTISTTRANSLIT:;
#CRChallenge:;
#BANNER:cando.png;
#BACKGROUND:cando-bg.png;
#LYRICSPATH:;
#CDTITLE:;
#MUSIC:cando1.ogg;
#OFFSET:0.000;
#SAMPLESTART:44.800;
#SAMPLELENGTH:12.000;
#SELECTABLE:NO;
#BPMS:0.000=94.000,40.000=47.000,55.000=94.000,77.000=47.000,92.000=94.000;
#STOPS:;
#BGCHANGES:;
#NOTES:
     dance-single:
     Renard:
     Hard:
     13:
     0.812,1.000,0.449,0.096,1.000:
0000
0000
0000
0000
,
0000
0000
0000
0000
,
0000
0000
0000
0000
,
1000
0001
0100
0001
0010
0000
0011
0000
0001
1000
0010
1000
0100
0000
1100
0000
,
1000
0001
0100
0001
0010
0000
0011
0000
0001
1000
0010
1000
0100
0000
1100
0000
,
2000
0000
0000
0000
,
3001
0000
0001
0100
0010
0000
0110
0000
0010
0000
1000
0100
0010
0000
0110
0000
,
0010
0000
0001
0100
0010
0000
0110
0000
0010
0000
1000
0100
0010
0000
0110
0000
,
0010
0000
0001
0100
0010
0000
0110
0000
0010
0000
1000
0100
0010
0000
0110
0000
,
0010
0000
0000
0000
0001
0000
0100
0000
0010
0000
0000
0000
0110
0000
0000
0000
0010
0000
0000
0000
1000
0000
0000
0000
0001
0000
0000
0000
1000
0000
0001
1000
,
0001
0100
0001
0100
0010
1000
0010
1000
0001
0100
0001
0100
0010
1000
0010
1000
0001
0100
0001
0100
0001
1000
0001
1000
0100
1000
0100
1000
0001
0010
0001
0010
0100
1000
0100
1000
0001
1000
0001
1000
0001
0100
0001
0100
0010
1000
0010
1000
0001
0100
0010
1000
0001
0000
0001
0000
1000
0000
0000
0000
0001
0000
1000
0100
,
1000
0100
1000
0100
0010
0001
0010
0001
1000
0010
1000
0010
0100
0001
0100
0001
1000
0001
1000
0001
0010
0001
0010
0001
1000
0100
1000
0100
0010
0001
0010
0001
0100
0001
0100
0001
1000
0010
1000
0010
0100
0001
0100
0001
1000
0100
1000
0100
0010
0000
0000
0000
0001
0000
0001
0000
1000
0000
0000
0000
0001
0000
0000
0000
,
1001
0000
0000
0000
0000
0000
0010
0000
0010
0000
0010
0000
0000
0000
0000
0000
1001
0000
0000
0000
0000
0000
0010
0000
0010
0000
0010
0000
0100
0000
0100
0000
0001
0100
0000
0001
0100
0000
0010
0000
1000
0000
0100
0000
0001
0000
0100
0000
1000
0010
0000
1000
0010
0000
0100
0000
0001
0000
0010
0000
1000
0000
0010
0000
,
1001
0000
0000
0000
0000
0000
0010
0000
0010
0000
0010
0000
0000
0000
0001
0000
1000
0000
0000
0000
0000
0000
0100
0000
0100
0000
0100
0000
1000
0000
0001
0000
0100
0000
0001
0100
0010
0000
1000
0000
0010
0000
0001
0000
0010
0000
1000
0000
0010
0000
0000
0000
0000
0000
0000
0000
2000
0000
0000
0000
0000
0000
0000
0000
,
3002
0000
2003
0000
3001
1000
0001
0100
0001
0000
0010
0000
0001
1000
0010
1000
,
0100
0000
1000
0000
0001
1000
0001
0100
0001
0000
0010
0000
0001
1000
0010
1000
,
0100
0000
1000
0000
0001
0100
0010
1000
0001
0000
1001
0000
1000
0100
0010
0001
,
1000
0000
1001
0000
0001
1000
0010
1000
0100
0000
1100
0000
1000
0010
0100
0001
,
0010
0011
2002
0000
0000
0000
0000
0000
,
0000
0000
0000
0000
0000
0000
0000
0000
3003
0000
0000
0000
0000
0000
0000
0000
1000
0100
1000
0100
0010
0001
0010
0001
1000
0010
1000
0010
0100
0001
0100
0001
1000
0001
1000
0001
0100
0001
1000
0001
1000
0100
1000
0100
1000
0001
1000
0001
0100
0001
1000
0100
0010
0001
1000
0001
0100
0010
1000
0001
0100
0010
1000
0100
,
0010
0001
0010
0001
1000
0100
0010
0001
1000
0001
1000
0001
1000
0000
0001
0010
0100
1000
0100
1000
0001
0010
0001
0010
0001
0100
0001
0100
0010
1000
0010
1000
0100
1000
0100
1000
0001
1000
0001
1000
0001
0100
0001
0100
0001
0010
0001
0010
0100
1000
0100
1000
0001
1000
0001
1000
0010
0100
0010
0100
0001
0100
0001
0100
,
0001
0000
1000
0000
0010
0000
0100
0000
0110
0000
0000
0000
1001
0000
0000
0000
1001
0000
0000
0000
0000
0000
0100
0000
0100
0000
0100
0000
0000
0000
0000
0000
1001
0000
0000
0000
0000
0000
0010
0000
0010
0000
0010
0000
0100
0000
0100
0000
0001
0000
0100
0001
0100
0000
0010
0000
1000
0000
0100
0000
0001
0000
0100
0000
,
1000
0010
0000
1000
0010
0000
0100
0000
0001
0000
0010
0000
1000
0000
0010
0000
1001
0000
0000
0000
0000
0000
0010
0000
0010
0000
0010
0000
0000
0000
0001
0000
1000
0000
0000
0000
0000
0000
0100
0000
0100
0000
0100
0000
1000
0000
0001
0000
0100
0000
0001
0100
0010
0000
1000
0000
0010
0000
0001
0000
0010
0000
1000
0000
,
0010
0000
2000
0000
3002
0000
2003
0000
3001
0010
0100
1000
0001
0000
1001
0000
,
1000
0100
0010
0001
1000
0000
1001
0000
0001
0100
0010
1000
0001
0000
1001
0000
,
1000
0010
0100
0001
1000
0000
1001
0000
0001
0010
0001
0100
0001
0000
0101
0000
,
0001
1000
0010
1000
0100
0000
1100
0000
1000
0010
0100
0001
0010
0000
0011
0000
,
0001
0100
0010
1000
0100
0010
0001
1000
0020
0000
0000
0000
0000
0000
0000
0000
,
0000
0000
0000
0000
0000
0000
0000
0000
1030
0000
0001
0100
0101
0000
0110
0000
,
0010
0000
1000
0100
0110
0000
0011
0000
0010
0000
0100
1000
1001
0000
0101
0000
,
0100
0000
0010
1000
1010
0000
1001
0000
1000
0000
0100
0010
0011
0000
0110
0000
,
0100
0000
1000
0010
1010
0000
0110
0000
0100
0000
0010
1000
1001
0000
0011
0000
,
0010
0000
0100
1000
1001
0000
0101
0000
0000
0000
0000
0000
0000
0000
0000
0000
;
