#TITLE:MIDI Surf;
#SUBTITLE:;
#ARTIST:The Mad Capsule Markets;
#TITLETRANSLIT:;
#SUBTITLETRANSLIT:;
#ARTISTTRANSLIT:;
#CRChallenge:;
#BANNER:surf.png;
#BACKGROUND:surf-bg.png;
#LYRICSPATH:;
#CDTITLE:;
#MUSIC:surf.ogg;
#OFFSET:0.000;
#SAMPLESTART:31.055;
#SAMPLELENGTH:12.000;
#SELECTABLE:YES;
#BPMS:0.000=185.000;
#STOPS:;
#BGCHANGES:;
#NOTES:
     dance-single:
     Renard:
     Medium:
     9:
     0.661,0.690,0.615,0.147,0.119:
0000
0000
0000
0000
,
0000
0000
0000
0000
,
0000
0000
0000
0000
,
0000
0000
0000
0000
,
0011
0000
0101
0000
0010
1000
0100
0000
,
0010
0001
0100
0000
0010
1000
0100
0000
,
0100
1000
0010
0000
0100
0001
0010
0000
,
0100
1000
0010
0000
0100
0001
0010
0000
,
0011
0000
0011
0000
0100
0010
0100
0000
,
1100
0000
1100
0000
0100
0010
0100
0000
,
0011
0000
0011
0000
0010
0100
0010
0000
,
0100
1000
0100
0000
0010
0001
0010
0000
,
1100
0000
1100
0000
0100
0010
0100
0000
,
0011
0000
0011
0000
0010
0100
0010
0000
,
1100
1100
1001
0100
,
1010
0000
0100
0000
0011
0000
0001
0010
,
0100
1000
0010
0100
0000
0001
0010
0100
,
1000
0100
1000
0001
0000
0100
0001
0010
,
0100
1000
0001
0010
0000
0001
0100
0010
,
1000
0001
0010
0001
0000
0100
0010
1000
,
0100
0000
0011
0000
0100
0000
0010
0000
1010
0000
0100
0000
,
0011
0000
0100
0000
0010
0000
1010
0000
0000
0010
0000
0000
,
1000
0100
0010
0001
0100
0010
1000
0100
,
0010
0001
0000
0011
0000
0010
0001
0000
,
1100
0000
0010
0001
0011
0000
0001
0100
,
0101
0010
0000
0110
0000
0000
1010
0000
,
0010
1000
0100
1000
0000
0001
0010
0001
,
0100
0010
1000
0001
0100
0010
1000
0100
,
0010
0000
0001
0000
1000
0000
0000
0000
1010
0000
0000
0100
0000
0000
0010
0000
,
0101
0000
0000
0010
0000
0000
1000
0000
0101
0000
0000
1000
0000
0000
0001
0000
,
0010
0100
1000
0001
0000
1000
0100
0010
,
0001
1000
0010
0100
0000
0001
1000
0000
,
0012
0000
1000
0000
0100
0000
0010
0010
,
0100
1000
0010
0103
,
0101
0110
1010
1100
,
0110
0000
0001
0010
0100
1000
0001
0000
,
2010
0000
0100
0000
0001
0000
0010
0010
,
0001
0000
0100
0000
0010
0000
0001
3001
,
1000
1100
0011
0110
,
1001
0000
1000
0100
0010
0001
1000
0000
,
0001
0001
0000
0010
0010
0000
0100
0100
,
0000
1000
1000
0000
0020
0000
0000
0000
,
0130
0100
0000
0001
0001
0000
1000
1000
,
0000
0100
0100
0000
0020
0000
0000
0000
,
0031
0001
0000
1000
1000
0000
0100
0100
,
0000
1000
1000
0000
0002
0000
0000
0000
,
0103
0100
0000
0010
0010
0000
1000
1000
,
0000
0100
0100
0000
0020
0000
0000
0000
,
0031
0010
0001
0010
0001
0010
0001
0010
,
0001
0010
0001
0010
0001
0000
2000
0000
0000
0000
0000
0000
0000
0000
0000
0000
,
3100
1000
0100
1000
0100
1000
0100
1000
,
0100
1000
0100
1000
0100
0000
2000
0000
0000
0000
0000
0000
0000
0000
0000
0000
,
3010
1000
0010
1000
0010
1000
0010
1000
,
0010
1000
0010
1000
0010
0000
2000
0000
0000
0000
0000
0000
0000
0000
0000
0000
,
3001
0100
0001
0100
0001
0100
0001
0100
,
0001
0100
0001
0100
0001
0000
2000
0000
0000
0000
0000
0000
0000
0000
3000
0000
,
0011
0101
0011
0101
,
1010
1100
1010
1100
,
0011
0101
1010
1100
,
0011
0000
0000
0000
0101
0000
0000
0000
1010
0000
0000
0000
1000
0001
1000
0000
,
0002
0000
0010
0000
1000
0100
0000
1000
,
0000
0000
0010
0000
1000
0100
0000
1003
,
0001
0000
0100
0000
0010
1000
0100
0000
,
1100
0000
0010
0001
0010
0100
1000
0000
,
2100
0000
0010
0000
0001
0100
0000
0001
,
0000
0000
0010
0000
0001
0100
0000
0001
,
3001
0000
1000
0100
0010
0001
1000
0000
,
0101
0000
0001
0100
0010
1000
0100
0000
,
0200
0000
0001
0000
0010
1000
0000
0010
,
0000
0000
0001
0000
0010
1000
0000
0310
,
0100
0000
1000
0000
0001
0010
1000
0000
,
1010
0000
0001
0100
0001
1000
0010
0000
,
1020
0000
0001
0000
0100
1000
0000
0100
,
0000
0000
0001
0000
0100
1000
0000
0100
,
0130
0000
0010
1000
0001
0100
0010
0000
,
1100
0000
0100
1000
0001
0010
1000
0000
,
1001
0000
0000
0000
0010
0000
0000
1000
0000
1000
0100
0000
0010
0000
0000
0000
,
0001
0000
0000
0000
0101
0000
0000
0001
0000
0001
1000
0000
0100
0000
0000
0000
,
1000
0000
0000
0000
1001
0000
0000
0100
0000
0100
0010
0000
1000
0000
0000
0000
,
0100
0000
0000
0000
0011
0000
0000
0010
0000
0010
0100
0000
1000
0000
0000
0000
,
0202
0000
0000
0000
,
0000
0000
0000
0000
,
0000
0000
0000
0000
,
0000
0000
0303
0000
;
#NOTES:
     dance-single:
     Renard:
     Easy:
     6:
     0.429,0.498,0.119,0.202,0.000:
0000
0000
0000
0000
,
0000
0000
0000
0000
,
0000
0000
0000
0000
,
0000
0000
0000
0000
,
0001
0000
0100
0000
0001
0010
0001
0000
,
1000
0000
0100
0000
1000
0010
1000
0000
,
0001
0000
0100
0000
0001
0010
0001
0000
,
1000
0000
0100
0000
1000
0010
1000
0000
,
0002
0000
1003
1000
,
0020
0000
0130
0100
,
0002
0000
1003
1000
,
0001
0010
0001
0010
0001
0000
1000
0000
,
0020
0000
0130
0100
,
0002
0000
1003
1000
,
0200
0000
0310
0010
,
0001
1000
0001
1000
0001
0000
1000
0000
,
0010
0110
0000
0010
,
0100
0000
0000
0001
1000
0000
0001
0000
,
1000
0000
0100
0000
0000
0010
0001
0000
,
1000
0000
0010
0000
1000
0010
1000
0000
,
0001
0100
0010
1000
,
0001
1000
0001
1000
0001
0000
0000
0000
,
1000
0100
0010
0001
,
1000
0001
0000
1000
0000
0001
1000
0000
,
0001
0000
0001
0000
0001
0000
0100
0010
,
0100
0010
0000
0110
0000
0000
0000
0000
,
0010
0000
1000
0100
,
0010
0000
0001
0000
1000
0000
0001
1000
,
0001
1000
0010
0010
,
0100
0100
0001
0001
,
1100
0000
1000
0001
,
0100
0000
0010
0000
1000
0010
1000
0000
,
0002
1000
0000
0100
,
0000
0000
1000
0000
0000
0000
0000
0003
,
1000
1000
0001
0100
,
0010
1000
0010
1000
0010
1000
0010
0000
,
2000
0010
0000
0001
,
0000
0000
0100
0000
0000
0000
0000
3000
,
0001
0000
1000
0000
0010
1000
0010
0000
,
1000
0001
1000
0001
1000
0000
0001
0000
,
0200
0000
0310
0000
,
0100
0100
1001
0000
,
0020
0000
0130
0000
,
0100
0100
1001
0000
,
0200
0000
0310
0000
,
0100
0100
1001
0000
,
0020
0000
0130
0000
,
1001
0100
1010
0000
,
1002
1000
1000
1000
,
1000
0000
1003
0020
0000
0000
0000
0030
,
1002
1000
1000
1000
,
1000
0000
1003
0200
0000
0000
0000
0300
,
1002
1000
1000
1000
,
1000
0000
1003
0020
0000
0000
0000
0030
,
1002
0000
0000
0000
,
0000
0000
0000
0203
0000
0000
0000
0000
,
0301
0000
0000
0000
1000
0100
1000
0000
,
0001
0000
0000
0000
1000
0100
1000
0000
,
0001
0000
0000
0000
1000
0100
1000
0000
,
0001
1000
0001
0000
0010
0000
0010
0000
,
1000
0000
0010
0000
1000
0010
1000
0000
,
0010
1000
0010
1000
,
0001
0000
0100
0000
0001
0100
0001
0000
,
0010
0100
1000
0010
,
0100
0000
0100
0000
0001
0100
0001
0000
,
0100
0001
0100
0001
,
1000
0000
0010
0000
1000
0010
1000
0000
,
0001
1000
0010
0001
,
0100
0100
0010
0010
,
1000
0010
0001
0100
,
0010
0010
1000
0010
,
0001
0100
0100
0100
,
0010
1000
0100
0010
,
0001
0100
1000
0010
,
0001
0100
0010
1000
,
0100
1000
0100
1000
0001
1000
0001
1000
,
0010
0000
1000
0000
,
0010
0000
1000
0000
,
0010
0000
1000
0000
,
0010
1000
0010
1000
0001
0100
0010
0000
,
0202
0000
0000
0000
,
0000
0000
0000
0000
,
0000
0000
0000
0000
,
0000
0000
0303
0000
;
#NOTES:
     dance-single:
     Renard:
     Beginner:
     3:
     0.303,0.345,0.165,0.073,0.000:
0000
0000
0000
0000
,
0000
0000
0000
0000
,
0000
0000
0000
0000
,
0000
0000
0000
0000
,
1000
0000
1000
0000
,
0001
0000
0001
0000
,
0100
0000
0100
0000
,
0010
0000
0010
0000
,
1000
1000
0010
0000
,
0100
0100
0001
0000
,
0010
0010
0001
0000
,
1000
0000
0100
0000
,
0010
0010
0001
0000
,
1000
1000
0010
0000
,
0100
0100
0001
0000
,
1000
0000
0100
0000
,
1000
0001
0000
0100
,
0000
0010
1000
0010
,
0100
0001
0000
1000
,
0000
0100
0010
0001
,
0010
0100
0000
1000
,
0000
0001
0010
0001
,
1000
0010
0100
0010
,
1000
0000
0000
0000
,
1000
0000
1000
0000
,
0010
0010
0100
0000
,
0001
0000
0010
0000
,
0100
1000
0100
0000
,
1000
0000
0010
0000
,
1000
1000
0001
0000
,
0010
0000
0001
0000
,
0010
0010
0100
0000
,
1002
0000
0100
0000
,
1000
0000
0100
0000
,
1003
1000
0001
0001
,
0100
0000
0100
0000
,
2001
0000
0001
0000
,
0100
0000
0100
0000
,
3001
0001
1000
1000
,
0100
0000
0100
0000
,
1000
0000
1001
0000
,
0001
0100
0101
0000
,
0001
0000
1001
0000
,
0001
1000
1100
0000
,
1000
0000
1001
0000
,
0001
0100
0101
0000
,
0001
0000
1001
0000
,
1000
0100
1100
0000
,
1000
0100
0010
0001
,
1000
0000
1001
0000
,
0001
0010
0100
1000
,
0001
0000
1001
0000
,
1000
0010
0100
0001
,
1000
0000
1001
0000
,
0001
0100
0010
1000
,
1001
0000
0001
0000
,
1000
0000
1000
1000
,
0100
0000
0100
0100
,
0010
0000
0010
0010
,
0001
0000
0001
0000
,
1000
0010
1000
0010
,
1000
0010
1000
0010
,
0100
0000
0100
0100
,
0010
0000
0010
0010
,
0100
0001
0100
0001
,
0100
0001
0100
0001
,
0100
0000
0100
0100
,
0010
0000
0010
0010
,
1002
0000
1003
0000
,
0010
1000
0001
0000
,
0100
0100
0010
0010
,
0100
0100
0010
0000
,
1002
0000
0103
0000
,
0100
0010
1000
0000
,
1002
1000
0100
0100
,
1000
0000
1000
0000
,
2003
0000
0000
0000
,
0000
0000
0000
0000
,
0000
0000
0000
0000
,
3010
0100
0001
1000
,
0220
0000
0000
0000
,
0000
0000
0000
0000
,
0000
0000
0000
0000
,
0000
0000
0330
0000
;
