#TITLE:Lune Noir;
#SUBTITLE:;
#ARTIST:Sonitus Vir feat Emily Smith;
#TITLETRANSLIT:;
#SUBTITLETRANSLIT:;
#ARTISTTRANSLIT:;
#CRChallenge:;
#BANNER:lune-banner.avi;
#BACKGROUND:lune-bg.png;
#LYRICSPATH:;
#CDTITLE:!cdtitle.png;
#MUSIC:lune.ogg;
#OFFSET:0.000;
#SAMPLESTART:23.608;
#SAMPLELENGTH:12.000;
#SELECTABLE:YES;
#BPMS:0.000=100.046,39.500=200.091,104.000=100.046,120.000=200.091,136.000=100.046,149.000=200.091,151.000=100.046,163.000=200.091;
#STOPS:39.500=0.150
,148.000=1.199
,163.000=0.300
;
#BGCHANGES:;
#NOTES:
     dance-single:
     Renard:
     Medium:
     12:
     0.872,0.966,0.452,0.241,0.684:
0000
0000
0000
0000
,
0001
0010
0100
1000
0001
0010
0100
1000
0001
0010
0100
1000
0001
0000
0000
0000
0101
0000
1010
0000
1001
0000
0000
0000
0000
0000
0000
0000
0000
0000
0000
0000
,
0100
0000
0000
0000
,
1000
0100
0010
0001
1000
0100
0010
0001
1000
0100
0010
0000
0000
0000
0000
0000
1010
0000
0101
0000
1001
0000
0000
0000
0000
0000
0000
0000
0000
0000
0000
0000
,
0111
0000
0000
0000
0000
0000
0000
0000
0000
0000
0000
0000
0000
0000
0001
0000
0100
0000
0010
0000
0000
0000
0000
0000
1000
0000
0000
0010
0000
0000
1000
0000
0001
0000
0100
0000
0010
0000
1000
0000
0101
0000
0000
0000
0000
1001
0000
0000
,
0000
0000
0000
0000
0000
0000
0000
0000
1010
0000
0000
0000
0000
0000
0000
0000
0000
0000
0000
0000
0000
0000
0000
0000
0101
0000
0000
0000
0000
0000
0000
0000
0000
0000
0000
0000
0000
0000
0000
0000
0000
0000
0000
0000
0000
0000
0000
0000
1001
0000
0000
0000
0000
0000
0000
0000
0000
0000
0000
0000
0000
0000
0000
0000
0000
0000
0000
0000
0000
0000
0000
0000
0000
0000
0000
0000
0000
0000
0000
0000
0000
0000
0000
0000
0001
0000
0000
0000
0000
0000
0100
0000
0000
0000
0000
0000
0010
0000
0000
0000
0000
0000
0000
0000
0000
0000
0000
0000
0000
0000
0000
0000
0000
0000
0000
0000
0000
0000
0000
0000
0000
0000
0000
0000
0000
0000
0000
0000
0000
0000
0000
0000
0000
0000
0000
0000
0000
0000
0000
0000
0000
0000
0000
0000
0000
0000
0000
0000
0000
0000
0000
0000
0000
0000
0000
0000
0000
0000
0000
0000
0000
0000
0000
0000
0000
0000
0000
0000
0000
0000
0000
0000
0000
0000
0000
0000
0000
0000
0000
0000
0000
0000
0000
0000
0000
0000
0000
0000
0000
0000
0000
0000
,
0001
0010
0001
1000
0001
0100
0001
1000
0100
0000
0000
0000
0000
0000
1100
0000
0000
0000
0000
0000
0011
0000
0000
0000
2002
0000
0000
0000
0000
0000
0000
0000
,
0000
0000
0000
3003
0000
0000
0000
0000
,
1000
0000
0000
0000
0000
0000
0000
0000
0000
0000
0000
0000
0100
0000
0000
0000
0000
0000
0000
0000
0000
0000
0000
0000
0010
0000
0000
0000
0000
0000
0000
0000
0001
0000
0000
0000
0000
0000
0000
0000
1000
0000
0000
0000
0000
0000
0000
0000
0100
0000
0000
0000
0000
0000
0000
0000
0000
0000
0000
0000
0000
0000
0000
0000
0000
0000
0000
0000
0000
0000
0000
0000
0000
0000
0000
0000
0000
0000
0000
0000
0000
0000
0000
0000
0100
0000
0000
0000
0000
0000
1000
0000
0000
0000
0000
0000
0100
0000
0000
0000
0000
0000
0000
0000
0000
0000
0000
0000
0000
0000
0000
0000
0000
0000
0000
0000
0000
0000
0000
0000
0010
0000
0000
0000
0000
0000
0000
0000
0001
0000
0000
0000
0000
0000
0000
0000
1000
0000
0000
0000
0000
0000
0000
0000
0100
0000
0000
0000
0000
0000
0000
0000
0000
0000
0000
0000
0000
0000
0000
0000
0000
0000
0000
0000
0000
0000
0000
0000
0010
0000
0000
0000
0000
0000
0000
0000
0000
0000
0000
0000
0000
0000
0000
0000
0000
0000
0000
0000
0000
0000
0000
0000
,
0001
0010
0001
0010
0001
0100
0001
0100
0010
1000
0100
0010
0001
0000
1001
0000
,
0001
0000
0100
0001
1000
0000
0100
0000
1000
0000
0010
0000
0100
0000
0001
0000
,
1010
0000
0100
0000
0001
0000
0010
0000
1100
0000
0010
0000
0001
1000
0001
0100
,
0010
0000
1000
0100
1000
0000
0010
0000
0100
0000
0001
0000
0010
0000
0001
0000
,
1000
0000
1000
0000
0100
0000
0100
0000
0010
0000
0001
0000
1000
0100
0010
0001
,
1000
0000
0010
1000
0001
0000
0010
0000
0001
0000
0100
0000
0010
0000
1000
0000
,
0101
0000
0010
0000
1000
0000
0100
0000
0011
0000
0100
0000
1000
0001
1000
0010
,
0100
0000
0001
0010
0001
0000
0100
0000
0010
0000
1000
0000
0100
0000
1000
0000
,
0001
0010
0001
0010
0001
0010
0001
0010
0001
0010
0100
1000
0100
0000
0000
0000
,
1000
0000
0100
0010
0001
0000
0010
0000
0001
0000
1000
0000
0010
0000
0001
0000
,
0010
1000
0010
0100
0001
0010
0100
1000
,
0100
0000
1000
0001
0010
0000
0100
0000
1000
0000
0100
0000
0001
0000
0100
0000
,
0010
0001
0010
1000
1010
0000
0011
0000
,
1000
0000
0100
0010
0001
0000
0010
0000
0001
0000
1000
0000
0010
0000
0001
0000
,
0010
1000
0010
0100
0001
0010
1000
0010
,
0001
0000
1000
0100
0010
0000
0001
0000
1000
0000
0100
0000
0001
0000
0100
0000
,
0010
0001
0010
1000
1010
0000
0011
0000
,
0011
0000
0000
0000
0000
0000
0010
0000
0000
0100
0000
0000
1000
0000
0000
0000
0000
0000
0010
0000
0000
0000
0000
0000
0110
0000
0000
0000
0000
0000
0010
0000
1000
0000
0001
0000
0100
0000
0000
0000
0000
0000
0100
0000
0000
0000
0000
0000
,
1010
0000
0100
0001
0101
0000
0001
0010
0011
0000
0000
0000
0100
0000
0000
0000
,
1100
0000
0000
0000
0000
0000
0010
0000
0000
0001
0000
0000
0100
0000
0000
0000
0000
0000
0010
0000
0000
0000
0000
0000
0110
0000
0000
0000
0000
0000
0100
0000
0001
0000
1000
0000
0100
0000
0000
0000
0000
0000
1100
0000
0000
0000
0000
0000
,
0011
0000
0001
0010
0011
0000
0100
1000
1100
0010
0001
0010
1100
0000
1000
0000
,
0100
1000
0100
1000
0100
0000
1000
0000
0001
0010
0001
0010
0001
0000
0010
0000
,
0001
0100
0001
0100
0001
0000
0100
0000
0101
0000
0000
0000
1010
0000
0000
0000
,
0010
1000
0010
1000
0010
0000
1000
0000
0001
0100
0001
0100
0001
0000
0100
0000
,
0010
1000
0010
1000
0010
0000
1000
0000
0010
0000
0010
0000
0100
0000
0100
0000
,
0002
0103
2000
3100
0002
0013
2000
3010
,
0002
0013
0200
0301
0200
1300
0020
0031
,
0020
0130
2000
3100
0002
0103
0020
1030
,
0001
0000
1000
0100
0010
0001
2000
3100
,
0002
0103
2000
3010
0002
0013
0200
0301
,
2000
3100
0002
0103
0020
0031
0020
1030
,
0020
0000
0000
0000
0000
0000
0130
0000
0000
1000
0000
0000
0001
0000
0000
0100
0000
0000
0001
0000
0100
0000
0010
0000
1000
0000
0000
0000
0000
0000
0000
0000
0000
0000
0000
0000
0000
0000
0000
0000
0000
0000
0000
0000
0000
0000
0000
0000
,
1000
0000
0100
0000
0010
0000
0001
0000
0000
0000
0000
0000
1000
0000
0000
0100
0000
0000
0010
0000
0001
0000
0010
0000
,
0100
0000
0000
0000
1000
0000
0000
0000
1100
0000
0000
0000
0000
0000
0000
0000
0000
0000
0000
0000
0000
0000
0000
0000
1000
0000
0000
0000
0000
0000
0100
0000
0000
0010
0000
0000
0001
0000
0000
0000
0000
0000
0010
0000
0000
0000
0000
0000
,
0001
1000
0010
0001
0010
1000
0010
0100
,
0001
0000
0010
0000
0100
0000
1000
0000
0100
0000
1000
0001
0010
0000
0100
0000
,
1000
0100
0001
0100
0010
0001
0010
1000
,
1010
0000
0000
0000
0011
0000
0000
0000
1000
0000
0100
0010
0001
0000
0010
0000
,
0001
1000
0010
0001
0010
1000
0010
0100
,
0001
0000
0010
0000
1000
0000
0010
0000
0001
0000
1000
0100
0010
0000
0001
0000
,
1000
0100
0001
0100
0010
0001
0010
1000
,
1010
0000
0011
0000
0001
0010
0100
1000
,
0010
0100
1000
0100
0010
0100
0001
0010
,
0100
0001
0100
1000
0010
0100
1000
0100
,
0010
1000
0100
0010
0100
0010
0001
0010
,
0100
0000
0000
0000
1001
0000
0000
0000
0001
0100
0001
0100
0001
0100
0001
0100
,
0010
0100
0010
0100
0010
0100
0010
0100
0010
1000
0010
1000
0010
1000
0010
1000
,
0100
1000
0100
1000
0100
1000
0100
1000
0001
1000
0001
1000
0001
1000
0001
1000
,
0001
0010
0001
0010
0001
0010
0001
0010
0100
0010
0100
0010
0100
0010
0100
0010
,
0100
1001
0000
0000
;
#NOTES:
     dance-single:
     Renard:
     Easy:
     9:
     0.645,0.732,0.432,0.020,0.156:
0000
0000
0000
0000
,
0000
0000
0000
0000
0000
0000
0000
0000
1100
1001
1010
0000
0000
0000
0000
0000
,
1001
0000
0000
0000
,
0000
0000
0000
0000
0000
0000
0000
0000
0101
1001
0011
0000
0000
0000
0000
0000
,
1001
0000
0000
0000
0000
0000
0000
0000
0000
0000
0000
0000
0000
0000
0000
0000
0000
0000
0000
0000
0000
0000
0000
0000
1000
0000
0000
0010
0000
0000
1000
0000
0001
0000
0100
0000
0010
0000
1000
0000
0001
0000
0000
0000
0000
1001
0000
0000
,
0000
0000
1010
0000
0000
0000
0101
0000
0000
0000
0000
0000
1001
0000
0000
0000
0000
0000
0000
0000
0000
0001
0000
0000
0010
0000
0000
0000
0000
0000
0000
0000
0000
0000
0000
0000
0000
0000
0000
0000
0000
0000
0000
0000
0000
0000
0000
0000
,
0001
1000
0100
0010
0001
0000
0000
1100
0000
0000
0011
0000
2002
0000
0000
0000
,
0000
0000
0000
3003
0000
0000
0000
0000
,
0001
0100
0010
0000
1001
0000
0000
0000
1000
0000
0100
0000
0010
0000
0001
0000
,
1000
0100
1000
0010
1000
0001
1000
0010
1000
0100
1000
0010
1000
0000
1001
0000
,
1000
0001
0100
0010
1000
0100
0010
0001
,
0010
0100
1000
0010
0100
0001
0010
0100
,
0010
0001
0100
0010
1000
0100
0010
0100
,
1000
0010
0100
0001
0010
0100
1000
0100
,
0001
0100
1000
0010
0001
0010
1000
0100
,
0010
0001
0010
0100
1000
0100
0010
0001
,
0010
1000
0010
0001
0100
1000
0100
0001
,
0010
0010
0100
0100
0010
0010
0100
0000
,
1000
0100
1100
0000
0010
0001
0011
0000
,
1000
0010
1010
0000
0100
0001
0101
0000
,
1000
0100
1100
0000
0010
0001
0011
0000
,
1000
0010
1010
0000
0100
0001
0101
0000
,
0010
0001
0011
0000
1000
0100
1100
0000
,
1000
0001
1001
0000
0001
0100
0101
0000
,
1000
0010
1010
0000
1000
0001
1001
0000
,
1000
0100
1100
0000
0011
0000
1001
0000
,
0001
0000
0100
0010
1000
0000
0010
0000
1000
0000
1000
0100
0010
0000
0001
0000
,
1000
0000
1000
0001
0100
0000
0100
0001
1000
0000
0000
0000
1001
0000
0000
0000
,
0001
0000
0001
1000
0100
0000
0010
0000
0001
0000
0001
0010
0100
0000
1000
0000
,
1000
0000
0010
0100
0010
0000
1000
0010
0100
0001
0100
0010
1000
0000
0100
0000
,
1000
0100
0010
0001
0010
0100
1000
0001
,
0010
0100
1000
0100
1000
0000
1001
0000
,
1000
0100
0010
0001
0010
0100
1000
0001
,
0010
0100
1000
0100
0010
0000
1001
0000
,
1000
1000
0100
0100
0010
0001
1000
0100
,
0010
0010
0001
0001
1000
0100
0010
0001
,
1000
1000
0100
0100
0010
0001
1000
0001
,
1000
0000
0001
0100
0010
1000
0100
0100
,
1000
0001
0010
0010
0001
0100
0010
0010
,
1000
0100
1000
1000
0100
0010
0001
0001
,
0100
0010
1000
1000
0001
0000
0000
0000
,
0000
1001
0000
0000
,
0000
0000
0000
0000
0101
0000
0000
0000
0000
0000
0000
0000
0001
0000
0000
0100
0000
0000
0010
0000
0000
1000
0000
0000
,
0100
0010
0100
1000
0010
0100
0001
0010
,
0100
0010
0001
0100
0010
1000
0100
0001
,
0100
1000
0010
0001
0010
1000
0100
0010
,
0001
0000
1001
0000
0001
0100
1000
0100
,
0001
0010
1000
0010
0001
0010
0100
0010
,
0001
0100
0010
1000
0100
0010
0100
1000
,
0010
0100
0001
0010
0100
1000
0001
0100
,
0010
0000
1001
0000
1000
0010
0100
0010
,
1000
0100
0010
0001
0100
0010
0001
0010
,
0100
0001
0010
0100
1000
0100
0010
0100
,
1000
0010
0100
1000
0100
0010
1000
0100
,
0010
0000
0011
0000
0010
0100
0001
0100
,
1000
0010
0001
0010
0001
0010
0100
1000
,
0100
1000
0100
0001
0100
0001
0010
1000
,
0010
1000
0010
0100
0001
0100
1000
0001
,
0100
1001
0000
0000
;
#NOTES:
     dance-single:
     Renard:
     Beginner:
     7:
     0.523,0.732,0.352,0.020,0.106:
0000
0000
0000
0000
,
0000
0000
0000
0000
0000
0000
0000
0000
1000
0001
0010
0000
0000
0000
0000
0000
,
1001
0000
0000
0000
,
0000
0000
0000
0000
0000
0000
0000
0000
0001
1000
0010
0000
0000
0000
0000
0000
,
1001
0000
0000
0000
0000
0000
0000
0000
0000
0000
0000
0000
0000
0000
0000
0000
0000
0000
0000
0000
0000
0000
0000
0000
1000
0000
0000
0010
0000
0000
1000
0000
0001
0000
0100
0000
0010
0000
1000
0000
0001
0000
0000
0000
0000
1000
0000
0000
,
0000
0000
0010
0000
0000
0000
0100
0000
0000
0000
0000
0000
1001
0000
0000
0000
0000
0000
0000
0000
0000
0001
0000
0000
0010
0000
0000
0000
0000
0000
0000
0000
0000
0000
0000
0000
0000
0000
0000
0000
0000
0000
0000
0000
0000
0000
0000
0000
,
0001
1000
0100
0010
0001
0000
0000
1100
0000
0000
0011
0000
2002
0000
0000
0000
,
0000
0000
0000
3003
0000
0000
0000
0000
,
0001
0100
0010
0000
1001
0000
0000
0000
1000
0000
0100
0000
0010
0000
0001
0000
,
1000
0100
1000
0010
1000
0001
1000
0010
1000
0100
1000
0010
1000
0000
1001
0000
,
1000
0000
0100
1000
0100
0000
1000
0001
,
1000
0000
0001
0100
0001
0000
0010
0001
,
0010
0000
0001
1000
0001
0000
1000
0010
,
1000
0000
0001
0010
0001
0000
1000
0000
,
0100
1000
0100
0000
1000
0001
1000
0000
,
0001
0100
0001
0000
0010
0001
0010
0000
,
0001
1000
0001
0000
1000
0010
1000
0000
,
1001
0000
0000
0000
,
1000
1001
0100
0101
,
0001
1001
1000
1100
,
1000
1001
0001
0101
,
0001
0100
0010
1000
0100
0010
0001
0000
,
1000
1010
0001
0011
,
1000
1100
0001
0101
,
1000
1100
0010
0011
,
1000
0010
0100
0001
0010
0100
1000
0000
,
0001
0000
0001
1000
0100
0000
0100
1000
,
0001
0100
0010
1000
0100
0010
0001
0000
,
1000
0000
1000
0001
0100
0000
0100
0010
,
1000
0010
0100
0001
0100
0010
1000
0001
,
1001
0000
0100
0010
0110
0000
0010
0100
,
0110
0110
1001
0000
,
0110
0000
0010
0100
0110
0000
0100
0010
,
0110
1001
1001
1000
,
0100
0000
0010
0001
1000
0000
0001
0010
,
0100
0000
0100
1000
0001
0000
0100
0000
,
0001
0000
0001
1000
0100
0000
0010
0000
,
1001
0000
0001
0010
0100
1000
0001
0000
,
0001
1000
0100
0000
0100
0000
0010
0000
,
0010
0001
1000
0000
0010
0000
0100
0000
,
0100
0001
1000
0100
0010
0000
0000
0000
,
0000
1001
0000
0000
,
0000
0000
0000
0000
0101
0000
0000
0000
0000
0000
0000
0000
0001
0000
0000
0000
0000
0000
1000
0000
0000
0100
0000
0000
,
1000
0000
0001
1000
0001
0000
0100
0001
,
0100
0000
0001
1000
0001
0000
1000
0010
,
1000
0000
0001
0010
0100
1000
0100
0010
,
0001
0000
1000
0000
0001
0000
0100
0001
,
0100
0000
0001
1000
0001
0000
1000
0100
,
1000
0000
0001
0100
0001
0000
1000
0010
,
1000
0000
0001
0010
0001
0010
0100
1000
,
0001
0000
1000
0000
0100
1000
0100
1000
,
0001
1000
0001
1000
0001
0100
0001
0100
,
0001
0010
0001
0010
0001
1000
0001
1000
,
0010
1000
0010
1000
0100
1000
0100
1000
,
0001
1000
0001
1000
0001
0100
0001
0010
,
0001
1000
0100
1000
0010
1000
0001
0100
,
0001
0010
0001
1000
0100
1000
0010
0100
,
0001
0010
0100
1000
0100
0010
0001
1000
,
0010
1001
0000
0000
;
