#TITLE:Lune Noir EX;
#SUBTITLE:;
#ARTIST:Sonitus Vir;
#TITLETRANSLIT:;
#SUBTITLETRANSLIT:;
#ARTISTTRANSLIT:;
#CRChallenge:;
#BANNER:lune-banner.avi;
#BACKGROUND:lune-bg.png;
#LYRICSPATH:;
#CDTITLE:;
#MUSIC:lune.ogg;
#OFFSET:0.000;
#SAMPLESTART:23.628;
#SAMPLELENGTH:12.000;
#SELECTABLE:NO;
#BPMS:0.000=110.030,39.500=220.060,104.000=110.030,120.000=220.060,136.000=110.030,149.000=220.060,151.000=110.030,163.000=220.060;
#STOPS:39.500=0.135
,148.000=1.079
,163.000=0.270
;
#BGCHANGES:;
#NOTES:
     dance-single:
     Renard:
     Challenge:
     14:
     1.000,1.000,0.961,0.486,0.784:
0000
0000
0000
0000
,
0001
0010
1000
0010
0001
0100
1000
0100
0001
0010
1000
0010
0001
0000
0000
0000
0202
0000
0010
0000
1303
0000
0000
0000
0000
0000
0000
0000
0000
0000
0000
0000
,
0111
0000
0000
0000
,
1000
0100
0001
0100
1000
0010
0001
0010
1000
0100
1000
0000
0000
0000
0000
0000
2200
0000
0010
0000
3301
0000
0000
0000
0000
0000
0000
0000
0000
0000
0000
0000
,
0111
0000
0000
0000
0000
0000
0000
0000
0000
0000
0000
0000
0000
0000
0001
0000
0100
0000
0101
0000
0000
0000
0000
0000
1000
0000
0000
0010
0000
0000
1000
0000
0001
0000
0100
0000
0010
0000
1000
0000
0202
0000
0000
0000
0000
1010
0000
0000
,
0000
0000
0000
0000
0000
0000
0000
0000
1313
0000
0000
0000
0000
0000
0000
0000
0000
0000
0000
0000
0000
0000
0000
0000
2002
0000
0000
0000
0000
0000
0000
0000
0000
0000
0000
0000
0000
0000
0000
0000
0000
0000
0000
0000
0000
0000
0000
0000
3113
0000
0000
0000
0000
0000
0000
0000
0000
0000
0000
0000
0000
0000
0000
0000
0000
0000
0000
0000
0000
0000
0000
0000
0000
0000
0000
0000
0000
0000
0000
0000
0000
0000
0000
0000
0002
0000
0000
0000
0000
0000
0200
0000
0000
0000
0000
0000
0010
0000
0000
0000
0000
0000
0000
0000
0000
0000
0000
0000
0000
0000
0000
0000
0000
0000
0000
0000
0000
0000
0000
0000
0000
0000
0000
0000
0000
0000
0000
0000
0000
0000
0000
0000
0000
0000
0000
0000
0000
0000
0000
0000
0000
0000
0000
0000
0303
0000
0000
0000
0000
0000
0000
0000
0000
0000
0000
0000
0000
0000
0000
0000
0000
0000
0000
0000
0000
0000
0000
0000
0000
0000
0000
0000
0000
0000
0000
0000
0000
0000
0000
0000
0000
0000
0000
0000
0000
0000
0000
0000
0000
0000
0000
0000
,
0001
0010
0001
1000
0001
0100
0001
1000
0100
0000
0000
0000
0000
0000
2200
0000
0000
0000
0000
0000
3311
0000
0000
0000
2002
0000
0000
0000
0000
0000
0000
0000
,
0000
0000
0000
3003
0000
0000
0000
0000
,
1000
0000
0000
0000
0000
0000
0000
0000
0000
0000
0000
0000
0100
0000
0000
0000
0000
0000
0000
0000
0000
0000
0000
0000
0010
0000
0000
0000
0000
0000
0000
0000
0001
0000
0000
0000
0000
0000
0000
0000
1000
0000
0000
0000
0000
0000
0000
0000
1100
0000
0000
0000
0000
0000
0000
0000
0000
0000
0000
0000
0000
0000
0000
0000
0000
0000
0000
0000
0000
0000
0000
0000
0000
0000
0000
0000
0000
0000
0000
0000
0000
0000
0000
0000
0100
0000
0000
0000
0000
0000
1000
0000
0000
0000
0000
0000
0100
0000
0000
0000
0000
0000
0000
0000
0000
0000
0000
0000
0000
0000
0000
0000
0000
0000
0000
0000
0000
0000
0000
0000
0010
0000
0000
0000
0000
0000
0000
0000
0001
0000
0000
0000
0000
0000
0000
0000
1000
0000
0000
0000
0000
0000
0000
0000
1100
0000
0000
0000
0000
0000
0000
0000
0000
0000
0000
0000
0000
0000
0000
0000
0000
0000
0000
0000
0000
0000
0000
0000
0110
0000
0000
0000
0000
0000
0000
0000
0000
0000
0000
0000
0000
0000
0000
0000
0000
0000
0000
0000
0000
0000
0000
0000
,
0001
0010
0001
0010
0001
0100
0001
0100
0010
1000
0100
0010
0001
0000
1001
0000
,
1001
0000
0100
0001
1000
0000
0100
0000
1001
0000
0010
0000
0100
0000
0001
0000
,
1010
0000
0100
0000
0001
0000
0010
0000
1100
0000
0010
0000
0001
1000
0001
0100
,
0010
0000
1000
0100
1000
0000
0010
0000
0110
0000
0001
0000
0010
0000
0001
0000
,
1001
0000
1000
0000
0100
0000
0100
0000
0110
0000
0001
0000
1000
0100
0010
0001
,
1000
0000
0010
1000
0001
0000
0010
0000
1001
0000
0100
0000
0010
0000
1000
0000
,
0101
0000
0010
0000
1000
0000
0100
0000
0011
0000
0100
0000
1000
0001
1000
0010
,
0100
0000
0001
0010
0001
0000
0100
0000
0110
0000
1000
0000
0100
0000
1000
0000
,
0001
0010
1000
0010
0001
0100
1000
0100
0001
0010
1000
0010
0001
0000
0000
0000
,
1001
0000
0100
0010
0001
0000
0010
0000
1001
0000
1000
0000
0010
0000
0001
0000
,
0110
1000
0010
0100
0101
0010
0100
1000
,
0110
0000
1000
0001
0010
0000
0100
0000
1001
0000
0100
0000
0001
0000
0100
0000
,
0110
0001
0010
1000
2002
0000
3013
0000
,
1001
0000
0100
0010
0001
0000
0010
0000
1001
0000
1000
0000
0010
0000
0001
0000
,
0110
1000
0010
0100
1001
0010
1000
0010
,
1001
0000
1000
0100
0010
0000
0001
0000
1001
0000
0100
0000
0001
0000
0100
0000
,
0110
0001
0010
1000
2002
0000
3013
0000
,
0011
0000
0000
0000
0000
0000
0010
0000
0000
0100
0000
0000
1000
0000
0000
0000
0000
0000
0010
0000
0000
0000
0000
0000
0110
0000
0000
0000
0000
0000
0010
0000
1000
0000
0001
0000
0100
0000
0000
0000
0000
0000
0100
0000
0000
0000
0000
0000
,
1010
0000
0100
0001
0101
0000
0001
0010
0011
0000
0000
0000
0100
0000
0000
0000
,
1100
0000
0000
0000
0000
0000
0010
0000
0000
0001
0000
0000
0100
0000
0000
0000
0000
0000
0010
0000
0000
0000
0000
0000
0110
0000
0000
0000
0000
0000
0100
0000
0001
0000
1000
0000
0100
0000
0000
0000
0000
0000
1100
0000
0000
0000
0000
0000
,
0011
0000
0001
0010
0011
0000
0100
1000
1100
0010
0001
0010
1100
0000
1000
0000
,
1100
1000
0100
1000
0100
0000
1000
0000
0011
0010
0001
0010
0001
0000
0010
0000
,
0101
0100
0001
0100
0001
0000
0100
0000
0202
0000
0000
0000
1313
0000
0000
0000
,
1010
1000
0010
1000
0010
0000
1000
0000
0101
0100
0001
0100
0001
0000
0100
0000
,
1010
1000
0010
1000
0010
0000
1000
0000
1010
0000
0100
0000
1001
0000
0010
0000
,
0002
0103
2000
3100
0002
0013
2000
3010
,
0002
0000
0000
0000
0013
0000
0000
0000
0200
0000
0000
0000
0301
0000
0100
0000
1000
0000
0000
0000
1000
0000
0000
0000
0020
0000
0000
0000
0031
0000
0010
0100
,
1000
0000
0100
0000
2000
0000
3100
0010
0001
0000
0010
0000
2000
0000
0002
0000
,
3013
0000
1000
0100
0010
0001
2000
3100
,
0002
0103
2000
3010
0002
0013
0200
0301
,
2000
0000
3100
0010
0002
0000
0103
0000
0020
0000
1030
0000
0020
0000
1030
0000
,
0020
0000
0000
0000
0000
0000
0130
0000
0000
0001
0000
0000
1000
0000
0000
0100
0000
0000
0010
0000
0001
0000
1000
0000
0001
0000
0000
0000
0000
0000
0000
0000
0000
0000
0000
0000
0000
0000
0000
0000
0000
0000
0000
0000
0000
0000
0000
0000
,
1000
0000
0100
0000
0010
0000
0011
0000
0000
0000
0000
0000
1000
0000
0000
0100
0000
0000
0010
0000
0001
0000
0010
0000
,
0100
0000
0000
0000
1000
0000
0000
0000
1100
0000
0000
0000
0000
0000
0000
0000
0000
0000
0000
0000
0000
0000
0000
0000
1001
0000
0000
0000
0000
0000
0100
0000
0000
0010
0000
0000
0001
0000
0000
0000
0000
0000
0010
0000
0000
0000
0000
0000
,
1001
1000
0010
0001
0110
1000
0010
0100
,
1001
0000
0010
0000
0100
0000
1000
0000
0110
0000
1000
0001
0010
0000
0100
0000
,
1001
0100
0001
0100
0110
0001
0010
1000
,
2002
0000
0000
0000
3013
0000
0000
0000
1001
0000
0100
0010
0001
0000
0010
0000
,
1001
1000
0010
0001
0110
1000
0010
0100
,
1001
0000
0010
0000
1000
0000
0010
0000
0101
0000
1000
0100
0010
0000
0001
0000
,
1001
0100
0001
0100
1010
0001
0010
1000
,
2002
0000
3013
0000
0001
0010
0100
1000
,
0010
0100
1000
0100
0010
0100
0001
0010
,
0100
0000
0001
0000
0100
1000
0100
1000
0010
0000
0100
0000
1000
0000
0100
0000
,
0010
1000
0100
0010
0100
0010
0001
0010
,
0100
0000
0010
0000
1001
0000
0100
0000
0001
0100
0010
1000
0100
1000
0001
0010
,
0001
1000
0010
0100
0001
0010
1000
0010
0001
0100
0010
1000
0100
0001
0100
1000
,
0010
0100
0001
0010
1000
0010
0001
0100
0010
1000
0100
1000
0010
0100
0001
0010
,
1000
0010
0001
0100
0010
1000
0100
0001
0100
1000
0010
0100
0001
0100
0010
0000
,
0111
1011
0000
0000
;
