#TITLE:Love to Rise in the Summer Morning;
#SUBTITLE:;
#ARTIST:Yuzo Koshiro;
#TITLETRANSLIT:;
#SUBTITLETRANSLIT:;
#ARTISTTRANSLIT:Yuzo Koshiro;
#CRChallenge:;
#BANNER:morning.png;
#BACKGROUND:morning-bg.png;
#LYRICSPATH:;
#CDTITLE:;
#MUSIC:morning.ogg;
#OFFSET:0.000;
#SAMPLESTART:45.278;
#SAMPLELENGTH:12.000;
#SELECTABLE:YES;
#BPMS:0.000=142.990;
#STOPS:32.000=2.937
;
#BGCHANGES:;
#NOTES:
     dance-single:
     Renard:
     Hard:
     9:
     0.645,0.731,0.615,0.341,0.151:
0000
0000
0000
0000
,
0000
0000
0000
0000
,
0000
0000
0000
0000
,
0000
0000
0000
0000
,
0000
0000
0000
0000
,
0000
0000
0000
0000
,
0000
0000
0000
0000
,
0000
0000
0000
0000
,
1111
0000
0201
0000
1300
0100
0120
0000
,
1030
0210
0000
0301
0100
0010
1000
0010
,
0001
0010
0102
0000
1003
0100
1200
0000
,
0301
0201
0000
1300
0100
0001
0100
0010
,
0001
1000
1020
0000
0031
0010
0210
0000
,
0301
0120
0000
1030
0010
0100
0001
0100
,
1000
0100
2010
0000
3001
0010
0021
0000
,
1030
1020
0000
0031
0010
1000
0010
0100
,
1000
0000
0001
0000
0101
0000
0000
0110
0000
0000
1100
0000
0000
0000
1000
0000
,
0100
0000
0001
0000
0011
0000
0000
0110
0000
0000
1010
0000
0000
0000
1000
0000
,
0010
0000
0100
0000
1100
0000
0000
0110
0000
0000
0101
0000
0000
0000
0100
0000
,
1000
0000
0010
0000
0110
0000
0000
0101
0000
0000
1001
0000
0000
0000
1000
0000
,
0001
0000
0100
0000
0110
0000
0000
1100
0000
0000
0101
0000
0110
0000
0000
1010
,
0000
0000
1001
0000
0101
0000
0000
0110
0000
0000
1010
0000
1100
0000
0000
0110
,
0000
0000
0011
0000
0001
0100
0001
0000
1000
0100
1000
0000
0001
0100
0001
0000
,
1000
0100
1000
0000
0001
0100
0001
0100
0001
0100
0001
0100
0010
0100
0010
0100
,
0010
1000
0010
1000
0000
0000
0000
0000
0000
0000
0000
0000
0000
0000
0001
0000
,
1000
0100
1200
0301
0100
1000
2001
3001
,
0010
1200
0301
0010
1000
0010
0001
0010
,
0100
0001
0201
1300
0010
0001
0021
0130
,
1000
1200
0301
0100
0010
1000
0100
0010
,
0001
0010
1200
0301
0100
1000
1020
0031
,
0010
0210
1300
0100
0001
0100
0010
0001
,
0010
1000
1020
0031
0010
0100
0102
0013
,
0001
0021
1030
0010
0100
1000
0001
1000
,
0001
0010
0021
0031
0010
0001
1002
1003
,
0100
0021
1030
0100
0001
0100
1000
0100
,
0010
1000
1020
0031
0100
1000
1200
0310
,
0001
0021
1030
0010
0100
0001
0010
0100
,
1000
0100
0021
1030
0010
0001
0201
1300
,
0100
0120
0031
0010
1000
0010
0100
1000
,
0100
0001
0201
1300
0100
0010
2010
3100
,
1000
1200
0301
0100
0010
0001
0100
0010
,
1000
0000
0010
0000
0100
0000
0000
0100
0001
0000
0010
0000
0100
0000
1000
0000
,
0010
0000
0000
0000
0100
0000
0000
0100
0010
0000
1000
0000
0100
0000
0010
0000
,
0001
0000
1000
0000
0001
0000
0000
0001
0010
0000
0100
0000
1000
0000
0010
0000
,
0100
0000
0000
0000
0010
0000
0000
0010
1000
0000
0100
0000
0010
0000
0001
0000
,
1000
0000
0000
0000
0001
0000
0000
0001
0100
0000
0010
0000
1000
0000
0100
0000
,
0010
0000
0001
0000
1000
0000
0000
1000
0010
0000
0100
0000
0010
0000
1000
0000
,
0100
0000
0010
0000
0001
0000
0000
0001
0010
0000
0100
0000
1000
0000
0001
0000
,
0100
0000
0010
0000
1000
0000
0000
1000
0001
0000
0010
0000
0100
0000
1000
0000
,
0001
0100
0001
0100
0001
0100
1000
0100
,
1000
1100
0000
0100
0010
1000
0100
0001
,
0100
1000
0001
0010
0001
0010
1000
0010
,
1000
1010
0000
0010
0001
0100
1000
0100
,
0001
0010
0100
0001
0100
0001
0100
1000
,
0100
1100
0000
1000
0010
1000
0010
0001
,
0010
0001
0010
1000
0001
0100
1000
0100
,
0001
0000
0101
0000
0000
0000
0100
0000
0010
0000
1000
0000
0100
0010
0001
0010
,
0100
1000
0001
0010
0100
0000
0000
0000
0000
0000
0000
0000
0000
0000
0000
0000
;
#NOTES:
     dance-single:
     Renard:
     Medium:
     8:
     0.411,0.487,0.587,0.076,0.000:
0000
0000
0000
0000
,
0000
0000
0000
0000
,
0000
0000
0000
0000
,
0000
0000
0000
0000
,
0000
0000
0000
0000
,
0000
0000
0000
0000
,
0000
0000
0000
0000
,
0000
0000
0000
0000
,
1001
0101
0000
0110
,
0000
1010
0000
0000
0000
0000
0000
1000
,
0010
0100
0110
0000
0000
0000
0101
0000
,
0000
0110
0000
0000
0000
0000
0000
0010
,
1000
0100
1100
0000
0000
0000
0011
0000
,
0000
1001
0000
0000
0000
0000
0000
0001
,
0100
0010
0110
0000
0000
0000
1010
0000
,
0000
1001
0000
0000
0000
0000
0000
0000
,
0000
0000
2200
0000
0000
3310
0000
0000
,
0000
0000
0202
0000
0000
0313
0000
0000
,
0000
0000
2002
0000
0000
3013
0000
0000
,
0000
0000
0202
0000
0000
1313
0000
0000
,
0000
0001
0110
1000
,
0110
0001
0110
1000
,
0110
0000
0010
1000
0100
0010
0001
0010
,
0100
1000
0010
0100
0001
0010
0100
1000
,
0010
0100
0001
0000
0000
0000
0000
0001
,
0100
0010
1010
0000
0000
0000
1010
0000
,
1001
1010
0000
0000
0000
0000
0000
1000
,
0100
0010
0011
0000
0000
0000
0011
0000
,
1001
0101
0000
0000
0000
0000
0000
0001
,
0100
0010
0110
0000
0000
0000
0101
0000
,
1001
1010
0000
0000
0000
0000
0000
1000
,
0010
0100
0110
0000
0000
0000
1010
0000
,
1001
1100
0000
0000
1000
0000
0100
0010
,
0001
0010
0100
0000
0100
1000
0010
0100
,
0001
0100
0000
0001
0001
1000
1000
0100
,
0100
0010
0010
0000
0010
0100
1000
0010
,
0100
0001
0000
0100
0010
1000
0100
0010
,
0001
0010
0100
0000
0100
1000
0010
0100
,
0001
0010
0000
0001
0001
0010
0010
0100
,
0100
1000
0010
0000
0010
0100
0001
0000
,
0001
0100
0000
0000
0010
1000
0100
0010
,
0001
0010
0011
0000
0010
0000
0110
0000
,
0100
1000
0000
0000
0010
0000
0100
0001
,
0100
0010
0110
0000
0010
1000
0100
0000
,
1100
0001
0000
0000
0100
0000
1000
0010
,
0100
0001
0101
0000
0100
0000
1010
0000
,
0100
0101
0000
0000
0100
0010
1000
0100
,
0010
0001
0011
0000
0010
0000
1100
0000
,
1100
0001
0000
0000
1100
0000
1000
0010
,
0100
0001
0101
0000
0100
0010
1000
0100
,
1100
0011
0000
0000
0100
1000
0001
0100
,
0010
1000
1100
0000
1000
0100
0010
0001
,
0101
1010
0000
0000
0010
0000
1000
0100
,
0010
0001
0011
0000
0010
0100
1100
0000
,
1000
1010
0000
0000
0010
0100
0001
0010
,
0100
0100
1100
0000
0100
0100
1100
0000
,
1000
1010
0000
0010
0100
0001
0010
0100
,
1000
1001
0000
0000
;
#NOTES:
     dance-single:
     Renard:
     Easy:
     6:
     0.305,0.460,0.123,0.000,0.000:
0000
0000
0000
0000
,
0000
0000
0000
0000
,
0000
0000
0000
0000
,
0000
0000
0000
0000
,
0000
0000
0000
0000
,
0000
0000
0000
0000
,
0000
0000
0000
0000
,
0000
0000
0000
0000
,
1001
0001
0000
0100
,
0010
1000
0000
0000
0000
0000
0000
0010
,
1000
0100
0010
0000
0000
0000
0001
0000
,
1000
0001
0000
0000
0000
0000
0000
0100
,
0010
1000
0100
0000
0000
0000
1000
0000
,
0001
0100
0000
0000
0000
0000
0000
0010
,
1000
0100
1000
0000
0000
0000
0001
0000
,
0100
0001
0000
0000
0000
0000
0000
0000
,
0000
1000
0000
0000
,
0000
0001
0000
0000
,
0000
1000
0000
0000
,
0000
0001
0000
0000
,
0000
0000
0110
0000
0000
0110
1001
0000
,
0000
1001
0110
0000
0000
0110
1001
0000
,
0000
1001
0110
0000
1001
0000
0110
0000
,
1001
0000
0010
0100
0010
0100
0001
0100
,
0001
1000
0100
0000
0000
0000
0000
1000
,
0100
0010
0001
0000
0010
0000
0100
0000
,
1000
0001
0000
0000
0100
0000
0010
0000
,
1000
0100
0010
0000
0001
0000
0010
0000
,
0100
1000
0000
0000
0001
0000
0100
0000
,
0010
1000
0100
0000
1000
0000
0010
0000
,
0100
0001
0000
0000
0010
0000
0001
0000
,
0100
0010
0100
0000
0001
0000
0100
0000
,
0010
1000
0000
0000
0100
0000
0010
0000
,
0001
1000
0100
0000
1000
0000
0010
0000
,
0100
0001
0000
0000
0100
0000
0010
0000
,
1000
0100
0010
0000
0001
0000
0100
0000
,
0010
1000
0000
0000
0001
0000
0100
0000
,
0010
1000
0100
0000
0010
0000
0001
0000
,
0010
0100
0000
0000
1000
0000
0010
0000
,
0100
0001
1000
0000
0100
0000
0010
0000
,
0001
1000
0000
0000
0010
0000
0100
0000
,
0001
1000
0100
0000
0010
0000
0001
0000
,
1000
0010
0000
0000
0100
0000
0001
0000
,
1000
0100
0010
0000
0001
0000
1000
0000
,
0010
0100
0000
0000
0010
0000
1000
0000
,
0100
0010
0001
0000
0010
0000
0100
0000
,
1000
0010
0000
0000
0100
0000
0001
0000
,
0010
0100
1000
0000
0010
0000
0100
0000
,
0001
0010
0000
0000
0100
0000
1000
0000
,
0010
0100
0010
1000
0010
0000
0100
0001
,
0100
0000
0001
0010
0001
0000
1000
0100
,
1000
0000
0010
1000
0010
0000
0100
0001
,
0100
0000
0001
1000
0001
0000
1000
0100
,
1000
0000
0001
0010
0001
0000
1000
0100
,
1000
0000
0010
1000
0010
0000
0100
0001
,
0100
0000
0001
0100
0010
0000
1000
0100
,
0010
0000
0100
1000
0001
0010
0100
1000
,
0100
0010
0001
0000
0000
0000
0000
0000
;
#NOTES:
     dance-single:
     Renard:
     Beginner:
     3:
     0.189,0.325,0.019,0.047,0.000:
0000
0000
0000
0000
,
0000
0000
0000
0000
,
0000
0000
0000
0000
,
0000
0000
0000
0000
,
2002
0000
0000
3000
,
0200
0000
0000
0003
,
0020
0000
0000
0300
,
2000
0000
0000
0000
,
3030
1000
0000
0010
,
0000
0100
0000
0000
0000
0000
0000
0000
,
0000
0001
0000
0010
,
0000
0100
0000
0000
0000
0000
0000
0000
,
0000
1000
0000
0010
,
0000
0100
0000
0000
0000
0000
0000
0000
,
0000
0001
0000
0010
,
0000
0100
0000
0000
0000
0000
0000
0000
,
0000
1000
1000
1000
,
0000
0001
0001
0001
,
0000
0100
0100
0100
,
0000
0010
0010
0010
,
0000
1000
1000
0001
,
0001
0100
0100
0010
,
0010
1000
0001
0100
,
0010
0000
1000
0001
1000
0001
1000
0001
,
1000
0001
1000
0000
0000
0000
0000
0000
,
0000
0001
0000
0100
,
0100
0001
0000
0000
0000
0000
0000
0000
,
0000
1000
0000
0100
,
0100
1000
0000
0000
0000
0000
0000
0000
,
0000
0001
0000
0010
,
0010
0001
0000
0000
0000
0000
0000
0000
,
0000
1000
0000
0010
,
0010
1000
0000
0000
0000
0000
0000
0000
,
0000
0001
0001
0100
,
0100
0001
0000
0000
0000
0000
0000
0000
,
0000
1000
1000
0100
,
0100
1000
0000
0000
0000
0000
0000
0000
,
0000
0001
0001
0010
,
0010
0001
0000
0000
0000
0000
0000
0000
,
0000
1000
1000
0010
,
0010
1000
0000
0000
0000
0000
0000
0000
,
0010
0100
0100
0010
,
0100
0010
0000
0010
,
0000
1000
1000
0001
,
1000
0001
0000
0001
,
0000
0010
0010
0100
,
0010
0100
0000
0100
,
0000
1000
1000
0001
,
1000
0001
0000
0001
,
0000
0100
0000
0010
,
0100
0010
0000
0000
0000
0000
0010
0000
,
0000
1000
0000
0001
,
1000
0001
0000
0000
0000
0000
1000
0000
,
0000
0001
0000
0010
,
0001
0010
0000
0000
0000
0000
0001
0000
,
0000
1000
0000
0100
,
1000
0100
0000
0000
1000
0000
0001
0000
,
0100
0110
0000
0000
;
