#TITLE:Love is More (Rob Mayth Remix);
#SUBTITLE:;
#ARTIST:Ceoma feat. The Larx;
#TITLETRANSLIT:;
#SUBTITLETRANSLIT:;
#ARTISTTRANSLIT:;
#CRChallenge:;
#BANNER:love.png;
#BACKGROUND:love-bg.png;
#LYRICSPATH:;
#CDTITLE:!cdtitle.png;
#MUSIC:love.ogg;
#OFFSET:0.000;
#SAMPLESTART:69.076;
#SAMPLELENGTH:12.000;
#SELECTABLE:YES;
#BPMS:0.000=142.000;
#STOPS:;
#BGCHANGES:;
#NOTES:
     dance-single:
     Renard:
     Medium:
     9:
     0.642,0.832,0.539,0.071,0.420:
0000
0000
0000
0000
,
0000
0000
0000
0000
,
0000
0000
0000
0000
,
0000
0000
0000
0000
,
0000
0000
0000
0000
,
0000
0000
0000
0000
,
0000
0000
0000
0000
,
0000
0000
0000
0000
,
1000
1000
0100
0001
1000
1000
0010
0001
,
1000
1000
0100
0001
1000
1000
0010
0001
,
0100
0100
1000
0001
0010
0010
1000
0001
,
0100
0100
1000
0001
0010
0010
1000
0001
,
1000
1000
0100
0001
0100
0100
0010
0001
,
1000
1000
0100
0001
0100
0100
0010
0001
,
1000
1000
0010
0001
0010
0010
0100
0001
,
1000
1000
0010
0001
0010
0010
0100
0001
,
0010
0100
0001
0100
0010
0100
0001
0100
,
0010
0100
0001
0100
0010
0100
0001
0100
,
0010
0100
0001
0100
0010
0100
0001
0100
,
0010
0000
0100
0000
0001
0000
0100
0000
0010
0000
0100
0001
0100
0000
0000
0000
,
1000
0010
1000
0010
0001
0010
0001
0010
,
0100
0010
0100
0010
1000
0001
0020
0001
,
0031
0010
0001
0010
1000
0010
1000
0010
,
0100
0000
0001
0000
0100
0000
1000
0000
0020
0000
0100
0000
0030
0000
0100
0010
,
0100
0100
0001
0100
1000
0100
1000
0100
,
0010
0001
0010
1000
0001
0100
0020
1000
,
1030
0010
0001
0010
0100
0010
0100
0010
,
0100
1000
0100
0001
0010
0100
0010
0000
,
0010
0000
0000
0000
0100
0000
0000
0010
0001
0010
0000
0001
0000
0000
0000
0001
,
1000
0000
1000
0000
0100
0000
0100
0000
1000
0010
0000
0010
0000
0000
0000
0000
,
0100
0000
0000
0000
0001
0000
0000
0001
1000
0100
0000
0010
0000
0000
0000
0000
,
1001
0110
1001
0110
1001
0000
0001
0000
,
1001
0000
0100
0000
1010
0000
0000
0100
0001
0010
0000
1100
0000
0000
0000
0000
,
2001
0000
0001
0000
0001
0000
3001
2000
0001
0000
0001
0000
0001
0000
3001
0000
,
0101
0000
0010
0000
1100
0000
0000
0010
1000
0100
0000
0011
0000
0000
0000
0000
,
2001
0000
3001
0000
2000
0000
3001
0000
1000
0002
1000
0000
1003
0000
0000
0000
,
1100
0010
0101
0000
0101
0010
1100
0000
,
1100
0010
0101
0000
0101
0010
1100
0000
,
1010
0100
0011
0100
1010
0100
0011
0100
,
1001
0000
0110
0000
0110
0000
1001
0000
0001
0010
0100
1000
0100
0010
0001
0010
,
0100
0000
0100
0000
0100
0000
1000
1000
0001
0001
0010
0000
0010
0000
0010
0000
,
0011
0000
0000
0000
1100
0000
0000
0100
1000
0000
0010
0100
0000
0000
0000
0001
,
0010
0000
0100
0000
1000
0000
0010
0000
0100
0001
0000
0100
0000
0000
0000
0000
,
0101
0000
0000
0000
0110
0000
0000
0010
1000
0100
0000
1100
0000
0000
0000
1000
,
0100
0000
0010
0000
0001
0000
1000
0000
0010
0100
0000
0001
0000
0001
0100
0000
,
0101
0000
0000
0000
0110
0000
0000
0010
1000
0000
0100
0010
0000
0000
0000
0001
,
0010
0000
0100
0000
1000
0000
0001
0000
0100
0001
0000
1001
0000
0000
0000
0000
,
1001
0000
0000
0000
1010
0000
0000
0010
0100
0001
0000
1000
0000
0000
0000
0001
,
0010
0000
0010
0000
0100
0000
0100
0000
1000
0001
0000
0010
0000
0010
0001
0000
,
1100
0000
0000
0000
0011
0000
0000
0010
0001
0000
0100
0010
0000
0000
0000
1000
,
0100
0000
0010
0000
1001
0000
0100
0000
0010
1000
0000
0010
0000
0000
0000
0000
,
1010
0000
0000
0000
0110
0000
0000
0100
0001
0000
0010
0001
0000
0000
0000
0001
,
0010
0000
0100
0000
1001
0000
0100
0000
0010
1000
0000
0010
0000
0100
0001
0100
,
0010
0000
0000
0000
0110
0000
0000
0100
0001
0000
0010
0100
0000
0000
0000
1000
,
0100
0000
0010
0000
1001
0000
0100
0000
0010
1000
0000
1001
0000
0000
0000
0000
,
1001
0000
0000
0000
0101
0000
0000
0100
0010
0000
1000
0001
0000
0000
0000
1000
,
0100
0000
0100
0000
0010
0000
0010
0000
0001
1000
0000
0100
0000
0100
1000
0100
,
1000
0000
0000
0000
0101
0000
0000
0001
0100
0000
1000
0001
0000
0000
0000
0001
,
1000
0000
0001
0000
0110
0000
1000
0000
0001
0010
0000
0001
0000
0000
0000
0000
,
0011
0000
0000
0000
1001
0000
0000
1000
0100
0000
0001
0100
0000
0000
0000
1000
,
0001
0000
1000
0000
0110
0000
1000
0000
0001
0010
0000
0001
0000
1000
0100
1000
,
0001
0000
0000
0000
1001
0000
0000
1000
0100
0000
0001
0100
0000
0000
0000
0010
,
0001
0000
1000
0000
0110
0000
1000
0000
0001
0010
0000
0110
0000
0000
0000
0000
,
0110
0000
0000
0000
1100
0000
0000
1000
0001
0000
0010
0100
0000
0000
0000
0010
,
0001
0000
1000
0000
0001
0000
0001
0000
0100
0010
0000
1000
0000
0000
0000
0000
,
0101
0000
0000
0000
;
#NOTES:
     dance-single:
     Renard:
     Easy:
     8:
     0.447,0.603,0.079,0.062,0.221:
0000
0000
0000
0000
,
0000
0000
0000
0000
,
0000
0000
0000
0000
,
0000
0000
0000
0000
,
0000
0000
0000
0000
,
0000
0000
0000
0000
,
0000
0000
0000
0000
,
0000
0000
0000
0000
,
1002
0000
0000
0000
,
0203
0000
0000
0000
,
0320
0000
0000
0000
,
0000
0000
0000
0000
0000
0000
0000
0000
0000
0000
0000
0000
0000
0000
0000
0030
,
2000
0000
0000
0000
,
3200
0000
0000
0000
,
0310
0001
0010
0001
0010
0100
0010
0100
,
0010
0001
0010
0001
0010
0100
0010
0100
,
1000
0010
0100
0001
0010
0100
1000
0010
,
0100
0001
0010
0100
1000
0010
0100
0001
,
0010
0100
1000
0010
0100
0001
0010
0100
,
1000
0010
0100
0001
0010
0000
1001
0000
,
1000
0010
1000
0010
0001
0010
0001
0010
,
0100
0010
0100
0010
1000
0001
0020
0001
,
0031
0010
0001
0010
1000
0010
1000
0010
,
0100
0001
0100
1000
0020
0100
0030
0100
,
0010
0100
0001
0100
1000
0100
1000
0100
,
0010
0001
0010
1000
0001
0100
0010
1000
,
0001
0100
1000
0100
0010
0100
0010
0100
,
0010
0001
0010
1000
0100
0010
0100
0000
,
0010
0000
0000
0000
0100
0000
0000
0000
1000
0000
0000
0001
0000
0000
0000
0000
,
0100
0000
0000
0000
0010
0000
1000
0000
0001
0000
0000
0010
0000
0000
0000
0000
,
0100
0000
0000
0000
1000
0000
0000
0000
0001
0000
0000
0100
0000
0000
0000
0000
,
0010
1000
0001
0010
0100
1000
0100
0000
,
1100
0000
0000
0000
0011
0000
0000
0000
0001
0000
0000
1000
0000
0000
0000
0000
,
0010
0100
0001
1000
0010
0100
0001
0000
,
0011
0000
0000
0000
1100
0000
0000
0000
0011
0000
0000
1100
0000
0000
0000
0000
,
1000
0001
0100
0010
1000
1000
1000
0000
,
0010
0000
0100
0000
0001
0000
0000
0001
0100
0000
0010
0000
1000
0000
0000
1000
,
0010
0000
0100
0000
0001
0000
0000
0001
0100
0000
0010
0000
1000
0000
0000
1000
,
0010
0100
0001
0010
0100
1000
0100
0010
,
0001
0000
0010
0000
0100
0000
1000
0000
0001
1000
0001
1000
0001
1000
0001
1000
,
0001
0001
0001
0001
0001
0000
0001
0000
,
1000
0000
0000
0000
0010
0000
0000
0100
0001
0000
0010
0001
0000
0000
0000
0000
,
1000
0000
0100
0000
0010
0000
0001
0000
1000
0000
0000
0010
0000
0000
0000
0000
,
0100
0000
0000
0000
0001
0000
0000
0010
0100
0000
0000
0100
0000
0000
0000
0010
,
0001
0000
1000
0000
0010
0000
0100
0000
0001
0000
0000
0100
0000
0000
0010
0000
,
1000
0000
0000
0000
0001
0000
0000
0010
0100
0000
1000
0100
0000
0000
0000
0010
,
0001
0000
1000
0000
0010
0000
0100
0000
0001
0000
0000
0100
0000
0000
0000
0000
,
0010
0000
0000
0000
1000
0000
0000
0001
0100
0000
0000
0010
0000
0000
0000
0000
,
1000
0000
0010
0000
0100
0000
0001
0000
0100
0000
0000
0001
0000
0000
0100
0000
,
0001
0000
0000
0000
0010
0000
0000
0100
1000
0000
0000
0100
0000
0000
0000
0000
,
0010
0000
0001
0000
1000
0000
0010
0000
0100
0000
0000
0001
0000
0000
0000
0000
,
0100
0000
0000
0000
0010
0000
0000
1000
0001
0000
0000
0010
0000
0000
0000
0000
,
0001
0000
1000
0000
0010
0000
0100
0000
0001
0000
0000
0100
0000
0000
0001
0000
,
0010
0000
0000
0000
0100
0000
0000
1000
0001
0000
0000
1000
0000
0000
0000
0000
,
0010
0000
0100
0000
0001
0000
0010
0000
0100
0000
0000
1000
0000
0000
0000
0000
,
0001
0000
0000
0000
1000
0000
0000
0010
0100
0000
0000
0001
0000
0000
0000
0000
,
0100
0000
0001
0000
1000
0000
0010
0000
0100
0000
0000
0001
0000
0000
0100
0000
,
0010
0000
0000
0000
0010
0000
0000
0100
0001
0000
0000
0100
0000
0000
0000
0000
,
0010
0000
1000
0000
0001
0000
0010
0000
0100
0000
0000
1000
0000
0000
0000
0000
,
0100
0000
0000
0000
0010
0000
0000
0001
0010
0000
0000
0100
0000
0000
0000
0000
,
1000
0000
0100
0000
0010
0000
0001
0000
1000
0000
0000
0010
0000
0000
0100
0000
,
0001
0000
0000
0000
1000
0000
0000
0010
0100
0000
0000
0001
0000
0000
0000
0000
,
0100
0000
0010
0000
1000
0000
0010
0000
0100
0000
0000
0001
0000
0000
0000
0000
,
0010
0000
0000
0000
0100
0000
0000
1000
0100
0000
0000
0100
0000
0000
0000
0000
,
0010
0001
1000
0010
0100
0000
0000
0000
,
1001
0000
0000
0000
;
#NOTES:
     dance-single:
     Renard:
     Challenge:
     10:
     0.633,1.000,0.247,0.283,0.442:
0000
0000
0000
0000
,
0000
0000
0000
0000
,
0000
0000
0000
0000
,
0000
0000
0000
0000
,
0000
0000
0000
0000
,
0000
0000
0000
0000
,
0000
0000
0000
0000
,
0000
0000
0000
0000
,
0001
0100
1000
0001
1000
0100
0001
1000
,
0100
0001
1000
0001
0100
1000
0001
0100
,
1000
0001
0010
1000
0001
1000
0010
0001
,
1000
0001
0010
1000
0001
0010
1000
0001
,
1000
0010
0001
0100
1000
0001
1000
0100
,
0001
1000
0100
0001
1000
0001
0100
1000
,
0001
0100
1000
0001
0010
1000
0001
1000
,
0010
0001
1000
0001
0010
1000
0001
0010
,
0100
0001
0100
1000
0100
0001
0100
1000
,
0010
0001
0010
1000
0010
0001
0010
1000
,
0100
0001
0100
1000
0100
0001
0100
1000
,
0010
0001
0010
1000
0100
0010
0001
0000
,
0001
0000
0000
0001
1000
0000
0000
1000
0010
0000
0000
0010
0100
0000
0000
0100
,
0001
0000
0000
0001
1000
0000
0000
2000
0200
0000
0010
0000
3301
0000
0000
0000
,
1000
0000
0000
1000
0100
0000
0000
0100
0010
0000
0000
0010
0001
0000
0000
0001
,
0100
0000
0000
0100
0001
0000
0000
0002
0200
0000
0010
0000
0303
0000
0000
0000
,
0001
0000
0000
0001
1000
0000
0000
1000
0010
0000
0000
0010
0100
0000
0000
0100
,
0001
0000
0000
0001
1000
0000
0000
2000
0200
0000
0010
0000
3301
0000
0000
0000
,
1000
0000
0000
1000
0100
0000
0000
0100
0010
0000
0000
0010
0001
0000
0000
0001
,
0100
0000
0000
0100
0001
0000
0000
0002
0200
0000
0010
0000
0303
0000
0000
0000
,
0101
0000
0000
0000
1001
0000
0000
0000
1010
0000
0000
1001
0000
0000
0000
0000
,
1100
0000
1001
0000
1010
0000
0000
0000
1001
0000
0000
0101
0000
0000
0000
0000
,
0011
0000
0000
0000
1001
0000
0000
0000
1100
0000
0000
1010
0000
0000
0000
0000
,
1100
0011
1100
0011
1100
0000
1001
0000
,
0202
0000
0000
0000
1313
0000
0000
0000
0002
2000
0000
0010
3003
0000
0000
0000
,
0001
0001
0001
0001
0001
0001
0001
0001
,
2200
0000
0000
0000
3311
0000
0000
0000
2000
0002
0000
0010
3003
0000
0000
0000
,
1000
1000
1000
1000
1000
1000
1000
1000
,
0002
0200
1313
0000
2000
0200
3311
0000
,
0002
0200
1313
0000
2000
0200
3311
0000
,
0002
0200
0010
1000
0313
0000
0000
0000
2000
0200
0010
0001
3310
0000
0000
0000
,
0001
0100
0002
0200
0010
1000
0010
1303
0001
0100
0002
0200
0010
1000
0010
1303
,
0001
0000
0000
0000
,
M00M
0000
0010
0000
0M0M
0000
1000
0000
00MM
0000
0100
0010
MM01
0000
0010
0000
,
M00M
0000
0100
0000
00MM
0000
1000
0000
0M0M
0000
0010
0100
M0M1
0000
0010
0000
,
MM00
0000
0001
0000
0MM0
0000
1000
0000
00MM
0000
0010
0100
M0M1
0000
1000
0000
,
0M0M
0000
0100
0000
00MM
0000
1000
0000
0M0M
0000
0010
0100
00M1
1000
0100
0000
,
M00M
0000
1000
0000
0MM0
0000
0001
0000
M0M0
0000
0010
0001
1MM0
0000
0010
0000
,
M00M
0000
0100
0000
M0M0
0000
0001
0000
0MM0
0000
1000
0100
M01M
0000
0001
0000
,
MM00
0000
0010
0000
M00M
0000
0100
0000
00MM
0000
1000
0001
M1M0
0000
0010
0000
,
0M0M
0000
1000
0000
0MM0
0000
0001
0000
M0M0
0000
0100
0010
1M0M
0000
0100
0000
,
10MM
0000
0001
0100
M0M1
0000
1000
0000
0M0M
0000
0100
1000
01MM
0000
1000
0000
,
0MM1
0000
0010
0001
1MM0
0000
0001
0000
M0M0
0000
1000
0010
M10M
0000
0001
0000
,
1MM0
0000
0001
0010
MM01
0000
1000
0000
00MM
0000
0100
1000
0MM1
0000
0100
0000
,
M01M
0000
1000
0001
MM10
0000
0001
0000
M0M0
0000
1000
0010
1M0M
0000
0001
0000
,
M0M0
0000
0100
0000
M01M
0000
1000
0100
M01M
0000
0001
0010
M00M
0100
1000
0000
,
00MM
0000
0001
0000
M1M0
0000
0010
1000
0MM1
0000
0100
0010
0M0M
1000
0100
0000
,
00MM
0000
0010
0001
MM10
0000
0100
1000
0MM1
0000
0100
0010
0M0M
1000
0100
0000
,
00MM
0000
0010
0001
MM10
0000
0100
1000
0MM1
0000
0100
0010
0M0M
1000
0001
0000
,
1MM0
0000
0001
0100
M0M1
0000
1000
0000
01MM
0000
1000
0001
0MM0
0001
0010
0000
,
MM01
0000
1000
0010
1M0M
0000
0001
0000
M1M0
0000
0100
0010
M00M
0010
1000
0000
,
0MM1
0000
0010
0100
10MM
0000
0001
0000
M1M0
0000
0010
1000
0M0M
1000
0010
0000
,
1MM0
0000
0001
0100
M0M1
0000
1000
0010
100M
0100
0010
0001
MM00
0001
0010
0000
,
M10M
0000
1000
0001
MM10
0000
0100
0000
10MM
0000
1000
0001
0MM0
0001
0100
0000
,
M01M
0000
1000
0001
MM10
0000
0100
0000
10MM
0000
1000
0001
0MM0
0001
0100
0000
,
M01M
0100
0001
0100
M01M
0000
0100
0000
0M1M
1000
0010
0100
M01M
0000
1000
0000
,
01MM
0000
0100
0000
MM10
0000
0001
0000
1M0M
0010
0000
0100
M00M
0000
0000
0000
,
1MM1
0000
0000
0000
;
#NOTES:
     dance-single:
     Renard:
     Beginner:
     3:
     0.255,0.344,0.194,0.097,0.000:
0000
0000
0000
0000
,
0000
0000
0000
0000
,
0000
0000
0000
0000
,
0000
0000
0000
0000
,
0000
0000
0000
0000
,
0000
0000
0000
0000
,
0000
0000
0000
0000
,
0000
0000
0000
0000
,
2000
0000
0000
0000
,
3020
0000
0000
0000
,
0230
0000
0000
0000
,
0000
0000
0000
0000
,
0302
0000
0000
0000
,
0023
0000
0000
0000
,
0230
0000
0000
0000
,
2300
0000
0000
0000
,
3002
1000
0100
1000
,
0100
1000
0100
1000
,
0100
1000
0100
1000
,
0100
1000
0100
1000
,
0103
0100
0010
0010
,
0100
0010
0100
0010
,
1000
1000
0001
0001
,
1000
0001
1000
0000
,
0010
0010
0100
0000
,
0001
0001
1000
0000
,
1000
1000
0001
0000
,
0100
0100
0010
0000
,
1010
0000
0101
0000
,
0001
0010
0100
0000
,
1100
0000
0011
0000
,
1001
0110
1001
0000
,
0110
0110
1001
0000
,
0001
0001
0001
0001
,
1001
0110
1001
0000
,
1000
1000
1000
1000
,
0002
0103
0002
0103
,
0001
0100
0002
0103
,
0001
0100
1000
0010
,
0001
0100
1000
0010
,
0001
0000
0000
0000
,
0001
0000
1000
0000
,
0100
0010
0001
1000
,
0001
0000
1000
0000
,
0001
0010
0100
1000
,
0001
0000
1000
0000
,
0100
0010
0001
1000
,
0001
0000
1000
0000
,
0010
0100
0001
1000
,
0001
0001
0100
0100
,
0010
1000
0010
1000
,
0100
0100
0010
0010
,
0001
1000
0100
0010
,
0001
0001
1000
1000
,
0010
1000
0001
0100
,
0010
0000
0100
0100
,
0010
1000
0100
0000
,
0110
0000
0011
0000
,
0010
0100
1000
0100
,
1100
0000
0011
0000
,
0001
0100
0010
1000
,
1010
0000
0101
0000
,
0001
0010
0001
1000
,
1001
0000
1100
0000
,
1000
0001
0100
0000
,
0110
0000
0000
0000
;
