#TITLE:Love is More (Rob Mayth Remix) EX;
#SUBTITLE:;
#ARTIST:Ceoma feat. The Larx;
#TITLETRANSLIT:;
#SUBTITLETRANSLIT:;
#ARTISTTRANSLIT:;
#CRChallenge:;
#BANNER:love.png;
#BACKGROUND:love-bg.png;
#LYRICSPATH:;
#CDTITLE:!cdtitle.png;
#MUSIC:love.ogg;
#OFFSET:0.000;
#SAMPLESTART:68.836;
#SAMPLELENGTH:12.000;
#SELECTABLE:NO;
#BPMS:0.000=142.000;
#STOPS:;
#BGCHANGES:;
#NOTES:
     dance-single:
     Renard:
     Hard:
     10:
     0.668,0.780,0.774,0.265,0.456:
0000
0000
0000
0000
,
0002
0000
0000
0203
0000
0000
2300
0000
,
0000
0000
0000
0000
,
3002
0000
0000
0023
0000
0000
2030
0000
,
0000
0000
0000
0000
,
3200
0000
0000
0302
0000
0000
2003
0000
,
0000
0000
0000
0000
,
3020
0000
0000
0032
0000
0000
2003
0000
,
0000
0000
0000
0000
,
3020
1000
0100
1000
,
0100
1000
0100
1000
,
0130
0000
0001
0000
0100
0000
0001
0000
0100
0000
0010
0000
0100
0000
0010
0100
,
0010
0000
0000
1001
0000
0000
0100
0000
1001
0000
0000
0000
0000
0000
0000
0000
,
0001
0000
0100
0001
0000
1000
0100
0000
1000
0000
0000
0000
0001
0000
0000
0000
,
0010
0000
0001
1000
0000
0010
1000
0000
0001
0000
0100
0000
0001
0000
0000
0000
,
1000
0000
0100
1000
0000
0001
0010
0000
0001
0000
1000
0000
0010
0000
0000
0000
,
1000
0001
0010
0100
1000
0100
0010
0001
1000
0001
0010
0100
1000
0100
0010
0000
,
0110
0000
0010
0001
0000
1000
0100
0000
0110
0000
0000
0000
1001
0000
0000
0000
,
1010
0000
1001
0000
1100
0000
0000
0000
1001
0000
0000
0101
0000
0000
0000
0000
,
0110
0000
1000
0010
0000
0100
0001
0000
0110
0000
0000
0000
1001
0000
0000
0000
,
0110
0000
0000
0000
0101
0000
0000
0000
1001
0000
0000
1010
0000
0000
0000
0000
,
1010
0000
0100
0001
0000
0010
0100
0000
1100
0000
0000
0000
0011
0000
0000
0000
,
1001
0000
0100
0001
0000
1000
0010
0000
1001
0000
1000
0000
0110
0000
0000
0000
,
0011
0000
0010
0100
0000
1000
0001
0000
0101
0000
0000
0000
0110
0000
0000
0000
,
1010
0000
0100
0001
0000
0010
0100
0000
1000
0000
0001
0000
0010
0000
0100
0000
,
1001
0000
0100
0010
0000
1000
0001
0000
0101
0000
0000
0000
0110
0000
0000
0000
,
1010
0000
1000
0010
0000
0100
0001
0000
0010
0000
0100
0000
1000
0000
0100
0000
,
0011
0000
0010
0100
0000
1000
0001
0000
0101
0000
0010
0000
1001
0000
0000
0000
,
0101
0000
0010
1000
0000
0100
0010
0000
0011
0000
0100
0000
1001
0000
0110
0000
,
1001
0000
0000
0001
0100
0000
0010
0000
1100
0000
0000
0000
1001
0000
0000
0000
,
1010
0000
0100
0001
0000
0010
0100
0000
1100
0000
0010
0000
1001
0000
0100
0000
,
1010
0000
0100
0001
0000
1000
0010
0000
1100
0000
0010
0000
1001
0000
0100
0000
,
1001
0000
0100
0010
0000
1000
0001
0000
0110
0000
1001
0000
0100
0000
0010
1000
,
0001
0000
0100
0010
0000
1000
0100
0000
0011
0000
0010
0000
1100
0000
1000
0000
,
0101
0000
1000
0010
0000
1000
0001
0100
0010
0000
1000
0000
0100
0000
0010
0000
,
0001
0000
0010
0100
0000
1000
0001
1000
0010
0000
0100
0000
1001
0000
0100
0000
,
0010
0000
1000
0100
0000
0010
0001
0000
0010
0100
1000
0001
0010
0000
0001
0000
,
1100
0010
1001
0000
0011
0100
1001
0000
,
1010
0100
1001
0000
0101
0010
1001
0000
,
0001
0000
0001
0100
0010
0000
0010
1000
0100
0000
0100
0010
0001
0000
0001
0010
,
0100
1000
0001
0010
0100
1000
0100
0010
0001
1000
0010
0100
0001
0010
0100
1000
,
0002
0000
0000
0000
,
2003
0000
0000
0000
,
3020
0000
0000
0000
,
0230
0000
0302
0000
,
2003
0000
0000
0000
,
3200
0000
0000
0000
,
0320
0000
0000
0000
,
0032
0000
0000
0000
0000
0000
0000
0000
0000
0000
0000
0000
0000
0000
0000
0000
0000
0000
0000
0000
0000
0000
0000
0000
0000
0000
0000
0000
0000
0000
0000
0003
0002
0000
0000
0000
0000
0000
0000
0000
0000
0000
0000
0000
0000
0000
0000
0000
0000
0000
0000
0000
0000
0000
0000
0000
0000
0000
0000
0000
0000
0000
0000
0003
,
0002
0000
0000
0000
0000
0000
0000
0000
0000
0000
0000
0000
0000
0000
0000
0000
0000
0000
0000
0000
0000
0000
0000
0003
0002
0000
0000
0000
0000
0000
0000
0000
0000
0000
0000
0000
0000
0000
0000
0003
0002
0000
0000
0000
0000
0000
0000
0000
0000
0000
0000
0000
0000
0000
0000
0003
0002
0000
0000
0000
0000
0000
0000
0000
,
1003
0000
1000
0000
1000
0000
0001
0001
1000
0100
0010
0001
0010
0100
1000
0000
,
1001
0000
0000
0001
0100
0000
0010
0000
1100
0000
0000
0000
1001
0000
0000
0000
,
1010
0000
0100
0001
0000
0010
0100
0000
1100
0000
0010
0000
1001
0000
0100
0000
,
1010
0000
0100
0001
0000
1000
0010
0000
1100
0000
0010
0000
1001
0000
0100
0000
,
1001
0000
0100
0010
0000
1000
0001
0000
0110
0000
1001
0000
0100
0000
0010
1000
,
0001
0000
0100
0010
0000
1000
0100
0000
0011
0000
0010
0000
1100
0000
1000
0000
,
0101
0000
1000
0010
0000
1000
0001
0100
0010
0000
1000
0000
0100
0000
0010
0000
,
0001
0000
0010
0100
0000
1000
0001
1000
0010
0000
0100
0000
1001
0000
0100
0000
,
0010
0000
0000
0000
0000
0000
1000
0000
0000
0100
0000
0000
0000
0000
0000
0010
0000
0000
0001
0000
0000
0000
0000
0000
0010
0000
0000
0000
0010
0000
0000
0000
0100
0000
0000
0000
1000
0000
0000
0000
0000
0000
0000
0000
0000
0000
0000
0000
,
1001
0000
0000
0000
;
