#TITLE:Love & Sunshine (Delaction Remix);
#SUBTITLE:;
#ARTIST:4 Skips;
#TITLETRANSLIT:;
#SUBTITLETRANSLIT:;
#ARTISTTRANSLIT:;
#CRChallenge:;
#BANNER:LOVE & SUNSHINE (Delaction Remix).png;
#BACKGROUND:LOVE & SUNSHINE (Delaction Remix)-bg.png;
#LYRICSPATH:;
#CDTITLE:!cdtitle.png;
#MUSIC:LOVE & SUNSHINE (Delaction Remix) - 4 SKIPS.ogg;
#OFFSET:-6.640;
#SAMPLESTART:21.442;
#SAMPLELENGTH:12.000;
#SELECTABLE:YES;
#BPMS:0.000=145.000;
#STOPS:;
#BGCHANGES:;
#NOTES:
     dance-single:
     Renard:
     Hard:
     10:
     0.729,0.773,0.396,0.088,0.566:
1000
0000
1000
0001
0000
0001
0100
0000
0010
0000
0010
1000
0000
1000
0100
0000
,
0010
0000
0010
0001
0000
0001
1000
0000
0010
0000
0000
0000
0110
0000
0000
0000
,
0010
0000
0010
1000
0000
1000
0001
0000
0100
0000
0100
0010
0000
0010
1000
0000
,
0100
0000
0100
0010
0000
0010
0001
0000
1000
0001
1000
0001
1000
0000
0001
0000
,
0100
0010
0100
0010
0100
0000
0010
0000
1000
0010
1000
0010
1000
0000
0010
0000
,
0100
0001
0100
0001
1000
0010
1000
0010
1000
0100
1000
0100
0010
0001
0010
0001
,
1000
0100
0010
0001
0010
0100
1000
0001
0010
0100
1000
0100
0010
0001
1000
0000
,
1MM1
0000
1M1M
0000
M1M1
0000
MM11
0000
11MM
0000
2MM2
0000
,
0000
0000
0000
00M0
0010
00M0
3003
0000
,
1000
0000
0M01
0M01
0000
01M0
01M0
0000
0010
0000
1M00
1M00
0000
01M0
01M0
0000
,
0010
0000
M001
M001
0000
10M0
10M0
0000
0010
0000
100M
0M10
100M
0000
0010
0000
,
0100
0000
00M1
00M1
0000
0M10
0M10
0000
0100
0000
001M
001M
0000
M001
M001
0000
,
1000
0000
0M10
0M10
0000
01M0
01M0
0000
0010
0000
100M
01M0
100M
0000
0001
0000
,
0010
0000
M001
M001
0000
10M0
10M0
0000
0010
0000
010M
010M
0000
M010
M010
0000
,
1000
0000
0M01
0M01
0000
01M0
01M0
0000
0010
0000
100M
01M0
100M
0000
0001
0000
,
0010
0000
M100
M100
0000
100M
100M
0000
0001
0000
0M10
0M10
0000
M001
M001
0000
,
1000
0000
1000
0001
0000
0001
1000
0000
0010
0000
1000
0010
1000
0000
0010
0000
,
1000
0010
0001
0010
1000
0010
0001
0010
,
1000
0010
0001
0010
1000
0010
1010
0000
,
1000
0100
0001
0100
1000
0100
0001
0100
,
1000
0100
0001
0100
1000
0100
1100
0000
,
1000
0001
0100
1000
0100
0001
0100
1000
,
0100
0001
0100
1000
0100
0001
0101
0000
,
0001
0010
1000
0010
0001
0010
1000
0010
,
0001
0010
1000
0010
0001
0000
0011
0000
,
1001
0010
1000
0100
1001
0010
0001
0100
,
1001
0010
1000
0100
1001
0010
0001
0100
,
1001
0010
1000
0100
1001
0010
0001
0100
,
1001
0010
1000
0100
1001
0010
0001
0100
,
1010
0100
0010
1000
0011
0100
0010
0001
,
1010
0100
0010
1000
0011
0100
0010
0001
,
0011
0011
0110
0110
1100
1100
1010
1010
,
2002
0000
0100
3013
,
1000
0000
1000
0001
0000
0001
0100
0000
0010
0000
0010
0100
0000
0100
0001
0000
,
1000
0000
1000
0010
0000
0010
0100
0000
0001
0000
0000
0000
1001
0000
M00M
0000
,
1000
0000
1000
0100
0000
0100
0010
0000
0001
0000
0001
0010
0000
0010
0100
0000
,
1000
0000
1000
0100
0000
0010
0001
0000
1000
0000
M001
0000
M001
0000
0000
0000
,
0100
0000
0100
0010
0000
0010
1000
0000
0001
0000
0001
0100
0000
0100
0010
0000
,
1000
0000
1000
0010
0000
0010
0100
0000
0001
0000
0000
0000
1001
0000
M00M
0000
,
1000
0000
1000
0100
0000
0100
0010
0000
0001
0000
0001
0010
0000
0010
0100
0000
,
1000
0000
0010
0100
0000
0001
0100
0000
0010
1000
0001
1000
0010
0000
1000
0000
,
0001
0000
1000
0000
0100
0000
0010
0001
0000
1000
0001
0000
0010
0000
0100
0000
,
1000
0000
0001
0000
0100
0000
0010
1000
0000
0001
0100
0000
0001
0000
0010
0000
,
0100
0000
1000
0000
0100
0000
0010
0001
0000
1000
0100
0000
1000
0000
0001
0000
,
2000
0000
0200
0000
0010
3300
1100
0000
,
0010
0000
0001
0000
1000
0000
0100
1000
0000
0001
0010
0000
0001
0000
1000
0000
,
0010
0000
0100
0000
0001
0000
0100
0010
0000
1000
0010
0000
0100
0000
0001
0000
,
1000
0000
0100
0000
0010
0000
0001
0010
0000
0100
1000
0000
0001
0000
0010
0000
,
2002
0100
3013
0000
;
#NOTES:
     dance-single:
     Renard:
     Medium:
     8:
     0.531,0.533,0.176,0.044,0.258:
1000
0000
0000
0001
0000
1000
0001
0000
0100
0000
0000
0010
0000
0100
0010
0000
,
1000
0000
0000
0010
0000
1000
0010
0000
0100
0000
0000
0000
1001
0000
0000
0000
,
0001
0000
0000
0100
0000
0001
0010
0000
0001
0000
0000
0010
0000
0100
1000
0000
,
0001
0000
0000
0100
0000
0010
1000
0000
0010
0000
1000
0000
0100
0000
1000
0000
,
0001
0010
0010
0010
0100
1000
1000
1000
,
0010
0100
0001
0100
0010
0100
1000
0100
,
0010
0010
0010
0010
0010
0010
0010
0010
,
0110
0000
0110
0000
1001
0000
1001
0000
0110
0000
2002
0000
,
0000
0000
0000
3013
,
1000
0000
0000
1000
0000
0000
0001
0000
0100
0000
0000
0100
0000
0000
0010
0000
,
1000
0000
0000
1000
0000
0000
0100
0000
0010
0000
0001
0000
0010
0000
0100
0000
,
0010
0000
0000
0010
0000
0000
0001
0000
0100
0000
0000
0100
0000
0000
0001
0000
,
0010
0000
0000
0001
0000
0000
1000
0000
0010
0000
1000
0000
0001
0000
0100
0000
,
0001
0000
0000
0001
0000
0000
0010
0000
0001
0000
0000
1000
0000
0000
0010
0000
,
0100
0000
0000
0001
0000
0000
0010
0000
0100
0000
1000
0000
0001
0000
0100
0000
,
0010
0000
0000
0010
0000
0000
1000
0000
0100
0000
0000
0100
0000
0000
1000
0000
,
0010
0000
0000
0100
0000
0000
0001
0000
0010
0000
0001
0000
1000
0000
0100
0000
,
1000
0000
1100
0000
1000
0100
0010
0001
,
1000
0000
1001
0000
0001
0100
0010
1000
,
0100
0000
1100
0000
1000
0100
0010
0001
,
1000
0000
1001
0000
0001
0100
0010
0000
,
1000
0000
0000
1000
0010
0000
0100
0000
0001
0000
0010
0000
0011
0000
0000
0000
,
0001
0000
0000
0001
0010
0000
0100
0000
1000
0000
0100
0000
1100
0000
0000
0000
,
1000
0000
0000
0010
0100
0000
0001
0000
1000
0000
0001
0000
1000
0000
0100
0000
,
0010
0000
0001
0000
1000
0000
0000
0001
1000
0000
0000
0000
1010
0000
0000
0000
,
1000
0000
0010
0100
0001
0100
0010
1000
,
0100
0000
1000
0001
0010
0001
1000
0010
,
0100
0000
0001
0010
0001
1000
0100
1000
,
0001
0000
0010
0001
1000
0010
1000
0000
,
0001
0000
0000
0100
0001
0000
1000
0000
0100
0000
0010
0000
0001
0000
1000
0000
,
0100
0000
0000
0100
1000
0000
0001
0000
0010
0000
0100
0000
1000
0000
0001
0000
,
0100
0000
0000
0010
1000
0000
0010
0000
0100
0000
0001
0000
1000
0000
0100
0000
,
0010
0001
1000
1001
,
1000
0000
0000
1000
0000
0000
0001
0000
0100
0000
0010
0000
1000
0000
0100
0000
,
0010
0000
0000
0010
0000
0000
0001
0000
1000
0000
0000
0000
1010
0000
0000
0000
,
1000
0000
0000
0010
0000
0000
0100
0000
0001
0000
0010
0000
0001
0000
1000
0000
,
0100
0000
0000
1000
0000
0000
0001
0000
0010
0000
0001
0000
1000
0000
0000
0000
,
0001
0000
0000
0100
0000
0000
0010
0000
1000
0000
0010
0000
0100
0000
0001
0000
,
1000
0000
0000
0100
0000
0000
0010
0000
0001
0000
0010
0000
0100
0000
0000
0000
,
0100
0000
0000
1000
0000
0000
0010
0000
0100
0000
0000
0001
0000
0000
0100
0000
,
0010
0000
0000
1000
0000
0000
0010
0000
0100
0000
0001
0000
0100
0000
0010
0000
,
1000
0000
0100
0000
0010
0001
0010
0100
,
1000
0000
0100
0000
0010
0001
0010
0100
,
1000
0000
0001
0000
0100
0000
0010
1000
0000
0000
0010
0000
1000
0000
0100
0000
,
0010
0001
1000
0000
0001
0000
0000
0000
,
0100
0000
0010
0000
1000
0000
0000
0010
0000
0000
1000
0000
0100
0000
0010
0000
,
0001
0000
0010
0000
0100
0000
1000
0001
0000
0000
1000
0000
0100
0000
0010
0000
,
0001
0000
1000
0000
0010
0100
0001
0100
,
0002
2000
3013
0000
;
#NOTES:
     dance-single:
     Renard:
     Easy:
     5:
     0.349,0.374,0.077,0.022,0.022:
1000
1000
0001
0001
,
0100
0010
0010
1001
,
1000
1000
0100
0100
,
0010
0000
0001
0000
1000
0001
0001
0000
,
1000
1100
0010
0011
,
1000
1010
0100
0101
,
1000
0001
1000
0001
1000
0001
1000
0001
,
1000
0000
1000
0000
1000
0000
0001
0000
0001
0000
0001
0000
,
0000
0000
0000
0000
,
1000
0100
1000
0100
,
0010
0000
0001
0000
1000
0001
1000
0001
,
1000
0001
0100
0010
,
1000
0000
0001
0000
1000
0100
1000
0100
,
1000
0001
0010
0001
,
1000
0000
0010
0000
0100
0001
0100
0001
,
0100
0001
1000
0100
,
0010
0000
0001
0000
1000
0001
1000
0001
,
1000
0001
0100
0010
,
1000
0000
0100
1000
0100
0000
1000
0000
,
0100
0010
0001
1000
,
0001
0000
0100
0001
0100
0001
0100
0001
,
0100
0000
0001
0000
1000
0000
0100
1000
,
0001
0000
0010
0000
0001
0000
1000
0010
,
1000
0000
0001
0000
0010
0000
0001
0010
,
0001
1000
0010
1010
,
1000
0000
1000
0000
0001
0000
0001
0100
,
0001
0000
0001
0000
1000
0000
1000
0100
,
1000
0000
0001
0000
0010
0000
0001
0010
,
0001
1000
0010
1000
,
0001
0000
0001
0000
1000
0000
1000
0100
,
1000
0000
1000
0000
0001
0000
0001
0100
,
0001
0000
0001
0000
0010
0000
0001
0010
,
0001
0001
1000
0000
,
0001
0001
1000
1000
,
0100
0100
0110
0000
,
0010
0010
0001
0001
,
1000
1000
0010
0000
,
0100
0100
0001
0001
,
1000
0100
0010
0000
,
0001
0001
1000
1000
,
0010
1000
0001
0100
,
0010
0000
1000
0010
,
1000
0000
0010
1000
,
0001
0000
0100
0001
,
1000
0100
0010
0000
,
0001
0000
1000
0000
0001
0000
0100
0001
,
0100
0000
0001
0000
1000
0000
0100
1000
,
0100
1000
0001
0010
,
0002
0000
2000
0000
0010
3003
0000
0000
;
#NOTES:
     dance-single:
     Renard:
     Beginner:
     2:
     0.264,0.240,0.000,0.198,0.000:
1000
0000
1000
0000
,
0001
0000
1000
0001
,
1000
0000
0001
0000
,
0100
0100
0010
0010
,
1000
1000
0001
0001
,
1000
0001
1000
0001
,
0010
0010
0010
0010
,
0200
0000
2300
0000
,
3001
0000
0000
0000
,
1000
1000
1000
1000
,
0001
0100
0001
0000
,
1000
1000
1000
1000
,
0001
0100
0001
0000
,
0001
0001
0001
0001
,
1000
0100
1000
0000
,
0001
0001
0001
0001
,
1000
0100
1000
0000
,
0001
0000
0001
0010
,
0001
0000
1000
0010
,
1000
0000
0001
0100
,
0001
0000
1000
0100
,
2000
0000
3001
0001
,
0020
0000
0130
0100
,
2000
0000
3001
0001
,
0100
0001
0100
0001
,
1000
0000
0001
0000
,
0010
0000
0001
1000
,
0010
0000
1000
0000
,
0001
0100
0001
0000
,
1000
0100
1000
0100
,
1000
0001
1000
0001
,
0010
0001
0010
0001
,
1000
1000
0001
0100
,
0002
0000
2003
0000
,
3200
0000
0310
0000
,
0002
0000
2003
0000
,
3020
0000
1030
0000
,
0002
0000
0203
0000
,
0302
0000
0013
0000
,
0200
0000
2300
0000
,
3020
0000
0130
0100
,
0010
0010
0010
0010
,
0100
0010
0100
0010
,
1000
1000
1000
1000
,
0001
0010
0001
0000
,
1000
1000
1000
1000
,
0001
0100
0001
0100
,
0001
0001
0001
0000
,
2000
0000
3001
0000
;
