#TITLE:Louisiana Bob;
#SUBTITLE:;
#ARTIST:Maximum the Hormone;
#TITLETRANSLIT:;
#SUBTITLETRANSLIT:;
#ARTISTTRANSLIT:;
#CRChallenge:;
#BANNER:bob.png;
#BACKGROUND:bob-bg.png;
#LYRICSPATH:;
#CDTITLE:;
#MUSIC:bob.ogg;
#OFFSET:0.000;
#SAMPLESTART:30.196;
#SAMPLELENGTH:12.000;
#SELECTABLE:YES;
#BPMS:0.000=190.000,304.000=95.000,306.000=190.000;
#STOPS:307.000=0.632
;
#BGCHANGES:;
#NOTES:
     dance-single:
     Renard:
     Hard:
     11:
     0.860,1.000,0.954,0.134,0.081:
0000
0000
0000
0000
,
0000
0000
0000
0000
,
0000
0000
0000
0000
,
0000
0000
0000
0000
,
0001
0010
0100
1000
0100
0010
0100
0010
,
0001
0010
0100
1000
0100
0010
0100
0010
,
0001
0100
0010
1000
0010
0100
0010
0100
,
0001
0100
0010
1000
0010
0100
0010
0100
,
0002
0200
0000
0010
1303
0000
0101
0000
,
2000
0200
0000
0010
3301
0000
1100
0000
,
0002
0200
0000
0010
1303
0000
0101
0000
,
0001
0100
0010
1000
0100
0000
1100
0000
,
1000
1000
0100
0100
0010
0001
0011
0000
,
0001
0001
0010
0010
0100
1000
1100
0000
,
1000
1000
0010
0010
0100
0001
0101
0000
,
0100
0010
1000
0100
0010
0000
0110
0000
,
0100
1100
0000
1000
0100
0010
0001
0100
,
0001
1000
0001
1001
0000
0110
0000
1010
,
0210
0000
0301
0000
0101
0010
1000
1100
,
0000
1000
0100
0010
0001
0100
0001
0000
,
1000
0011
0000
0100
1000
0010
0100
0001
,
1000
0100
0010
0011
0000
1100
0000
1001
,
0120
0000
1030
0000
0100
0001
0010
0011
,
0000
0010
0100
1000
0001
0100
0001
0000
,
0001
0100
1000
0100
0001
0100
1000
0100
,
0001
0001
0100
0100
0000
0000
0000
1010
,
0000
0010
0001
0010
1000
0010
0001
0010
,
1000
1000
0010
0010
0000
0000
0010
1000
,
0100
0010
0001
0100
0010
1000
0100
0010
,
0001
0100
0010
1000
0100
0010
0001
1000
,
0100
1000
0100
1000
0001
1000
0001
1000
,
0010
1000
0100
1000
1001
0000
0000
0000
,
1000
0100
1100
0010
0001
0011
0001
0101
,
0100
0010
0110
1000
0010
1010
0100
0101
,
0001
0010
0011
0100
1000
1100
1000
1010
,
0010
0100
0110
0001
0100
0001
1001
0000
,
0001
0010
0011
0100
1000
1100
1000
1010
,
0010
0100
0110
0001
0100
0101
0010
1010
,
1000
0100
1100
0010
0001
0011
0001
0101
,
0100
0010
0110
1000
0010
1000
1001
0000
,
0001
0000
0100
0001
1000
0000
0100
1000
0001
0000
0100
0001
1000
0000
0100
0000
,
1000
0000
0001
0100
0001
0000
1000
0100
1000
0000
0001
1000
0100
0000
1000
0000
,
0001
0000
0100
0001
1000
0000
0100
1000
0001
0000
0100
0001
1000
0000
0100
0000
,
1000
0000
0001
0100
0001
0000
1000
0100
1000
0000
0001
1000
0100
0000
0010
0000
,
0001
0000
0010
0100
1000
0000
0000
0000
1100
0000
0000
0110
0000
0000
0011
0000
,
0100
0000
1010
0100
0000
1010
0100
1001
,
0000
0000
0101
0000
0010
0000
0000
0000
1100
0000
0000
0011
0000
0000
0100
0000
,
1001
0000
0100
0100
0001
0001
1000
0001
,
1000
0100
1100
0000
0011
0011
0000
0101
,
0101
0000
0110
0110
0000
0010
1000
0100
,
0010
0001
0011
0000
0010
0110
0000
1100
,
1100
0000
1001
1001
0000
1000
0010
0100
,
0001
0010
0011
0000
0010
0110
0000
0100
,
1000
0010
0100
0010
0100
0101
0000
0000
,
0100
0010
1000
0100
1100
0000
1000
0010
,
0100
0001
0010
0100
1000
0001
0101
0000
,
0001
0100
1000
0100
0001
0100
1000
0100
,
0001
0001
0100
0100
0000
0000
0000
1010
,
0000
0010
0001
0010
1000
0010
0001
0010
,
1000
1000
0010
0010
0000
0000
0010
1000
,
0100
0010
0001
0100
0010
1000
0100
0010
,
0001
0100
0010
1000
0100
0010
0001
1000
,
0100
1000
0100
1000
0001
1000
0001
1000
,
0010
1000
0100
1000
1001
1001
0101
0101
,
2002
0000
0000
0000
,
0110
0000
0000
3113
0000
0000
0000
0220
,
0000
0000
0000
0000
,
1001
0000
0000
1331
0000
0010
0010
1000
,
0010
1000
0100
0010
0001
0100
0010
1000
,
0100
0010
0001
0100
0010
1000
0100
0010
,
0001
0001
0010
0010
0100
0100
1000
1000
,
0010
0100
0001
0010
0100
1000
0001
0100
,
0010
0010
1000
1000
0100
0100
0010
0001
,
0010
0100
1000
0001
0100
0010
1000
0100
,
0010
0010
0001
0001
1000
1000
0100
0010
,
0000
0001
0010
0100
1000
0001
0100
0010
,
1000
0010
1010
0100
0101
0101
0000
0000
,
0101
0101
0110
0110
1010
1010
0110
0110
,
0101
0000
0101
0000
0110
0000
0110
0000
0000
0000
0000
0000
0000
2012
0000
0000
,
0000
0000
0000
0000
,
0000
0000
0000
0000
0000
0000
0000
0000
0000
0000
0000
0000
0000
0000
0000
0000
0000
0000
0000
0000
0100
3003
0000
0000
;
#NOTES:
     dance-single:
     Renard:
     Medium:
     9:
     0.730,0.695,0.248,0.019,0.010:
0000
0000
0000
0000
,
0000
0000
0000
0000
,
0000
0000
0000
0000
,
0000
0000
0000
0000
,
1000
0100
0010
0000
0001
0010
0000
0100
,
1000
0001
0100
0000
0010
1000
0000
0001
,
0100
0010
1000
0000
0100
0010
0000
0001
,
0010
0100
1000
0000
0001
0100
0000
0010
,
1000
0000
0010
0000
1000
0010
1000
0001
,
0100
0000
0010
0000
1000
0100
0010
0001
,
0010
0000
0100
0000
1000
0001
0010
0100
,
1000
0001
0100
0010
,
1000
0001
0100
0010
1000
0000
1010
0000
,
1000
0100
0010
0001
0010
0000
0011
0000
,
0001
0010
0100
1000
0001
0000
0101
0000
,
0010
1000
0100
0010
,
0001
0010
0100
1000
0001
0010
0100
1000
,
0001
0010
0100
1000
0001
0010
0100
1000
,
0001
0100
0010
1000
0001
0100
0010
1000
,
0100
0010
0001
0010
0100
0000
0110
0000
,
0100
1000
0010
0100
0001
1000
0100
0010
,
0001
0010
0100
1000
0010
0100
0001
1000
,
0100
0010
0001
0010
0100
1000
0010
0100
,
0001
1000
0100
0010
0001
0010
0001
0000
,
0001
0010
0100
1000
0001
0100
0010
1000
,
0100
0010
0001
1000
0000
0001
0000
1001
,
0000
1000
0010
0100
0001
1000
0100
0010
,
0001
1000
0010
0100
0000
0010
0000
0110
,
0000
0010
1000
0100
0010
0001
0000
0011
,
0000
0010
0100
1000
0001
0100
0010
0000
,
1000
0010
1000
0001
0100
0010
1000
0100
,
0010
0001
0010
0000
1100
0000
0000
0000
,
1000
0100
0000
0010
0001
0000
0010
0100
,
1000
0001
0000
0010
0100
0000
1000
0001
,
0100
0010
0000
1000
0010
0000
0100
0001
,
0100
0010
0000
1000
0001
0000
0100
0000
,
0010
1000
0100
0010
0001
0010
0100
1000
,
0100
0010
0001
0010
0100
1000
0100
0010
,
0001
0100
0010
1000
0001
0100
0010
1000
,
0010
0100
0001
0100
0010
1000
0001
0000
,
0100
0010
1000
0000
0010
0100
0001
0000
,
0100
0010
1000
0100
0010
0001
0010
0001
,
0010
0100
1000
0000
0001
0100
0010
0000
,
1000
0100
0010
0001
0010
0100
1000
0100
,
1000
0001
0100
0010
1000
0000
0010
0000
,
1000
0010
0100
0001
0100
0000
0010
0000
,
1000
0100
0010
0001
0010
0000
0100
0000
,
1000
0001
0100
0010
1000
0000
0100
0000
,
0010
0001
0010
0001
0010
0100
0010
0100
,
0010
0100
1000
0100
1000
0001
0100
0010
,
1000
0100
1000
0100
0010
0100
0010
0100
,
0010
0001
0010
0001
0010
0100
1000
0001
,
0100
0010
1000
0100
1000
0010
0100
0001
,
0010
0100
0010
0001
0100
0010
1000
0100
,
0010
0100
1000
0010
0100
0001
1000
0100
,
0010
0001
1000
0001
1000
0001
1001
0000
,
1001
0000
1000
0010
0100
0001
1000
0100
,
0010
0001
0010
0001
0000
1001
0000
1010
,
0000
1000
0010
0100
0001
0010
0100
1000
,
0001
0100
0010
0100
0000
0110
0000
1001
,
0000
1000
0001
0100
0010
1000
0000
1010
,
0000
1000
0010
0100
0001
0010
0100
1000
,
0100
1000
0100
1000
0001
1000
0001
1000
,
0010
1000
0100
1000
0001
0000
1001
0000
,
1000
0001
1000
0001
0100
0001
0100
0001
,
0010
0001
1000
0001
0000
1001
0000
0110
,
0000
0010
1000
0001
1000
0010
1000
0100
,
1000
0001
1000
0010
0000
1010
0000
1001
,
0000
1000
0100
0010
0001
0010
0100
0110
,
0000
0100
0010
0100
1000
0010
0100
0001
,
1000
0100
0010
0001
0010
0100
1000
0001
,
0000
0100
0001
0100
0010
1000
0100
0000
,
1100
0000
1000
0100
0010
0001
0010
0100
,
1000
0001
0100
0010
1000
0100
1000
0000
,
1100
0000
1000
0100
0010
0001
0100
0010
,
1000
0100
0010
0001
1000
0010
0100
0001
,
0100
0010
1000
0100
0011
0011
0000
0000
,
0010
0100
1000
0001
0010
0100
1000
0001
,
0100
0000
0010
0000
1000
0000
0100
0000
0000
0000
0000
0000
0000
2012
0000
0000
,
0000
0000
0000
0000
,
0000
0000
0000
0000
0000
0000
0000
0000
0000
0000
0000
0000
0000
0000
0000
0000
0000
0000
0000
0000
0100
3003
0000
0000
;
#NOTES:
     dance-single:
     Renard:
     Easy:
     6:
     0.465,0.579,0.248,0.057,0.010:
0000
0000
0000
0000
,
0000
0000
0000
0000
,
0000
0000
0000
0000
,
0000
0000
0000
0000
,
0001
0000
1000
0000
0000
0100
0000
0010
,
0000
0000
0001
0000
0000
1000
0000
0010
,
0000
0000
0100
0000
0000
0001
0000
1000
,
0000
0000
0100
0000
0000
0010
0000
0001
,
1000
0000
0010
0000
1000
0010
1000
0000
,
0001
0100
0001
0000
,
1000
0000
0100
0000
0010
0001
0010
0000
,
0100
1000
0001
0000
,
0100
0100
0100
0110
,
0010
0010
0010
0110
,
0100
0100
0100
0110
,
0000
0000
0000
0000
,
0010
0010
1000
1000
,
0001
0100
0001
0100
0000
0000
0001
0000
,
1000
1000
0100
0100
,
0010
0001
0010
0001
0000
0000
1000
0000
,
0010
0010
0100
0100
,
0001
1000
0001
1000
0000
0000
0010
0000
,
0100
0000
0100
0000
0001
1000
0001
1000
,
0000
0001
1000
0100
,
0100
1000
0100
1000
0100
1000
0100
1000
,
0100
1000
0100
1000
0000
0000
0000
0000
,
0001
0010
0001
0010
0001
0010
0001
0010
,
0001
0010
0001
0010
0000
0000
0000
0000
,
0001
1000
1001
0000
,
0010
0100
0110
0000
,
0110
0110
1001
1001
,
0110
0000
0000
0000
,
0201
0000
0000
0010
0000
0000
0010
0300
,
1020
0000
0000
0100
0000
0000
0100
0030
,
0201
0000
0000
0010
0000
0000
0010
0300
,
1020
0000
0000
0100
0000
0000
0130
0000
,
0100
0010
0100
0010
,
1000
0010
1000
0010
,
0100
0001
0100
0001
,
1000
0001
1001
1001
,
1000
1000
0100
0100
,
0010
0001
0010
0001
0010
0001
0010
0001
,
1000
1000
0100
0100
,
0010
0001
0010
0001
0010
0001
0010
0001
,
0000
1000
0100
0000
,
1000
0010
0100
0001
,
0000
1000
0100
0000
,
0010
0001
1000
0010
,
0000
0000
1010
0000
0000
1001
0000
0000
,
1100
0000
1000
0100
0000
0000
0010
0000
,
0000
0000
0011
0000
0000
1001
0000
0000
,
0101
0000
0100
0010
0000
0000
0110
0000
,
0000
0000
0010
0000
1000
0010
0000
0000
,
1000
0000
0001
0000
0100
0001
0000
0000
,
0000
1000
0100
0010
,
0001
0000
0010
0100
1000
0001
1000
0000
,
0001
0001
0001
0001
,
1000
0010
1000
0010
0000
0000
0000
0000
,
1000
1000
1000
1000
,
0001
0010
0001
0010
0000
0000
0000
0001
,
0000
0001
1000
0000
0010
0000
0000
0100
,
0000
0100
0010
0000
0100
0000
0000
0000
,
0001
0001
1000
0000
,
0001
0000
1000
0000
,
0001
0100
0001
0100
0001
0100
0001
0100
,
0001
0000
0000
0100
0000
0000
0000
0000
,
0010
1000
0010
1000
0010
1000
0010
1000
,
0010
0000
0000
1000
0000
0000
0000
0000
,
0100
1000
0100
0000
,
0010
0001
0010
0000
,
0001
1000
0001
1000
0001
1000
0001
1000
,
0000
0001
1000
0000
,
0010
0100
0010
0100
0010
0100
0010
0100
,
0000
0010
0100
0010
,
1000
0010
1000
0010
1000
0010
1000
0010
,
0000
1000
0010
0100
,
0110
0000
1001
0000
0010
0100
0000
0000
,
0001
1000
0001
1000
0001
1000
0001
1000
,
0001
0000
1000
0000
0001
0000
1000
0000
0000
0000
0000
0000
0000
2002
0000
0000
,
0000
0000
0000
0000
,
0000
0000
0000
0000
0000
0000
0000
0000
0000
0000
0000
0000
0000
0000
0000
0000
0000
0000
0000
0000
0010
3003
0000
0000
;
#NOTES:
     dance-single:
     Renard:
     Beginner:
     4:
     0.371,0.579,0.458,0.029,0.010:
0000
0000
0000
0000
,
0000
0000
0000
0000
,
0000
0000
0000
0000
,
0000
0000
0000
0000
,
0001
0000
0010
0000
0000
0100
0000
0000
,
1000
0000
0010
0000
0000
1000
0000
0000
,
0001
0000
0100
0000
0000
0010
0000
0000
,
1000
0000
0010
0000
0000
0100
0000
0000
,
0001
0001
1000
1000
,
0010
0010
0100
0100
,
0010
0010
1000
0002
,
0000
0000
0000
0003
,
1000
1000
1000
0101
,
1000
1000
1000
0101
,
1000
1000
1000
0101
,
0000
0000
0000
0000
,
0001
0001
1000
0000
,
0001
0001
1000
0000
,
0110
0110
1001
1001
,
0110
0000
0010
0000
,
0100
0100
0100
0000
,
0001
0001
0001
0000
,
1001
1001
0110
0110
,
1001
0000
0000
0000
,
1001
0000
0000
0000
,
0110
0000
0000
1001
0000
0000
0000
0000
,
0110
0000
0000
0000
,
1001
0000
0000
0110
0000
0000
0000
0000
,
0010
0000
0100
0000
0010
0100
0000
0000
,
0001
0000
1000
0000
0001
1000
0000
0000
,
0010
0100
0010
1000
,
0001
0000
0000
0000
,
1100
0000
0000
1100
0000
0000
1100
0000
,
0011
0000
0000
0011
0000
0000
0011
0000
,
0101
0000
0000
0101
0000
0000
0101
0000
,
1010
0000
0000
1010
0000
0000
1010
0000
,
1000
0000
0000
0001
0000
0000
0100
0000
,
0010
0000
0000
1000
0000
0000
0010
0000
,
0100
0000
0000
0001
0000
0000
1000
0000
,
0100
0010
0001
1000
,
0001
0001
0001
0001
,
0001
0000
0001
0000
0001
0100
0001
0000
,
1000
1000
1000
1000
,
1000
0000
1000
0000
1000
0100
1000
0000
,
0000
0001
0100
0000
,
0100
0000
0100
0010
,
0000
1000
0010
0000
,
0010
0000
0010
0100
,
0000
0001
1000
0000
,
0100
0010
0001
1000
,
0000
0001
0010
0000
,
0100
1000
0001
0100
,
0010
0010
0100
0100
,
0010
0100
0010
0000
,
0100
0001
0100
0010
,
1000
1000
1000
1000
,
0101
0000
0000
0000
,
1010
0000
0000
1001
0000
0000
0000
0000
,
0101
0000
0000
0000
,
1010
0000
0000
1001
0000
0000
0000
0000
,
1000
0100
1100
0000
,
0001
0010
0011
0000
,
0001
0001
1000
1000
,
0010
0000
0100
0000
,
0110
0000
0000
0000
,
1001
0000
0000
0110
0000
0000
0000
1001
,
0000
0000
0000
0000
,
0110
0000
0000
1001
0000
0000
0000
0000
,
1000
1000
0001
0000
,
0100
0100
0010
0000
,
1000
0010
0100
0001
,
1000
0000
0000
0000
,
0001
0001
0100
0010
,
1000
0000
0000
0000
,
0010
0010
1000
0001
,
0100
0000
0000
0000
,
1001
0000
0110
0000
0001
1000
0000
0000
,
0001
1000
0001
1000
0001
1000
0001
1000
,
0001
0000
1000
0000
0001
0000
1000
0000
0000
0000
0000
0000
0000
2002
0000
0000
,
0000
0000
0000
0000
,
0000
0000
0000
0000
0000
0000
0000
0000
0000
0000
0000
0000
0000
0000
0000
0000
0000
0000
0000
0000
0010
3003
0000
0000
;
