#TITLE:Lockjaw;
#SUBTITLE:;
#ARTIST:Sota Fujimori;
#TITLETRANSLIT:;
#SUBTITLETRANSLIT:;
#ARTISTTRANSLIT:;
#GENRE:;
#CRChallenge:;
#MENUCOLOR:;
#BANNER:lockjaw.png;
#BACKGROUND:lockjaw-bg.png;
#LYRICSPATH:;
#CDTITLE:white.png;
#MUSIC:lockjaw.ogg;
#OFFSET:0.000;
#SAMPLESTART:19.000;
#SAMPLELENGTH:12.000;
#SELECTABLE:YES;
#LISTSORT:;
#BPMS:0.000=400.000;
#STOPS:;
#TICKCOUNT:0.000=2;
#BGCHANGES:;
#KEYSOUNDS:;
#ATTACKS:;
#NOTES:
     dance-single:
     Renard:
     Hard:
     12:
     1.000,1.000,1.000,0.107,0.000:
0000
0000
0000
0000
,
0000
0000
0000
0000
,
0000
0000
0000
0000
,
0000
0000
0000
0000
,
0000
0000
0000
0000
,
0000
0000
0000
0000
,
0000
0000
0000
0000
,
0000
0000
0000
0000
,
0000
0000
0000
0000
,
0000
0000
0000
0000
,
0000
0000
0000
0000
,
0000
0000
0000
0000
,
0000
0000
0000
0000
,
0000
0000
0000
0000
,
0000
0000
0000
0000
,
0000
0000
0000
0000
,
0001
0001
0010
0100
,
1000
1000
0100
0010
,
0001
0001
0010
0100
,
1000
0000
1000
0000
0001
1000
0001
1000
,
0001
0001
0100
0010
,
1000
1000
0010
0100
,
0001
0001
0100
0010
,
1000
0000
1000
0000
0001
1000
0001
1000
,
0002
0013
0100
2000
,
3010
0100
0001
0100
,
0020
1030
0100
0020
,
0031
0000
1000
0000
0001
1000
0001
1000
,
0002
0103
0010
2000
,
3100
0010
0002
0003
,
0010
0100
1000
0020
,
0130
0001
2000
3001
,
0101
0101
0101
0000
,
1010
1010
0000
1100
,
0000
0011
0000
1001
,
0000
1000
0001
0000
,
1010
1010
1010
0000
,
0101
0101
0000
0011
,
0000
1100
0000
1001
,
0000
0001
1000
0001
,
1100
1100
1100
0000
,
0011
0011
0000
1010
,
0000
0101
0000
0110
,
0000
0010
0100
0000
,
0011
0011
0011
0000
,
1100
1100
1001
0000
,
0101
0000
1001
0000
,
1010
0000
1001
0000
,
1000
0100
0010
1000
,
0100
0010
0001
1000
,
0001
0010
0100
0001
,
0010
0100
1000
0001
,
1000
0100
0010
1000
,
0100
0010
0001
1000
,
0001
0010
0100
0001
,
0010
0100
1000
0001
,
1000
0010
0100
1000
,
0010
0100
0001
1000
,
0001
0100
0010
0001
,
0100
0010
1000
0001
,
1000
0010
0100
1000
,
0010
0100
0001
1000
,
0001
0100
0010
0001
,
0100
0010
1001
0000
,
0001
0100
0010
1000
,
1000
0000
0001
0010
0001
0000
1000
0000
,
0010
0100
0001
1000
,
1000
0000
0100
1000
0100
0000
1000
0000
,
0010
0100
0100
0001
,
0010
0000
0001
1000
0001
0000
0010
0000
,
0100
1000
1000
0001
,
0100
0000
0010
1000
0010
0000
0100
0000
,
0001
0100
0010
1000
,
1000
0000
0001
0010
0001
0000
1000
0000
,
0010
0100
0001
1000
,
1000
0000
0100
1000
0100
0000
1000
0000
,
0010
0100
0100
0001
,
0010
0000
0001
1000
0001
0000
0010
0000
,
1001
0001
1001
1000
,
1001
0001
1001
0000
,
M1M1
M1M1
M1M1
M0M0
,
11MM
11MM
00MM
MM11
,
MM00
11MM
00MM
M1M1
,
M0M0
1M1M
1M1M
0M0M
,
M1M1
M1M1
M1M1
M0M0
,
M11M
M11M
M00M
1M1M
,
0M0M
11MM
00MM
1MM1
,
0MM0
M1M1
M1M1
M1M1
,
M11M
M11M
M11M
M00M
,
1M1M
1M1M
0M0M
11MM
,
00MM
MM11
MM00
M0M1
,
M1M0
1M1M
1M1M
010M
,
1M1M
1M1M
1M1M
0M0M
,
MM11
MM11
MM11
MM00
,
1MM1
1MM1
1MM1
0MM0
,
M11M
M00M
M11M
M00M
,
0010
0000
1000
0010
1000
0000
0010
0000
,
0100
0000
0001
0100
0001
0000
0100
0000
,
0010
0000
1000
0100
1000
0000
0010
0000
,
0100
0000
0001
0010
0001
0000
0100
0000
,
0010
0000
1000
0010
1000
0000
0010
0000
,
0100
0000
0001
0100
0001
0000
0100
0000
,
0010
0000
1000
0100
1000
0000
0010
0000
,
0100
0000
0001
0010
0001
0000
1000
0000
,
0010
0000
1000
0010
1000
0000
0010
0000
,
0100
0000
0001
0100
0001
0000
0100
0000
,
0010
0000
1000
0100
1000
0000
0010
0000
,
0100
0000
0001
0010
0001
0000
0100
0000
,
0010
0000
1000
0010
1000
0000
0010
0000
,
0100
0000
0001
0100
0001
0000
0100
0000
,
1001
0010
1001
0010
,
1001
0010
1001
0000
,
0001
0100
0001
0100
0001
0100
0001
0100
,
0010
0010
0010
0010
,
1000
0100
1000
0100
1000
0100
1000
0100
,
0010
0010
0010
0010
,
0001
0100
0001
0100
0001
0100
0001
0100
,
0010
0010
0010
0010
,
1000
0100
1000
0100
1000
0100
1000
0100
,
0010
0010
0010
0010
,
0001
0010
0011
0010
,
0100
0010
0110
0100
,
1000
0100
1100
1000
,
0010
1000
1010
0010
,
0101
0010
1000
0101
,
0010
1001
0010
0101
,
0010
1001
0010
1100
,
0010
1001
0010
1100
,
1001
0000
1010
0000
,
1001
0000
0101
0000
,
1001
0000
1010
0000
,
1001
0000
0101
0000
,
1001
0000
1100
0000
,
1001
0000
0011
0000
,
1001
0000
1100
0000
,
1001
0000
0011
0011
,
1001
0000
1100
0000
,
0011
0000
0101
0000
,
1001
0000
0011
0000
,
1100
0000
1010
0000
,
1001
0000
0101
0000
,
1010
0000
1100
0000
,
1001
0000
1100
0000
,
0011
0011
0000
0011
,
0100
1000
0100
1000
0100
1000
0100
1000
,
0001
0010
0001
0010
0001
0010
0001
0010
,
0100
1000
0100
1000
0100
1000
0100
1000
,
0001
0001
0001
0001
,
1000
0010
1000
0010
1000
0010
1000
0010
,
0100
0001
0100
0001
0100
0001
0100
0001
,
1000
0010
1000
0010
1000
0010
1000
0010
,
0100
0001
1000
1000
,
0100
1000
0100
1000
0001
1000
0100
1000
,
0100
1000
0100
1000
0001
1000
0100
1000
,
0100
0100
0001
0100
,
1000
1000
0010
1000
,
0101
0010
1000
0110
,
0000
0110
1000
0110
,
0000
0101
0010
1010
,
0000
0110
0001
0110
,
0000
1010
0100
0011
,
0000
1001
0010
1100
,
0000
0101
0010
1001
,
0000
1100
0010
1001
,
0220
0000
0000
0000
,
0000
0000
0000
0000
,
0330
0000
0000
0000
;
#NOTES:
     dance-single:
     Renard:
     Medium:
     10:
     0.872,1.000,1.000,0.107,0.000:
0000
0000
0000
0000
,
0000
0000
0000
0000
,
0000
0000
0000
0000
,
0000
0000
0000
0000
,
0000
0000
0000
0000
,
0000
0000
0000
0000
,
0000
0000
0000
0000
,
0000
0000
0000
0000
,
0000
0000
0000
0000
,
0000
0000
0000
0000
,
0000
0000
0000
0000
,
0000
0000
0000
0000
,
0000
0000
0000
0000
,
0000
0000
0000
0000
,
0000
0000
0000
0000
,
0000
0000
0000
0000
,
0001
1000
0010
0100
,
0001
1000
0100
0010
,
0001
1000
0010
0100
,
0001
0000
1000
0000
0001
1000
0001
1000
,
0001
1000
0100
0010
,
0001
1000
0010
0100
,
0001
1000
0100
0010
,
0001
0000
1000
0000
0001
1000
0001
1000
,
0002
0013
0100
2000
,
3010
0100
0001
0100
,
0020
1030
0100
0020
,
0031
0000
1000
0000
0001
1000
0001
1000
,
0002
0103
0010
2000
,
3100
0010
0002
0003
,
0010
0100
1000
0020
,
0130
0001
2000
3001
,
0100
0001
0100
0000
,
0010
1000
0000
0100
,
0000
0010
0000
1001
,
0000
1000
0001
0000
,
1000
0010
1000
0000
,
0001
0100
0000
0011
,
0000
1100
0000
1001
,
0000
0001
1000
0001
,
1000
0100
1000
0000
,
0001
0010
0000
1010
,
0000
0101
0000
0110
,
0000
0010
0100
0000
,
0001
0010
0001
0000
,
1000
0100
0010
0001
,
0101
0000
1001
0000
,
1010
0000
1001
0000
,
1000
0001
1000
0000
,
0001
0100
0001
0000
,
0100
0010
0100
0000
,
0010
1000
0010
0000
,
1000
0100
1000
0000
,
0001
0010
0001
0000
,
0100
0001
0100
0000
,
0010
1000
0100
0010
,
0001
1000
0001
0000
,
1000
0100
1000
0000
,
0001
0010
0001
0000
,
1000
0010
1000
0000
,
0001
0100
0001
0000
,
0100
0010
1000
0000
,
0100
0010
0001
0010
,
0100
1000
0001
1000
,
0001
0100
0010
1000
,
0001
0000
1000
0001
1000
0000
0001
0000
,
0010
0100
1000
0001
,
1000
0000
0100
1000
0100
0000
1000
0000
,
0010
0100
0001
1000
,
0010
0000
1000
0001
1000
0000
0010
0000
,
0100
0001
1000
0001
,
0100
0000
0010
1000
0010
0000
0100
0000
,
0001
0100
0010
1000
,
0001
0000
1000
0010
1000
0000
0001
0000
,
0010
0100
1000
0001
,
1000
0000
0100
1000
0100
0000
1000
0000
,
0010
0100
0001
1000
,
0010
0000
0100
0001
0100
0000
0010
0000
,
1000
0001
1000
0001
,
1000
0001
1000
0000
,
0101
0101
0101
0000
,
1100
1100
0000
0011
,
0000
1100
0000
0101
,
0000
1010
1010
0000
,
0101
0101
0101
0000
,
0110
0110
0000
1010
,
0000
1100
0000
1001
,
0000
0101
0101
0000
,
0110
0110
0110
0000
,
1010
1010
0000
1100
,
0000
0011
0000
0001
,
1000
0010
0010
1000
,
1010
1010
1010
0000
,
0011
0011
0011
0000
,
1001
1001
1001
0000
,
0110
0000
0110
0000
,
0010
0000
1000
0010
1000
0000
0010
0000
,
0100
0000
0001
0100
0001
0000
0100
0000
,
0010
0000
1000
0100
1000
0000
0010
0000
,
0100
0000
0001
0010
0001
0000
0100
0000
,
0010
0000
1000
0010
1000
0000
0010
0000
,
0100
0000
0001
0100
0001
0000
0100
0000
,
0010
0000
1000
0100
1000
0000
0010
0000
,
0100
0000
0001
0010
0001
0000
1000
0000
,
0010
0000
1000
0010
1000
0000
0010
0000
,
0100
0000
0001
0100
0001
0000
0100
0000
,
0010
0000
1000
0100
1000
0000
0010
0000
,
0100
0000
0001
0010
0001
0000
0100
0000
,
0010
0000
1000
0010
1000
0000
0010
0000
,
0100
0000
0001
0100
0001
0000
0100
0000
,
1001
0000
1001
0000
,
1001
0000
1001
0000
,
1000
0001
0100
0010
,
1000
0100
0010
0001
,
0010
0100
1000
0010
,
0100
1000
0100
0010
,
0100
0001
0010
0100
,
0001
0100
1000
0010
,
0100
1000
0100
0010
,
0100
0001
0010
0100
,
0001
0100
1000
0010
,
0100
1000
0100
0010
,
0100
0001
0010
0100
,
0001
0100
0010
0100
,
1000
0010
0100
0110
,
0000
0101
0000
0110
,
0000
1010
0000
0101
,
0000
1010
0000
0001
,
1001
0000
1010
0000
,
1001
0000
0101
0000
,
1001
0000
1010
0000
,
1001
0000
0101
0000
,
1001
0000
1100
0000
,
1001
0000
0011
0000
,
1001
0000
1100
0000
,
1001
0000
0011
0000
,
1001
0000
1100
0000
,
0011
0000
0101
0000
,
1001
0000
0011
0000
,
1100
0000
1010
0000
,
1001
0000
0101
0000
,
1010
0000
1100
0000
,
1001
0000
1100
0000
,
0011
0011
0000
0011
,
0100
1000
0001
0100
,
0010
1000
0100
0001
,
0100
1000
0010
0001
,
0010
0100
1000
0100
,
0001
0010
0100
0001
,
0100
1000
0010
0100
,
1000
0100
0010
1000
,
0100
0001
0100
0010
,
0100
1000
1100
0000
,
1000
0010
1010
0000
,
0010
0100
0110
0000
,
0100
0001
0011
0000
,
0100
1000
0100
1100
,
0000
0011
0000
0110
,
0000
1001
0000
1010
,
0000
0110
0000
0010
,
1000
0100
0010
0011
,
0000
0110
0000
0100
,
1000
0001
0100
0110
,
0000
1010
0000
1001
,
0220
0000
0000
0000
,
0000
0000
0000
0000
,
0330
0000
0000
0000
;
#NOTES:
     dance-single:
     JS:
     Easy:
     7:
     0.580,0.810,0.546,0.020,0.000:
0000
0000
0000
0000
,
0000
0000
0000
0000
,
0000
0000
0000
0000
,
0000
0000
0000
0000
,
0000
0000
0000
0000
,
0000
0000
0000
0000
,
0000
0000
0000
0000
,
0000
0000
0000
0000
,
0000
0000
0000
0000
,
0000
0000
0000
0000
,
0000
0000
0000
0000
,
0000
0000
0000
0000
,
0000
0000
0000
0000
,
0000
0000
0000
0000
,
0000
0000
0000
0000
,
0000
0000
0000
0000
,
1000
0000
0100
0000
,
0010
0000
0100
0000
,
1000
0000
0010
0000
,
0100
0000
0010
1000
,
0001
0000
0100
0000
,
0010
0000
0100
0000
,
0001
0000
0010
0000
,
0100
0000
0010
0001
,
1000
0000
0001
0000
,
0010
0000
0001
0000
,
0100
0000
0010
0000
,
1000
0000
0100
0010
,
0001
0000
1000
0000
,
0010
0000
1000
0000
,
0100
0000
0010
0000
,
0001
0000
0100
0010
,
1000
0100
0010
0000
,
0010
0001
0000
0011
,
0000
0110
0000
1100
,
0000
0100
1000
0000
,
0001
0100
0010
0000
,
0010
1000
0000
1010
,
0000
0110
0000
0101
,
0000
0100
0001
1000
,
0001
0010
0100
0000
,
1000
0010
0000
1010
,
0000
1001
0000
0101
,
0000
0100
0001
0000
,
1000
0010
0100
0000
,
0001
0010
0000
0000
,
0001
0100
0001
0000
,
1000
0010
1000
0000
,
0001
0000
0100
0000
,
1000
0000
0100
0000
,
0001
0000
0100
0000
,
1000
0000
0100
0000
,
0001
0000
0010
0000
,
1000
0000
0010
0000
,
0001
0000
0010
0000
,
1000
0000
0010
0001
,
1000
0000
0100
0000
,
0001
0000
0100
0000
,
1000
0000
0100
0000
,
0001
0000
0100
0000
,
1000
0000
0010
0000
,
0001
0000
0010
0000
,
1000
0000
0010
0000
,
0001
0010
1000
0000
,
0001
0000
1010
0000
,
0001
0100
0010
0000
,
0100
0000
1001
0000
,
0001
0100
0010
0000
,
1000
0000
0110
0000
,
1000
0100
0010
0000
,
0100
0000
1001
0000
,
1000
0100
0010
0010
,
0001
0000
1100
0000
,
0001
0100
0010
0000
,
0001
0000
1100
0000
,
0100
0010
0001
0000
,
1000
0000
0101
0000
,
1000
0100
0010
0000
,
1100
0000
0110
0000
,
0011
0000
1001
0000
,
0001
0010
0100
0000
,
0100
1000
0000
1100
,
0000
0110
0000
0011
,
0000
0010
0001
0000
,
1000
0010
0100
0000
,
0100
0001
0000
0101
,
0000
0110
0000
1010
,
0000
0010
1000
0001
,
1000
0100
0010
0000
,
0001
0100
0000
0101
,
0000
1001
0000
1010
,
0000
0010
1000
0000
,
0001
0100
0010
0000
,
1000
0100
0000
0000
,
1000
0010
1000
0000
,
0001
0100
0001
0000
,
1000
0000
0101
0000
,
1000
0010
0100
0000
,
0010
0000
1001
0000
,
1000
0010
0100
0000
,
0001
0000
0110
0000
,
0001
0010
0100
0000
,
0010
0000
1001
0000
,
0001
0010
0100
0100
,
1000
0000
0011
0000
,
1000
0010
0100
0000
,
1000
0000
0011
0000
,
0010
0100
1000
0000
,
0001
0000
1010
0000
,
0001
0010
0100
0000
,
0011
0000
0110
0000
,
0100
1000
0000
1000
,
0001
0100
0001
0000
,
0100
0001
0100
0000
,
0001
1000
0001
0000
,
1000
0001
1000
0000
,
0100
1000
0100
0000
,
1000
0100
1000
0000
,
0001
1000
0001
0000
,
1000
0001
1000
0000
,
0010
0000
1010
0000
,
0010
0000
1010
0000
,
0100
0000
0101
0000
,
0100
0000
0101
0000
,
1001
0000
0000
1000
,
0000
0100
0000
0010
,
0000
0001
0000
0010
,
0000
0100
0000
1000
,
0001
0000
0100
0000
,
0010
0000
0100
0000
,
1000
0000
0100
0000
,
0010
0000
0100
0000
,
0001
0000
0010
0000
,
0100
0000
0010
0000
,
1000
0000
0010
0000
,
0100
0000
0010
0001
,
1000
0000
0010
0000
,
0100
0000
0010
0000
,
0001
0000
0010
0000
,
0100
0000
0010
0000
,
1000
0000
0100
0000
,
0010
0000
0100
0000
,
0001
0000
0100
0000
,
0010
0100
0000
0100
,
1000
0010
1000
0000
,
0010
0100
0010
0000
,
0100
0001
0100
0000
,
0001
1000
0001
0000
,
0010
0001
0010
0000
,
0100
0010
0100
0000
,
1000
0100
1000
0000
,
0001
1000
0001
0000
,
1000
0000
1100
0000
,
1000
0000
1100
0000
,
0001
0000
0011
0000
,
0001
0000
0011
0000
,
0110
0000
0000
1000
,
0000
0010
0000
0100
,
0000
0001
0000
1000
,
0000
1100
0000
0001
,
0000
0101
0000
1000
,
0000
0110
0000
0001
,
0000
1010
0000
0011
,
0000
0101
0000
1100
,
2002
0000
0000
0000
,
0000
0000
0000
0000
,
3003
0000
0000
0000
;
#NOTES:
     dance-single:
     JS:
     Beginner:
     4:
     0.378,0.486,0.029,0.020,0.000:
0000
0000
0000
0000
,
0000
0000
0000
0000
,
0000
0000
0000
0000
,
0000
0000
0000
0000
,
0000
0000
0000
0000
,
0000
0000
0000
0000
,
0000
0000
0000
0000
,
0000
0000
0000
0000
,
0000
0000
0000
0000
,
0000
0000
0000
0000
,
0000
0000
0000
0000
,
0000
0000
0000
0000
,
0000
0000
0000
0000
,
0000
0000
0000
0000
,
0000
0000
0000
0000
,
0000
0000
0000
0000
,
1000
0000
0100
0000
,
1000
0000
0000
0000
,
0001
0000
0100
0000
,
0001
0000
0001
0000
,
1000
0000
0100
0000
,
1000
0000
0000
0000
,
0001
0000
0010
0000
,
0100
0000
1000
0000
,
0001
0000
0100
0000
,
0001
0000
0000
0000
,
1000
0000
0100
0000
,
1000
0000
1000
0000
,
0001
0000
0100
0000
,
0001
0000
0000
0000
,
1000
0000
0010
0000
,
0100
0000
0001
0000
,
1000
0000
0100
0000
,
0010
0000
0000
0001
,
0000
0001
0000
0001
,
0000
0001
1000
0000
,
0001
0000
0100
0000
,
0010
0000
0000
1000
,
0000
1000
0000
1000
,
0000
1000
0001
0000
,
1000
0000
0010
0000
,
0100
0000
0000
0010
,
0000
0010
0000
0010
,
0000
0010
1000
0000
,
0001
0000
0010
0000
,
0100
0000
0000
0010
,
0001
0000
1000
0000
,
0001
0000
0000
0000
,
1000
0000
1000
0000
,
1000
0000
1000
0000
,
1000
0000
1000
0000
,
1000
0000
1000
0000
,
0001
0000
0001
0000
,
0001
0000
0001
0000
,
0001
0000
0001
0000
,
0001
0000
0001
0000
,
0100
0000
0100
0000
,
0100
0000
0100
0000
,
0100
0000
0100
0000
,
0100
0000
0100
0000
,
0010
0000
0010
0000
,
0010
0000
0010
0000
,
0010
0000
0010
0000
,
0010
0010
0010
0000
,
1000
0000
0100
0000
,
0000
0000
0100
0000
,
1000
0000
0100
0000
,
0000
0000
0100
0000
,
0010
0000
0100
0000
,
0000
0000
0100
0000
,
0010
0000
0100
0000
,
0000
0000
1000
0000
,
0001
0000
0100
0000
,
0000
0000
0100
0000
,
0001
0000
0100
0000
,
0000
0000
0100
0000
,
0010
0000
0100
0000
,
0000
0000
0100
0000
,
0010
0000
0010
0000
,
0010
0000
0010
0000
,
0001
0000
0001
0000
,
0100
0000
0000
1000
,
0000
1000
0000
1000
,
0000
1000
0001
0000
,
1000
0000
1000
0000
,
0100
0000
0000
0001
,
0000
0001
0000
0001
,
0000
0001
1000
0000
,
0001
0000
0100
0000
,
0010
0000
0000
0100
,
0000
0100
0000
0100
,
0000
0100
0001
0000
,
1000
0000
0100
0000
,
0010
0000
0000
0100
,
1000
0000
0001
0000
,
1000
0000
0000
0000
,
0001
0000
0010
0000
,
0000
0000
0010
0000
,
0001
0000
0010
0000
,
0000
0000
0010
0000
,
0100
0000
0010
0000
,
0000
0000
0010
0000
,
0100
0000
0010
0000
,
0000
0000
0001
0000
,
1000
0000
0010
0000
,
0000
0000
0010
0000
,
1000
0000
0010
0000
,
0000
0000
0010
0000
,
0100
0000
0010
0000
,
0000
0000
0010
0000
,
0100
0000
0100
0000
,
0100
0100
0000
0100
,
0001
0000
0100
0000
,
0100
0000
0000
0000
,
1000
0000
0100
0000
,
0100
0000
0000
0000
,
0001
0000
0100
0000
,
0100
0000
0000
0000
,
1000
0000
0100
0000
,
0100
0000
0000
0000
,
0001
0000
0010
0000
,
0010
0000
0000
0000
,
1000
0000
0010
0000
,
0010
0000
0000
0000
,
1001
0000
0000
1000
,
0000
0001
0000
1000
,
0000
0001
0000
1000
,
0000
0001
0000
1000
,
0001
0000
0100
0000
,
0001
0000
0100
0000
,
0001
0000
0100
0000
,
0001
0000
0100
0000
,
0010
0000
1000
0000
,
0010
0000
1000
0000
,
0010
0000
1000
0000
,
0010
0000
1000
0000
,
0100
0000
1000
0000
,
0100
0000
1000
0000
,
0100
0000
1000
0000
,
0100
0000
1000
0000
,
0001
0000
0010
0000
,
0001
0000
0010
0000
,
0001
0000
0010
0000
,
0001
0000
0000
0001
,
1000
0000
0001
0000
,
0001
0000
0000
0000
,
0100
0000
0001
0000
,
0001
0000
0000
0000
,
0010
0000
0001
0000
,
0001
0000
0000
0000
,
0100
0000
0001
0000
,
0001
0000
0000
0000
,
0001
0000
1000
0000
,
1000
0000
0000
0000
,
0100
0000
1000
0000
,
1000
0000
0000
0000
,
1001
0000
0000
1000
,
0000
0001
0000
1000
,
0000
0001
0000
0100
,
0000
0010
0000
0100
,
0000
0010
0000
1000
,
0000
0001
0000
0100
,
0000
0010
0000
1000
,
0000
0001
0000
0000
,
2002
0000
0000
0000
,
0000
0000
0000
0000
,
3003
0000
0000
0000
;
