#TITLE:Light House;
#SUBTITLE:;
#ARTIST:xddb;
#TITLETRANSLIT:;
#SUBTITLETRANSLIT:;
#ARTISTTRANSLIT:;
#CRChallenge:;
#BANNER:house.png;
#BACKGROUND:house-bg.png;
#LYRICSPATH:;
#CDTITLE:;
#MUSIC:house.ogg;
#OFFSET:0.000;
#SAMPLESTART:23.388;
#SAMPLELENGTH:12.000;
#SELECTABLE:YES;
#BPMS:0.000=161.972;
#STOPS:;
#BGCHANGES:;
#NOTES:
     dance-single:
     Renard:
     Medium:
     9:
     0.620,0.707,0.372,0.225,0.117:
0000
0000
0000
0000
,
0000
0000
0000
0000
,
1000
1000
0100
0100
0000
0010
0000
0001
,
0000
0000
1000
0000
0100
1000
0000
1000
0100
0000
0010
0000
0001
0000
0000
0000
,
1000
1000
0010
0010
0000
0100
0000
0101
,
0000
0100
0000
0010
1000
0100
0010
0000
,
0001
0001
0010
0010
0000
0100
0000
1000
,
0000
0000
0001
0000
0100
0001
0000
0001
0100
0000
0010
0000
1000
0000
0000
0000
,
0100
0100
0010
0010
0000
0011
0000
0110
,
0000
0100
0000
1000
0010
0100
0010
0000
,
1000
1000
0010
0010
0000
0100
0000
0001
,
0000
0000
0100
0000
0010
0100
0000
0100
0010
0000
1000
0000
0100
0000
0000
0000
,
0010
0001
0000
0011
,
2200
0000
3311
0000
,
1100
1001
0000
0101
,
0001
0000
0001
0100
0010
1000
0100
0010
0001
0010
0000
0000
,
0100
1000
0001
0100
0000
0101
0000
0110
,
0000
0010
1000
0100
0010
0001
0010
0000
,
0001
0010
0100
1000
0000
0101
0000
1010
,
0000
0010
1000
0100
1000
0001
0100
0000
,
0001
0100
0010
1000
0000
1010
0000
1001
,
0000
1000
0000
0001
0010
0100
1000
0000
,
0001
0100
0010
1000
0000
0011
0000
1100
,
0000
1000
0010
0100
0001
0010
0001
0000
,
0010
0001
0100
0010
0000
0110
0000
0101
,
0000
0100
0010
1000
0100
0010
0001
0000
,
0010
0100
1000
0001
0000
0011
0000
1100
,
0000
0000
1000
0000
0001
0100
0000
0100
0001
0000
0100
0000
0010
0000
0000
0000
,
1000
0000
0010
0100
0000
0001
0000
0100
,
0000
0010
1000
0100
0010
0001
0010
0000
,
0100
1000
0001
0100
0000
0110
0000
1010
,
0000
0000
0010
0000
1000
0001
0000
0001
1000
0000
0100
0000
0010
0000
0000
0000
,
0001
0000
0001
0010
0100
1000
0100
0000
0100
1000
0100
0010
,
0001
0000
0001
0010
0100
1000
0100
0000
0100
1000
0100
1000
,
0100
0000
0100
0100
0010
0000
0001
0000
,
1000
0000
1000
1000
0010
0000
0100
0000
,
0001
0000
0010
0001
0010
0100
1000
0001
,
0100
0000
0100
0010
1000
0000
1010
0000
,
1000
0000
0100
0100
0010
0000
0001
0000
,
0010
0000
0001
0001
0010
0000
0100
0000
,
1000
0000
1000
0001
0100
0010
1000
0010
,
0100
0001
0010
0100
1000
0100
0010
0001
,
0020
0000
0032
0000
,
2003
0000
3020
0000
,
0230
0000
0302
0000
,
2000
0000
3003
0000
1001
1001
1001
1001
,
0002
0000
0203
0000
,
0320
0000
2030
0000
,
3200
0000
0320
0000
,
0032
0000
0000
0003
1001
1001
1001
1001
,
1000
0001
0100
0000
0001
1000
0100
0000
,
1000
0001
0010
0000
0001
1000
0010
0000
,
1000
0001
0100
0000
0001
1000
0010
0000
,
1000
0001
0010
0000
0011
0011
0011
0011
,
0001
0010
0100
0000
1000
0100
0010
0000
,
0100
1000
0001
0000
0100
0010
1000
0000
,
0001
0100
0010
0000
1000
0100
0010
0000
,
0001
0010
0100
0000
1100
1100
1100
0000
,
1000
0100
0010
0001
0010
0100
1000
0100
,
0010
0001
0010
0100
1000
0100
0010
0001
,
1000
0010
0100
0001
0100
0010
1000
0010
,
0100
0001
0100
0010
1000
0100
0010
0001
,
0010
0010
0001
0010
0100
0100
0010
0100
,
1000
1000
0010
1000
0010
0010
0100
0001
,
0100
0100
0010
1000
0010
0010
1000
0100
,
0010
0010
0001
0010
0100
1000
0001
0100
,
0010
0010
1000
0100
0010
0010
0001
0100
,
0010
0010
1000
0100
0010
0010
0001
0100
,
0010
0010
1000
0100
0010
0010
0001
0100
,
0010
0010
1000
0100
0010
0010
0001
0010
,
0200
0000
2300
0000
,
3002
0000
0203
0000
,
0010
0001
0010
0001
,
0320
0000
2030
0000
,
3200
1000
0010
1000
,
0010
1000
0010
1000
,
0320
0000
0032
0000
,
2003
0000
0000
3000
1001
1001
1001
1001
;
#NOTES:
     dance-single:
     Renard:
     Hard:
     10:
     0.761,0.842,0.251,0.225,0.59:
0000
0000
0000
0000
,
0000
0000
0000
0000
,
1000
1000
0100
0100
0000
0010
0000
0001
,
0000
0000
1000
0000
0100
1000
0000
1000
0100
0000
0010
0001
0010
0000
0001
0000
,
1000
0000
1000
0000
0010
0000
0010
0000
0000
0000
0100
0000
0001
0100
0001
0100
,
0000
0000
0100
0000
0000
0000
0010
0000
1000
0000
0100
0000
0010
0001
0010
0001
,
0010
0000
0001
0000
0010
0000
0010
0000
0000
0000
0100
0000
1000
0100
1000
0100
,
0000
0000
0010
0000
0001
0100
0000
0001
0100
0000
0010
0000
1000
0100
0010
0001
,
1000
0000
0100
0000
0010
0000
0010
0000
0000
0000
0011
0000
0001
0010
0001
0010
,
0000
0000
0100
0000
0000
0000
1000
0000
0010
0000
0100
0000
0010
1000
0010
1000
,
0010
0000
1000
0000
0010
0000
0010
0000
0000
0000
0100
0000
0001
0100
0001
0100
,
0000
0000
0100
0000
0010
0100
0000
0100
0010
0000
1000
0000
0100
0010
0001
0010
,
0001
0001
0000
0011
,
2200
0000
3311
0000
,
1100
1001
0000
0101
,
0001
0000
0001
0100
0010
1000
0100
0010
0001
0010
0000
0000
,
0100
0000
1000
0000
0001
0000
0100
0000
0010
0000
1000
0000
0100
0010
0100
0010
,
0001
0000
0100
0000
0010
0000
1000
0000
0100
0000
0010
0000
0001
0100
0001
0100
,
0010
0000
1000
0000
0100
0000
0010
0000
0001
0000
0100
0000
0010
1000
0010
1000
,
0100
0010
0001
0010
0100
0100
1000
0000
,
0001
0000
0100
0000
0010
0000
1000
0000
0100
0000
0010
0000
0001
0010
0001
0010
,
0100
0000
1000
0000
0001
0000
0100
0000
0010
0000
1000
0000
0100
1000
0100
1000
,
0010
0000
0100
0000
0001
0000
0010
0000
0100
0000
1000
0000
0001
0100
0001
0100
,
0010
0010
1000
0100
0010
0010
0001
0000
,
0010
0000
0001
0010
0001
0000
0010
0000
0100
0000
1000
0100
1000
0000
0001
0000
,
0100
0000
0010
0000
0010
0000
0100
0010
0100
0000
0001
0000
1000
0000
0000
0000
,
0100
0000
1000
0100
1000
0000
0100
0000
0010
0000
0001
0010
0001
0000
1000
0000
,
0010
0000
0100
0000
0100
0000
0010
0100
0010
0000
1000
0000
0001
0000
0000
0000
,
1000
1000
0100
0100
0010
0001
0010
0100
,
0010
0001
0001
0010
0100
1000
1000
0000
,
0001
0100
0010
0010
1000
0001
1000
0010
,
0100
0000
0001
0000
1000
0001
0000
0001
1000
0000
1000
0000
0010
0000
0000
0000
,
1000
0000
0001
0010
0100
1000
0100
0010
0100
1000
0100
0010
,
0001
0000
0001
0010
0100
1000
0100
0010
0100
1000
0100
1000
,
0100
0000
0100
0100
0010
0000
0011
0000
,
1000
0000
1000
1000
0010
0000
0101
0000
,
0001
0000
0010
0001
0010
0100
1000
0001
,
0100
0000
0100
0010
1000
0000
1010
0000
,
1000
0000
0100
0100
0010
0000
0001
0000
,
0010
0000
0001
0001
0010
0000
0100
0000
,
1000
0000
1000
0001
0100
0010
1000
0010
,
0100
0000
0001
0000
0010
0000
0100
0000
1000
0000
0100
0000
1000
0100
0010
0001
,
0020
0000
0032
0000
,
2003
0000
3020
0000
,
0230
0000
0302
0000
,
2000
0000
3003
0000
1001
1001
1001
1001
,
0002
0000
0010
1000
0203
0000
1000
0001
,
0320
0000
0001
0100
2030
0000
0010
0001
,
3200
0000
1000
0001
0320
0000
1000
0100
,
0032
0000
1000
0003
1001
1001
1001
1001
,
1000
0001
0100
0000
0001
1000
0100
0000
,
1000
0001
0010
0000
0001
1000
0010
0000
,
1000
0001
0100
0000
0001
1000
0010
0000
,
1000
0001
0010
0000
0011
0011
0011
0011
,
0001
0010
0100
0000
1000
0100
0010
0000
,
0100
1000
0001
0000
0100
0010
1000
0000
,
0001
0100
0010
0000
1000
0100
0010
0000
,
0001
0010
0100
0000
1100
1100
1100
0000
,
0100
1000
0001
0010
0100
1000
0001
0100
0010
1000
0100
0010
,
0001
0010
0100
1000
0001
0100
0010
1000
0100
0010
0100
1000
,
0001
0010
0100
0010
0001
0100
0010
1000
0100
0010
0001
0010
,
0100
1000
0001
0100
0010
1000
0100
0010
0100
1000
0001
0100
,
0010
1000
0100
0010
0001
0010
0100
1000
0001
0100
0010
1000
,
0100
0010
0001
0010
0100
1000
0001
0100
0010
1000
0100
0010
,
0001
0010
0100
1000
0001
0100
0010
1000
0100
0010
0001
1000
,
0001
0010
0100
1000
0100
0010
0001
1000
0001
0100
0010
1000
,
0010
0010
1000
0100
0010
0010
0001
0100
,
0010
0010
1000
0100
0010
0010
0001
0100
,
0010
0010
1000
0100
0010
0010
0001
0100
,
0001
1000
0001
1000
0010
1000
0010
1000
0100
1000
0100
1000
0001
1000
0001
1000
,
0200
0000
2300
0000
,
3002
0000
0203
0000
,
0010
0001
0010
0001
,
0320
0000
2030
0000
,
3200
1000
0010
1000
,
0010
1000
0010
1000
,
0320
0000
0032
0000
,
2003
0000
0000
3000
1001
1001
1001
1001
;
#NOTES:
     dance-single:
     Renard:
     Easy:
     6:
     0.431,0.572,0.069,0.346,0.000:
0000
0000
0000
0000
,
0000
0000
0000
0000
,
0000
0000
0000
0000
,
0000
0000
0000
0000
,
0001
0000
0001
0000
0000
1000
0000
1000
,
0000
0010
0100
0001
,
1000
0000
1000
0000
0000
0001
0000
0001
,
0000
0100
0010
1000
,
0001
0000
0001
0000
0000
0010
0000
0100
,
0000
1000
0001
0100
,
0010
0000
0010
0000
0000
1000
0000
0001
,
0000
0100
0010
1000
,
0101
0101
0000
0010
,
1100
0000
1100
0000
,
1100
1100
0000
0010
,
0100
0000
0010
0000
1000
0001
1000
0000
,
0001
0000
0001
0100
0001
0000
0100
0000
,
0010
0010
1000
0000
,
1000
0000
1000
0100
1000
0000
0100
0000
,
0010
0010
0001
1000
,
0001
0001
0100
0100
,
0010
0000
0010
0000
1000
0001
1000
0000
,
0100
0100
0010
0010
,
0001
0000
0001
0000
1000
0001
1000
0000
,
0010
0010
0100
0100
,
0001
0000
1000
0000
0001
1000
0001
0000
,
0100
0100
0010
0010
,
1000
0000
0001
0000
0010
0100
0010
0000
,
0100
0100
1000
1000
,
0001
0000
0001
0000
0100
0010
0100
0000
,
0010
0010
1000
1000
,
0100
0000
0010
0000
0001
1000
0001
0000
,
0100
0000
0100
0010
1000
0000
1000
0010
,
0100
0000
0100
0010
1000
0000
0001
0000
,
1000
0000
1000
0100
1000
0000
0100
0000
,
1000
0000
1000
0001
1000
0000
1000
0000
,
1000
0000
0000
0010
1000
0001
1000
0100
,
1000
0000
0001
1000
0010
0000
0010
0000
,
1000
0000
1000
0001
1000
0000
0100
0000
,
1000
0000
1000
0001
1000
0000
0010
0000
,
1000
0000
0000
1000
0001
0100
0001
1000
,
0001
0000
0010
0001
1000
0000
0001
0000
,
0200
0000
0320
0000
,
2030
0000
3020
0000
,
0230
0000
0000
0000
,
0302
0000
0000
0000
1003
0001
1000
0001
,
2000
0000
3020
0000
,
0230
0000
0302
0000
,
2003
0000
3200
0000
,
0320
0000
0000
0000
0031
1000
0001
1000
,
0010
0000
0010
0000
0100
0000
0010
1000
,
0000
0000
0001
0000
0100
0000
0001
0010
,
0100
0000
1000
0000
0100
0000
1000
0010
,
0000
0100
0001
1000
,
0100
0000
0010
0000
0001
0000
1000
0001
,
0000
0100
0010
1000
,
0001
0000
0010
0000
0100
0000
1000
0001
,
0100
0000
0010
0000
1000
0010
1000
0010
,
2000
3001
2000
3001
,
2000
0000
3001
0000
2000
0000
0001
3000
,
0002
1003
0002
1003
,
0002
0000
1003
0000
0002
0000
1000
0003
,
0001
1000
0000
0010
,
0100
0010
0000
0100
,
1001
0000
0110
0000
,
0010
0000
0100
0000
0001
0001
0001
0001
,
1000
0000
1000
0001
1000
0000
1000
0001
,
1000
0000
1000
0001
1000
0000
1000
0001
,
1000
0000
1000
0001
1000
0000
1000
0001
,
1000
0001
1000
0001
1000
0001
1000
0001
,
0200
0000
0000
0000
,
0320
0000
0000
0000
,
2030
3002
2003
3002
,
2003
0000
3002
0000
,
0203
0320
0230
0320
,
0230
0320
0230
0320
,
0230
0000
0320
0000
,
0230
0000
0000
0000
0301
1000
0001
1000
;
#NOTES:
     dance-single:
     Renard:
     Beginner:
     3:
     0.288,0.572,0.000,0.259,0.000:
0000
0000
0000
0000
,
0000
0000
0000
0000
,
0000
0000
0000
0000
,
0000
0000
0000
0000
,
0001
0000
0001
1000
,
0010
0000
0010
0000
,
0100
0000
0100
0001
,
1000
0000
1000
0000
,
0001
0000
0001
1000
,
0100
0000
0100
0000
,
0010
0000
0010
0001
,
1000
0000
1000
0000
,
0001
1000
0000
0010
,
0100
0000
0100
0000
,
0001
1000
0000
0001
,
0000
0100
0000
0010
,
1000
0000
1000
0000
,
0010
0010
0100
0100
,
0001
0000
0001
0000
,
0100
0100
0010
0010
,
1000
0000
1000
0000
,
0010
0010
0100
0100
,
0001
0000
0001
0000
,
1000
0001
1000
0010
,
0100
0000
0100
0000
,
0001
0000
1000
0001
,
1000
0000
0100
0000
,
0010
0001
1000
0001
,
0100
0000
0010
0000
,
1000
0000
0001
0010
,
0001
0000
1000
0000
,
0010
0100
0001
1000
,
0002
1003
0002
1003
,
0002
1003
0002
1003
,
0010
0010
0010
0010
,
0100
0100
0100
0100
,
0001
0000
0001
1000
,
0100
0010
0001
0001
,
1000
0000
1000
0001
,
0100
0000
0100
0010
,
1000
0000
1000
0010
,
0100
0001
1000
0100
,
0020
0000
0000
0000
,
0000
0000
0000
0000
,
0000
0000
0000
0000
,
0000
0000
0001
0001
,
0000
0001
0000
0001
,
0000
0100
0000
0100
,
0000
0001
0000
0001
,
0000
0100
0001
0031
,
0001
0000
0001
1000
,
0001
0000
0001
1000
,
0001
0000
0001
1000
,
0001
0000
0001
1000
,
0001
0000
0001
0000
,
1000
0000
1000
0000
,
0001
0000
1000
0000
,
0002
2003
3002
1003
,
0200
0000
1000
0000
,
0010
0000
0001
0000
,
0010
0000
1000
0000
,
0010
0000
0001
0000
,
0010
0010
0000
0000
,
1000
1000
0000
0000
,
0001
0001
0000
0001
,
0000
0010
0010
0310
,
0010
0100
0010
0100
,
0010
0100
0010
0100
,
1000
0100
1000
0100
,
1000
0001
1000
0001
,
0200
0000
0000
0000
,
0320
0000
0000
0000
,
2030
3002
2003
3002
,
2003
3002
2003
3002
,
2003
3002
2003
3002
,
2003
3002
2003
3002
,
2003
0000
3002
0000
,
0203
0000
0010
0310
;
