#TITLE:Light Emitting Diode X;
#SUBTITLE:;
#ARTIST:Neko;
#TITLETRANSLIT:;
#SUBTITLETRANSLIT:;
#ARTISTTRANSLIT:;
#CREDIT:;
#BANNER:led.png;
#BACKGROUND:led-bg.png;
#LYRICSPATH:;
#CDTITLE:!cdtitle.png;
#MUSIC:led.ogg;
#OFFSET:0.000;
#SAMPLESTART:66.805;
#SAMPLELENGTH:12.000;
#SELECTABLE:YES;
#BPMS:0.000=172.132;
#STOPS:;
#BGCHANGES:;

//---------------dance-single - Renard----------------
#NOTES:
     dance-single:
     Renard:
     Hard:
     13:
     1.000,1.000,0.163,0.000,1.000:
0000
0000
0000
0000
,
0000
0000
0000
0000
,
0000
0000
0000
0000
,
0000
0000
0000
0000
,
0001
0010
0100
1000
0001
0010
0100
1000
0000
0000
0000
0000
0000
0000
0110
0000
,
1001
0000
0000
0000
0000
0000
0110
0000
0000
0000
0110
0000
1001
0000
0001
0010
,
0100
1000
0001
0010
0100
1000
0001
0010
0100
1000
0010
0100
0001
1000
0010
0100
,
0001
1000
0100
0010
0001
1000
0000
0001
0000
1000
0000
0001
1000
0000
0000
0000
,
0001
0100
0001
0000
0100
0000
0010
1000
0010
0000
1000
0000
0100
1000
0100
0000
,
1000
0000
0001
0010
0001
0000
0010
0000
0100
0000
1000
0000
0001
0000
0100
0000
,
0010
1000
0010
0000
1000
0000
0001
0100
0001
0000
0100
0000
0001
0000
1000
0000
,
0100
0010
0001
0010
0100
1000
0001
0100
,
0001
0100
0001
0000
0100
0000
0010
1000
0010
0000
1000
0000
0100
1000
0100
0000
,
1000
0000
0001
0010
0001
0000
0010
0000
0100
0000
1000
0000
0001
0000
0100
0000
,
0010
1000
0010
0000
1000
0000
0001
0100
0001
0000
0100
0000
0001
0000
1000
0000
,
0100
0010
0001
0010
0100
1000
0001
0100
,
0001
0100
0001
0100
0001
0000
0100
0010
0100
0010
0100
0000
0010
1000
0010
1000
,
0010
0000
1000
0100
1000
0100
1000
0000
0100
0000
1000
0000
0001
0000
0010
0000
,
0100
1000
0100
1000
0100
0000
1000
0001
1000
0001
1000
0000
0001
0100
0001
0100
,
0001
0010
0100
1000
0001
0100
0010
1000
,
0100
1000
0100
1000
0100
0000
1000
0001
1000
0001
1000
0000
0001
0010
0001
0010
,
0001
0010
0100
1000
0001
0100
0010
1000
,
0100
1000
0100
1000
0100
0000
1000
0001
1000
0001
1000
0000
0001
0000
0100
0000
,
0001
0100
0010
1000
0100
0010
0000
0001
0000
0010
0000
0100
1000
0000
0000
0000
,
0100
0000
1000
0000
0001
0010
0000
0010
0001
0000
0010
0100
0000
1000
0000
0001
,
0010
0100
1000
0001
0010
0100
1000
0001
,
0100
0010
1000
0001
0100
0000
0010
0000
0000
0000
1000
0000
0100
0000
0010
0000
,
0001
0010
0100
1000
0001
0100
0010
0000
,
1000
0000
0010
0000
0100
0001
0000
0100
0010
0000
1000
0001
0000
0100
0000
0010
,
1000
0100
0010
0001
0010
0100
1000
0001
,
0010
0100
1000
0100
0010
0000
0001
0000
0000
0000
1000
0100
1000
0000
0100
0000
,
1000
0100
0000
0000
1000
0000
0100
0000
0010
0000
0001
0000
1000
0000
0001
0000
,
0100
0000
0001
0000
1000
0100
0000
0010
0001
0000
0010
0100
0000
1000
0000
0001
,
0010
0100
1000
0001
0100
0010
1000
0001
,
0100
0010
1000
0001
0100
0000
0010
0000
0000
0000
1000
0000
0100
0000
0010
0000
,
0001
0010
0100
1000
0001
0100
0010
1000
,
0100
0000
0010
0000
0001
0010
0000
0100
1000
0000
0001
0010
0000
0100
0000
1000
,
0001
0010
0100
1000
0001
0100
0010
1000
,
0001
0100
0010
1000
0001
0000
0100
0000
0000
0000
0010
0000
1000
0000
0100
0000
,
0110
1001
0110
1001
,
1000
0100
0010
0000
0000
0000
0001
0010
0100
0000
0000
0000
1000
0001
1000
0000
,
0000
0000
0000
0000
,
0001
0100
0010
0000
0000
0000
1000
0010
0100
0000
0000
0000
0001
1000
0001
0000
,
0000
0000
0000
0000
0000
0000
0000
0000
1000
0100
0010
0000
0001
1000
0000
0000
,
0001
0010
0100
0000
0000
0000
1000
0100
0010
0000
0000
0000
0001
1000
0001
0000
,
0000
0001
0000
0000
0000
0000
0000
0000
,
1000
0010
0100
0000
0001
0100
0000
0000
0001
0100
0001
0000
0100
0000
1000
0000
,
0000
0000
1100
0101
,
0001
0100
0010
1000
0100
0010
0001
0010
0100
1000
0001
0100
0010
1000
0100
0010
,
0100
1000
0001
0010
0100
0010
0001
1000
0100
0010
0001
0100
0010
1000
0100
0010
,
0001
0010
0100
1000
0001
0100
0010
1000
0100
0010
0001
1000
0001
0010
0100
1000
,
0001
1000
0100
0010
0001
0100
0010
1000
0100
0010
0001
1000
0001
0100
0010
1000
,
0001
0100
0010
1000
0100
0010
0001
0010
0100
1000
0001
0100
0010
1000
0100
0010
,
0100
1000
0001
0010
0100
0010
0001
1000
0100
0010
0001
0100
0010
1000
0100
0010
,
0001
0010
0100
1000
0001
0100
0010
1000
0100
0010
0001
1000
0001
0010
0100
1000
,
1100
0011
0101
1010
,
1000
0010
0100
0001
1000
0100
0010
0001
1000
0001
0010
0100
1000
0001
0100
0010
,
1000
0001
1000
0100
0010
0001
1000
0001
0100
0010
1000
0001
1000
0010
0100
0001
,
1000
0000
0100
0000
1000
0000
0100
0000
0000
0010
0000
0000
0001
0000
0000
1000
0000
0000
0010
0000
0000
0100
0000
0000
0001
0000
0000
0010
0000
0000
0100
0000
0000
1000
0000
0000
0001
0000
0000
0100
0000
0000
0010
0000
0000
1000
0000
0000
,
0100
0000
1000
0000
0100
0000
1000
0000
0000
0100
0000
0000
0010
0000
0000
0001
0000
0000
1000
0000
0000
0001
0000
0000
0100
0000
0000
0010
0000
0000
1000
0000
0000
0100
0000
0000
0010
0000
0000
0001
0000
0000
1000
0000
0000
0001
0000
0000
,
1000
0100
0010
0001
1000
0001
0010
0100
1000
0001
0100
0010
1000
0001
1000
0010
,
0100
0001
1000
0100
1000
0001
0010
0100
1000
0001
0010
0001
1000
0100
0010
0001
,
1000
0000
0100
0000
1000
0000
0100
0000
0000
0010
0000
0000
0001
0000
0000
1000
0000
0000
0100
0000
0000
0010
0000
0000
0001
0000
0000
1000
0000
0000
0010
0000
0000
0100
0000
0000
0001
0000
0000
1000
0000
0000
0010
0000
0000
0100
0000
0000
,
0001
0000
0100
0000
0001
0000
0100
0000
0000
0010
0000
0000
1000
0000
0000
0100
0000
0000
0010
0000
0001
0000
0010
0000
0001
0000
0000
0010
0000
0000
0100
0000
0000
1000
0000
0000
0100
0000
0000
0010
0000
0000
0001
0000
0000
1000
0000
0000
;

//---------------dance-single - Spectere----------------
#NOTES:
     dance-single:
     Spectere:
     Medium:
     9:
     0.713,1.000,0.163,0.044,0.484:
0000
0000
0000
0000
,
0000
0000
0000
0000
,
0000
0000
0000
0000
,
0000
0000
0000
0000
,
0001
0000
1000
0000
0100
0000
1000
0100
0000
0000
0000
0000
0010
0000
0000
0000
,
0101
0000
0000
1010
0000
1000
1001
0000
,
1100
0000
0000
1000
1100
0000
0000
0100
,
0110
0011
1001
1100
,
1000
0010
1000
0100
1000
0001
0100
0001
,
0010
0100
0010
0001
0010
0100
0010
0001
,
1000
0010
0100
0010
1000
0100
0010
0100
,
1000
0001
0100
0001
0010
0001
1000
0010
,
1000
0010
0100
0001
0100
0010
0100
0001
,
0010
0100
0010
1000
0010
0100
0001
0100
,
1000
0010
0100
0001
0010
0001
0100
1000
,
0100
0001
0010
0001
1000
0010
1000
0010
,
0100
0001
0100
0001
0010
0001
0100
1000
,
0100
0010
1000
0100
0001
1000
0010
0001
,
0100
0001
1000
0010
0100
0010
1000
0100
,
1000
0010
0100
0010
0001
0010
0100
0010
,
1000
0100
0010
0100
1000
0001
1000
0010
,
1000
0001
0100
0010
1000
0010
1000
0100
,
1000
0001
1000
0001
0100
0010
1000
0100
,
2000
000M
00M0
000M
0M00
00M0
0000
00M0
0000
00M0
0000
00M0
3101
0000
0000
0000
,
0001
0000
1000
0100
0000
0000
0100
0000
0000
0000
1000
0000
0000
0000
0000
0000
,
0010
0000
0100
0001
0000
0000
0001
0000
0000
0000
0010
0001
0000
0100
0000
0000
,
0010
0000
1000
0100
0000
0000
1000
0000
0000
0000
0001
0000
0000
0000
0000
0000
,
0100
0000
0010
1000
0000
0000
0010
0000
0000
0000
0100
0001
0000
0010
0000
0000
,
0001
0000
1000
0001
0000
0000
0001
0000
0000
0000
0100
0000
0000
0000
0000
0000
,
0010
0000
1000
0010
0000
0000
0100
0000
0000
0000
0001
0010
0000
0001
0000
0000
,
0100
0000
0010
1000
0000
0000
1000
0000
0000
0000
0100
0000
0000
0000
0000
0000
,
1000
0000
0001
0100
0000
0000
0001
0000
0000
0000
0010
0001
0000
0100
0000
0000
,
0001
0000
1000
0100
0000
0000
1000
0000
0000
0000
0010
0000
0000
0000
0000
0000
,
0010
0000
0010
0100
0000
0000
0100
0000
0000
0000
0001
0010
0000
0010
0000
0000
,
0001
0000
1000
0001
0000
0000
1000
0000
0000
0000
0100
0000
0000
0000
0000
0000
,
1000
0000
0010
1000
0000
0000
0100
0000
0000
0000
1000
0001
0000
0010
0000
0000
,
0001
0000
0100
0010
0000
0000
0100
0000
0000
0000
0001
0000
0000
0000
0000
0000
,
0100
0000
0001
0100
0000
0000
0010
0000
0000
0000
1000
0100
0000
1000
0000
0000
,
0001
0000
0010
0001
0000
0000
1000
0000
0000
0000
0001
0000
0000
0000
0000
0000
,
M101
0000
0000
0000
101M
0000
0000
0000
11M0
0000
0000
0000
1MM1
0000
0000
M00M
,
M2MM
M0MM
0000
M3MM
0000
0000
1000
0010
1000
0000
0000
0000
0001
0100
0001
0100
,
0000
0000
MMMM
MMMM
MMMM
MMMM
MMMM
0000
,
0001
1000
0001
0000
0000
0000
1000
0100
1000
0000
0000
0000
0001
0010
0001
0010
,
0000
0000
0000
0000
MMMM
0000
0MM0
0000
0001
1000
0001
0000
1MM0
0001
0000
0000
,
1000
0010
1000
0000
0000
0000
0001
0100
0001
0000
0000
0000
1000
0001
1000
0001
,
0000
0000
1000
0001
0MM0
0000
0MM0
0000
MMMM
0000
MMMM
0000
MMMM
0000
0000
0000
,
0001
0100
0001
0000
0100
0001
0000
0000
1000
0010
1000
0000
0001
0100
0001
1000
,
0000
MMMM
2002
3013
,
1000
0100
1000
0010
0100
0001
0100
1000
,
0100
0010
0100
0001
0010
0001
1000
0001
,
0100
0010
1000
0100
1000
0010
0100
0010
,
1000
0001
0100
0001
0010
0001
1000
0001
,
0100
0010
0100
1000
0100
0010
1000
0100
,
1000
0001
0010
0001
0100
0010
0100
0001
,
0010
0100
0010
1000
0010
0100
0001
0100
,
1000
0001
0100
1000
0001
0010
0100
0001
,
0010
0100
0001
0100
1000
0010
1000
0100
,
0010
0001
0100
0001
1000
0010
0100
0010
,
1000
0100
0010
0001
0010
0100
0001
1000
,
0010
0100
1000
0010
0100
0001
0010
0000
,
0001
0010
0001
0010
0001
0010
0001
0010
0001
0010
0001
0010
0001
0010
0001
0010
,
0001
0010
0001
0010
0001
0010
0001
0010
0001
0010
0001
0010
0001
0010
0001
0010
,
0100
1000
0100
1000
0100
1000
0100
1000
0100
1000
0100
1000
0100
1000
0100
1000
,
0100
1000
0100
1000
0100
1000
0100
1000
0100
1000
0100
1000
0100
1000
0100
0000
;

//---------------dance-single - Renard----------------
#NOTES:
     dance-single:
     Renard:
     Easy:
     7:
     0.534,0.590,0.250,0.022,0.000:
0000
0000
0000
0000
,
0000
0000
0000
0000
,
0000
0000
0000
0000
,
0000
0000
0000
0000
,
1001
0000
1000
0000
,
0001
0000
1000
0001
,
1000
1000
0010
0010
,
0100
0001
1000
0100
0010
0001
1000
0000
,
0001
0000
0001
0000
1000
0100
1000
0000
,
0001
0000
0001
0000
1000
0100
0010
0001
,
1000
0000
1000
0000
0001
0100
0001
0000
,
1000
0000
1000
0000
0001
0100
0010
1000
,
0001
0000
0001
0000
1000
0100
1000
0000
,
0001
0000
0001
0000
1000
0100
0010
0001
,
1000
0000
1000
0000
0001
0100
0001
0000
,
1000
0010
1000
0000
0001
0000
0001
0000
,
1000
0100
1000
0000
0001
0010
0001
0000
,
1000
0010
1000
0000
0001
0100
0001
0000
,
1000
0100
1000
0000
0001
0010
0001
0000
,
1000
1000
0001
0001
,
1000
0010
1000
0000
0001
0100
0001
0000
,
1000
0100
1000
0000
0001
0010
0001
0000
,
1000
1000
0001
0001
,
2000
0000
0000
3010
,
1000
1010
0010
1010
,
1000
1010
0010
1010
,
1000
0010
0100
0001
0000
0000
0000
0000
,
0100
0001
1000
0100
,
0010
0011
0001
0011
,
0010
0011
0001
0011
,
0001
0010
0100
1000
0000
0000
0001
0000
,
1000
0010
0100
0001
,
1000
1100
0100
1100
,
1000
1100
0100
1100
,
1000
0100
0010
0001
0000
0000
1001
0000
,
0000
1000
0010
0100
,
0001
0101
0100
0101
,
0001
0101
0100
0101
,
0001
0100
0010
1000
0000
0000
0001
0000
,
1001
0110
1001
0110
,
0010
1000
0000
0010
1000
0000
0001
0100
,
0000
0000
0000
0000
,
0001
0100
0000
0001
0100
0000
0010
1000
,
0000
0000
0200
0000
,
1300
0100
0000
1000
0100
0000
0010
0001
,
0000
0001
0000
0000
0000
0000
0000
0000
,
1000
0010
0000
1000
0010
0000
0100
0001
,
0000
0000
1000
1001
,
1000
0100
0010
0001
0010
0100
1000
0100
,
0010
0001
0010
0100
1000
0100
0010
0001
,
0010
0100
1000
0100
0010
0001
0010
0100
,
1000
0100
0010
0001
0010
0100
1000
0000
,
0001
0010
0100
1000
0100
0010
0001
0010
,
0100
1000
0100
0010
0001
0010
0100
1000
,
0100
0010
0001
0010
0100
1000
0100
0010
,
0001
0010
0100
1000
0100
0010
0001
0000
,
1000
0010
1000
0010
1000
0010
1000
0010
,
0100
0001
0100
0001
0100
0001
0100
0001
,
1000
0100
1000
0100
1000
0100
1000
0100
,
0010
0001
0010
0001
0010
0001
0010
0001
,
1000
0001
1000
0001
0100
0010
0100
0010
,
1000
0001
1000
0001
0100
0010
0100
0010
,
1000
0100
0010
0001
0010
0100
1000
0100
,
0010
0001
0010
0100
1000
0100
0010
0001
;

//---------------dance-single - Renard----------------
#NOTES:
     dance-single:
     Renard:
     Beginner:
     5:
     0.388,0.590,0.196,0.065,0.000:
0000
0000
0000
0000
,
0000
0000
0000
0000
,
0000
0000
0000
0000
,
0000
0000
0000
0000
,
1001
0000
0000
0000
,
1001
0000
0110
0000
,
1001
0000
1001
0000
,
0110
1001
0110
0000
,
0010
1000
0010
1000
,
0001
0100
0001
0100
,
0001
1000
0001
1000
,
0100
0010
0001
0000
,
1000
0010
1000
0010
,
0100
0001
0100
0001
,
1000
0100
1000
0100
,
0010
0001
1000
0010
,
0100
0001
0100
0001
,
0010
0001
0010
0001
,
1000
0100
1000
0100
,
1000
0010
1000
0001
,
1000
0100
1000
0100
,
0010
0001
0010
0001
,
1000
0010
0100
0001
,
1000
0001
1000
1001
,
1000
1001
0001
1001
,
1000
1001
0001
1001
,
0020
0000
0000
0030
,
1000
0000
1000
0000
,
0001
1001
1000
1001
,
0001
1001
1000
1001
,
0200
0000
0000
0300
,
1000
0000
0001
0000
,
0010
1000
0010
1000
,
0001
0100
0001
0100
,
0010
1000
0010
0000
,
1000
0010
1000
0000
,
0001
0100
0001
0000
,
1000
0100
1000
0000
,
0001
0010
0100
1000
,
0001
0001
1000
1000
,
0002
0000
0000
0000
,
1003
0000
0000
0000
,
2000
0000
0000
0000
,
3001
0000
0000
0000
,
0002
0000
0000
0000
,
1003
0000
0000
0000
,
2000
0000
0000
0000
,
3001
0000
0000
1001
,
1000
0001
0100
0010
,
1000
0001
0100
0010
,
1000
0001
0100
0010
,
1000
0001
0100
0010
,
1000
0001
0100
0010
,
1000
0001
0100
0010
,
1000
0001
0100
0010
,
1000
0001
1000
0001
,
0001
1000
0001
1000
0001
1000
0001
1000
,
0001
1000
0001
1000
0001
1000
0001
1000
,
0001
1000
0001
1000
0001
1000
0001
1000
,
0001
1000
0001
1000
0001
1000
0001
1000
,
0010
0100
0010
0100
0010
0100
0010
0100
,
0010
0100
0010
0100
0010
0100
0010
0100
,
0010
0100
0010
0100
0010
0100
0010
0100
,
0010
0100
0010
0100
0010
0100
0010
0100
;

//---------------dance-single - ----------------
#NOTES:
     dance-single:
     :
     Challenge:
     15:
     1.000,1.000,0.337,0.348,1.000: // measure 1
0000
0000
0000
0000
,  // measure 2
0000
0000
0000
0000
,  // measure 3
0000
0000
0000
0000
,  // measure 4
0000
0000
0000
0000
,  // measure 5
1000
0100
0010
0001
0100
0010
1000
0001
0000
0000
0000
0000
0000
0000
1010
0000
,  // measure 6
1010
0000
0000
0000
0000
0000
1001
0000
0000
0000
0000
0000
0101
0000
0001
0100
,  // measure 7
0001
0010
0100
1000
0010
0100
0001
1000
0001
0100
0010
1000
0100
0010
0001
1000
,  // measure 8
0002
0203
0320
2030
3002
0203
0000
0320
0000
2030
0000
3002
0200
0000
0000
0303
,  // measure 9
1000
0100
0010
0100
1000
0001
0100
0001
0010
0100
0010
0001
0100
0001
1000
0100
,  // measure 10
0010
0001
1000
0100
1000
0010
0100
0001
0100
0010
1000
0001
0100
0001
0010
0100
,  // measure 11
1000
0001
0010
0001
0100
0010
1000
0100
0010
0100
1000
0001
0100
0001
0010
0100
,  // measure 12
1000
0010
1000
0001
0010
0100
1000
0010
1010
0000
1010
0000
1001
0000
0101
0000
,  // measure 13
0100
0001
0010
0001
0100
0010
1000
0100
1000
0010
0100
0001
1000
0100
0010
0001
,  // measure 14
0100
0010
0100
0010
1000
0001
1000
0010
0100
0001
1000
0001
0010
0100
1000
0001
,  // measure 15
0100
0001
1000
0010
0100
0010
1000
0001
0100
0010
1000
0100
1000
0001
0100
0001
,  // measure 16
0010
0100
1000
0001
0010
0001
0100
0010
0110
0000
0110
0000
1010
0000
0101
0000
,  // measure 17
0001
0100
0010
0100
0001
1000
0100
1000
0010
0100
0010
1000
0100
1000
0001
0100
,  // measure 18
0010
1000
0001
0100
0001
0010
0100
1000
0100
0010
0001
1000
0100
1000
0010
0100
,  // measure 19
0001
1000
0010
1000
0100
0010
0001
0100
0010
0100
0001
1000
0100
1000
0010
0100
,  // measure 20
0001
0010
0001
1000
0010
0100
0001
0010
0011
0000
0011
0000
1001
0000
1100
0000
,  // measure 21
0100
1000
0010
1000
0100
0010
0001
0100
0001
0010
0100
1000
0001
0100
0010
1000
,  // measure 22
0100
0010
0100
0010
0001
1000
0001
0010
0100
1000
0001
1000
0010
0100
0001
1000
,  // measure 23
0100
1000
0001
0010
0100
0010
0001
1000
0100
0010
0001
0100
0001
1000
0100
1000
,  // measure 24
0020
0230
0302
0023
0230
2300
0000
3020
0000
0230
0000
0302
0020
0000
0000
0033
,  // measure 25
1000
0100
1000
0100
1000
0000
0000
0000
0010
0000
0100
0000
0000
0000
0001
0000
0100
0000
0000
0000
0001
0000
0010
0000
0000
0000
0100
0000
0000
0000
1000
0000
,  // measure 26
0020
0000
0000
0000
0230
0000
0000
0000
0301
0000
0100
0000
0001
0000
1000
0000
0001
0000
0000
0000
0000
0000
0100
0000
0010
1000
0010
1000
0010
0000
0000
0000
,  // measure 27
0100
0001
0100
0001
0020
0000
0130
0000
0000
0000
0100
0001
0010
0100
1000
0010
,  // measure 28
0100
0010
0000
0000
0110
0000
0000
0000
0100
0000
0000
0000
0101
0000
0000
0000
,  // measure 29
0001
0010
0001
0010
0001
0000
0000
0000
0100
0000
0010
0000
0000
0000
1000
0000
0010
0000
0000
0000
0100
0000
0001
0000
0000
0000
0010
0000
0000
0000
0100
0000
,  // measure 30
2000
0000
0000
0000
3020
0000
0000
0000
0130
0000
0001
0000
0100
0000
0010
0000
0100
0000
0000
0000
0000
0000
0001
0000
1000
0100
1000
0100
1000
0000
0000
0000
,  // measure 31
0010
0100
0010
1000
0002
0000
0103
0000
0000
0000
0001
0010
0100
1000
0010
0100
,  // measure 32
0001
1000
0000
0000
1010
0000
0000
0000
0010
0000
0000
0000
0110
0000
0000
0000
,  // measure 33
0001
0100
0001
0100
0001
0000
0000
0000
0010
0000
0100
0000
0000
0000
1000
0000
0100
0000
0000
0000
1000
0000
0010
0000
0000
0000
0100
0000
0000
0000
0001
0000
,  // measure 34
0020
0000
0000
0000
0230
0000
0000
0000
1300
0000
0100
0000
1000
0000
0001
0000
1000
0000
0000
0000
0000
0000
0100
0000
0010
0001
0010
0001
0010
0000
0000
0000
,  // measure 35
0100
1000
0100
1000
0020
0000
0130
0000
0000
0000
0100
1000
0010
0100
0001
0010
,  // measure 36
0100
0010
0000
0000
0110
0000
0000
0000
0100
0000
0000
0000
1100
0000
0000
0000
,  // measure 37
1000
0010
1000
0010
1000
0000
0000
0000
0100
0000
0010
0000
0000
0000
0001
0000
0010
0000
0000
0000
0100
0000
1000
0000
0000
0000
0010
0000
0000
0000
0100
0000
,  // measure 38
0002
0000
0000
0000
0023
0000
0000
0000
0130
0000
1000
0000
0100
0000
0010
0000
0100
0000
0000
0000
0000
0000
1000
0000
0001
0100
0001
0100
0001
0000
0000
0000
,  // measure 39
0010
0100
0010
0001
2000
0000
3100
0000
0000
0000
1000
0010
0100
0001
0010
0100
,  // measure 40
0110
0101
1010
1001
,  // measure 41
1000
0010
1000
0000
0000
0000
1000
0010
1000
0000
0000
0000
1000
0010
0100
0001
,  // measure 42
0000
0000
0000
0000
,  // measure 43
0010
0001
0010
0000
0000
0000
0010
0001
0010
0000
0000
0000
0010
0001
0010
0100
,  // measure 44
0000
0000
0000
0000
0000
0000
0000
0000
1000
0010
0100
0000
0010
0100
0000
0000
,  // measure 45
0001
0100
0001
0000
0000
0000
0001
0100
0001
0000
0000
0001
0100
0001
1000
0000
,  // measure 46
0000
0001
1000
0000
0000
0000
0000
0000
0000
0000
0000
0000
0000
0000
0000
0000
,  // measure 47
0010
1000
0010
0000
1000
0100
0000
0000
0010
0001
0010
0000
0100
0000
1000
0000
,  // measure 48
0000
0000
0000
0000
0000
0000
0000
0000
0000
0000
0000
0000
0000
0000
0000
0000
1010
0000
0000
0000
0000
0000
0000
0000
0001
0010
0100
1000
0010
0000
0100
0000
,  // measure 49
0001
0100
0010
1000
0100
0010
0100
1000
0010
0100
0001
0010
0100
0010
0001
1000
,  // measure 50
0100
0010
0001
1000
0100
0010
0001
0100
0010
1000
0001
0100
0001
0010
0100
1000
,  // measure 51
0010
1000
0010
1000
0010
0000
1000
0000
0001
0000
0100
0000
0010
0000
0100
0000
0001
0000
0010
0000
0100
0000
1000
0000
0010
0000
0100
0000
0010
0000
1000
0000
,  // measure 52
0001
0100
0001
0100
0001
0000
0010
0000
0100
0000
0010
0000
0001
0000
0100
0000
0010
1000
0010
1000
0010
0000
1000
0000
0010
0000
0100
0000
0001
0000
0010
0000
,  // measure 53
0001
0010
0100
1000
0010
0100
0010
1000
0100
0010
0001
0100
0010
0100
0001
1000
,  // measure 54
0010
0100
0001
1000
0010
0100
0001
0010
0100
1000
0001
0010
0001
0100
0010
1000
,  // measure 55
0100
1000
0100
1000
0100
0000
1000
0000
0001
0000
0010
0000
0100
0000
0010
0000
0001
0000
0100
0000
0010
0000
1000
0000
0100
0000
0010
0000
0100
0000
1000
0000
,  // measure 56
1100
0011
1100
0011
,  // measure 57
1000
0100
0010
0001
0100
0010
0100
0001
0010
0100
1000
0010
0100
0010
1000
0001
,  // measure 58
0100
0010
1000
0001
0100
0010
1000
0100
0010
0001
1000
0100
1000
0010
0100
0001
,  // measure 59
0010
0001
0010
0001
0010
0000
0001
0000
1000
0000
0100
0000
0010
0000
0100
0000
1000
0000
0010
0000
0100
0000
0001
0000
0010
0000
0100
0000
0010
0000
0001
0000
,  // measure 60
1000
0100
1000
0100
1000
0000
0010
0000
0100
0000
0010
0000
1000
0000
0100
0000
0010
0001
0010
0001
0010
0000
0001
0000
0010
0000
0100
0000
1000
0000
0010
0000
,  // measure 61
1000
0010
0100
0001
0010
0100
0010
0001
0100
0010
1000
0100
0010
0100
1000
0001
,  // measure 62
0010
0100
1000
0001
0010
0100
1000
0010
0100
0001
1000
0010
1000
0100
0010
0001
,  // measure 63
0100
0001
0100
0001
0100
0000
0001
0000
1000
0000
0010
0000
0100
0000
0010
0000
1000
0000
0100
0000
0010
0000
0001
0000
0100
0000
0010
0000
0100
0000
0001
0000
,  // measure 64
1000
0010
1000
0000
0010
0000
0100
0000
0001
0100
0001
0000
0010
0000
0100
0000
1000
0001
1000
0000
0010
0000
0100
0000
0001
0010
0001
0010
0100
1000
0100
1000
;
