#TITLE:Liebe;
#SUBTITLE:;
#ARTIST:Kitsune?;
#TITLETRANSLIT:;
#SUBTITLETRANSLIT:;
#ARTISTTRANSLIT:;
#CRChallenge:;
#BANNER:liebe-banner.avi;
#BACKGROUND:liebe-bg.png;
#LYRICSPATH:;
#CDTITLE:!cdtitle.png;
#MUSIC:liebe.ogg;
#OFFSET:0.000;
#SAMPLESTART:9.440;
#SAMPLELENGTH:12.000;
#SELECTABLE:YES;
#BPMS:0.000=200.000,100.000=100.000,116.000=200.000,212.000=100.000,252.000=200.000;
#STOPS:;
#BGCHANGES:;
#NOTES:
     dance-single:
     Renard:
     Hard:
     11:
     0.774,1.000,0.238,0.085,0.485:
0000
0000
0000
0000
,
0000
0000
0000
0000
,
0000
0000
0000
0000
,
0000
0000
0000
0000
,
0000
0000
0000
0000
,
0000
0000
0000
0000
,
0000
0000
0000
0000
,
0000
0000
0000
1001
,
0001
0000
0100
0000
0000
0001
0010
0000
,
0100
0000
1000
0000
0010
1000
0100
0010
,
0000
0010
0001
0000
0000
0010
0100
0000
,
1000
0000
0001
0000
0100
0010
1000
0100
,
0000
0010
0001
0000
0000
0010
0100
0000
,
1000
0000
0001
0100
0000
0010
1000
0100
,
0010
0000
0010
0001
0000
0010
0000
0110
,
0000
1100
0000
0011
0000
0010
0100
0000
,
1100
0000
1000
0000
0010
0100
0001
0000
,
0010
0000
0001
0000
1000
0010
0100
0001
,
0000
0001
0010
0000
0100
0000
1000
0000
,
0001
0000
0100
0000
0010
1000
0100
0010
,
0000
0010
0100
0000
1000
0000
0001
0000
,
0010
0001
0010
0000
0001
0010
0100
1000
,
0001
0000
0001
1000
0000
1010
0000
0101
,
0000
0011
0000
1100
0000
1000
0001
0000
,
1000
0100
0010
0001
1000
0000
1001
0000
,
0002
0000
0203
0320
,
1030
0100
0010
0000
0001
0010
0100
0000
1000
0010
0200
0000
0000
0000
0301
0010
,
0200
0000
0000
0000
0000
0000
0000
0000
1300
0100
0010
0001
2000
0000
0000
0000
,
3002
0000
0000
0000
0023
0000
0230
0300
,
1000
0000
0100
0000
0000
1000
0010
0000
,
0100
0001
0010
0100
,
1000
0100
0010
0000
0001
0010
0100
0000
,
1000
0100
0010
0000
0010
0000
0100
1000
,
0010
0000
0100
0000
0000
0001
0010
0000
,
0100
0000
1000
0001
0010
0000
0100
1000
,
0001
0000
1000
0000
0001
0100
0001
0000
,
1000
0100
1000
0001
0010
0100
1000
0000
,
0001
0010
0001
1000
0100
1000
0001
0010
,
0100
0000
1000
0000
0001
0000
0010
0000
0001
0000
1000
0001
1000
0000
0010
0000
,
0100
0000
0001
0000
0100
0000
0010
0000
1000
0000
0010
0000
1000
0001
1000
0000
,
0001
0000
0100
0000
0001
0000
0010
0000
0100
0000
1000
0000
0100
1000
0100
0000
,
1000
0000
0001
1000
0001
0000
0100
0000
0001
0000
0010
0000
0100
0000
1000
0000
,
0001
0000
0100
0001
0100
0000
0001
0000
0010
0000
0100
0000
1000
0000
0001
0000
,
0010
0000
0001
0000
1000
0000
0001
1000
0001
0000
1000
0000
0010
0000
1000
0010
,
1000
0000
0001
0000
0100
0000
0010
1000
0010
0000
1000
0000
0001
0000
0000
0000
,
1000
0100
1000
0001
0010
0001
1000
0100
,
0010
0000
0001
0000
1000
0000
0100
0000
1000
0000
0001
1000
0001
0000
0100
0000
,
0010
0000
1000
0000
0010
0000
0100
0000
0001
0000
0100
0000
0001
1000
0001
0000
,
1000
0000
0010
0000
1000
0000
0100
0000
0010
0000
0001
0000
0010
0001
0010
0000
,
0001
0000
1000
0001
1000
0000
0010
0000
1000
0000
0100
0000
0010
0000
0001
0000
,
1000
0000
0010
1000
0010
0000
1000
0000
0100
0000
0010
0000
0001
0000
1000
0000
,
0100
0000
1000
0000
0001
0000
1000
0001
1000
0000
0001
0000
0100
0000
0001
0100
,
0001
0000
1000
0000
0010
0000
0100
0001
0100
0000
0001
0000
1000
0000
0000
0000
,
0001
0100
1000
0000
0110
0000
0001
0100
1000
0000
0110
0000
0001
0010
1000
0000
,
0110
0000
0001
0010
1000
0000
0110
0000
0001
0100
1000
0000
0110
0000
0001
0100
,
1000
0000
0110
0000
0001
0010
1000
0000
0110
0000
0001
0010
1000
0000
0110
0000
,
0001
0100
1000
0000
0110
0000
0001
0010
1000
0000
0110
0000
0001
0100
1000
0000
,
0110
0000
0001
0010
1000
0000
0110
0000
0001
0100
1000
0000
0110
0000
0001
0010
,
1000
0000
0110
0000
0001
0100
1000
0000
0110
0000
1001
0000
0000
0000
1001
0000
,
0100
0000
1000
0100
1000
0000
0100
0000
0010
0001
0010
0000
0001
0000
1000
0000
0001
0000
1000
0100
0010
0001
1000
0000
0001
0000
0010
0000
0100
0000
1000
0000
,
0001
0000
0010
0001
0010
0000
0001
0000
1000
0000
0100
0000
1000
0100
1000
0000
0001
0000
0010
0000
0100
0000
1000
0001
1000
0000
0100
0000
0010
0000
0010
0000
,
0001
1000
0001
0000
0010
0000
0100
0000
1000
0000
1000
0000
0100
0000
0010
0000
0001
0000
0100
0000
0010
0000
1000
0010
1000
0000
0001
0000
0100
0000
0001
0000
,
1000
0100
0010
0001
1000
0000
1000
0000
0001
0010
0100
1000
0001
0000
0001
0000
1000
0000
0010
1000
0010
0000
1000
0000
0001
0000
0100
0000
0001
0010
0001
0000
,
0010
0000
0001
0010
0001
0000
0010
0000
0100
1000
0100
0000
1000
0000
0001
0000
,
1000
0000
0001
0010
0100
1000
0001
0000
1000
0000
0100
0000
0010
0000
0001
0000
,
1000
0000
0100
1000
0100
0000
0010
0000
0001
0000
0010
0000
0100
1000
0100
0000
,
1000
0000
0100
0000
0010
0000
0001
1000
0001
0000
0010
0000
0100
0000
0100
0000
,
1000
0001
1000
0000
0100
0000
0010
0000
0001
0000
0001
0000
0010
0000
0100
0000
,
1000
0000
0010
0000
0100
0000
0001
0100
0001
0000
1000
0000
0010
0000
1000
0000
,
0001
0010
0100
1000
0001
0000
0001
0000
1000
0100
0010
0001
1000
0000
1000
0000
,
0001
0000
0100
0001
0100
0000
0001
0000
1000
0000
0010
0000
1000
0100
1000
0000
,
0100
0000
1000
0100
1000
0000
0100
0000
0010
0001
0010
0000
0001
0000
1000
0000
,
0001
0000
1000
0100
0010
0001
1000
0000
0001
0000
0010
0000
0100
0000
1000
0000
,
0001
0000
0010
0001
0010
0000
0001
0000
1000
0000
0100
0000
1000
0100
1000
0000
,
0001
0000
0010
0000
0100
0000
1000
0001
1000
0000
0100
0000
0010
0000
0010
0000
,
0001
1000
0001
0000
0010
0000
0100
0000
1000
0000
1000
0000
0100
0000
0010
0000
,
0001
0000
0100
0000
0010
0000
1000
0010
1000
0000
0001
0000
0100
0000
0001
0000
,
1000
0100
0010
0001
1000
0000
1000
0000
0001
0010
0100
1000
0001
0000
0001
0000
,
1000
0000
0010
1000
0010
0000
1000
0000
0001
0000
0100
0000
0001
0010
0001
0000
,
1000
1000
0001
0001
0020
0000
1031
0000
;
#NOTES:
     dance-single:
     Renard:
     Medium:
     9:
     0.643,1.000,0.170,0.085,0.196:
0000
0000
0000
0000
,
0000
0000
0000
0000
,
0000
0000
0000
0000
,
0000
0000
0000
0000
,
0000
0000
0000
0000
,
0000
0000
0000
0000
,
0000
0000
0000
0000
,
0000
0000
0000
1001
,
1000
0000
0100
0000
1000
0001
1000
0000
,
0001
0000
0100
0000
0001
1000
0001
0000
,
1000
0000
0100
0000
1000
0001
1000
0000
,
0001
0000
0100
0000
0001
1000
0001
0000
,
1000
0000
0010
0000
1000
0001
1000
0000
,
0001
0000
0010
0000
0001
1000
0001
0000
,
0100
0001
1000
0000
0100
1000
0001
0000
,
0100
0001
1000
0000
0100
1000
0001
0000
,
1000
0000
0100
0000
0010
0001
0010
0000
,
0001
0000
0100
0000
0010
1000
0010
0000
,
1000
0000
0010
0000
0100
0001
0100
0000
,
0001
0000
0010
0000
0100
1000
0100
0000
,
1000
0010
1000
0000
0001
0100
0001
0000
,
1000
0100
1000
0000
0001
0010
0001
0000
,
1000
0000
1000
0100
0000
0100
0000
0010
,
0000
0001
0000
1000
0000
0100
0010
0000
,
0001
0010
0100
1000
0001
0000
1001
0000
,
2000
0000
3200
0320
,
0032
0023
0230
0000
,
2300
0000
0000
3200
,
0320
0000
0032
0000
,
0013
0000
0001
0000
0000
0010
0001
0000
,
1000
0100
1000
0100
,
1000
0000
0010
0000
0000
1000
0010
0000
,
0100
0001
0100
0001
,
1000
0100
1000
0000
0001
0000
0010
0000
,
0001
0000
1000
0010
0000
0100
0001
0000
,
1000
0000
0100
0000
0010
0001
0010
0000
,
0001
0100
0001
0100
0010
1000
0001
0000
,
1000
0100
0010
0001
0010
0100
1000
0001
,
0010
0100
1000
0001
0100
0000
0001
0000
,
1000
0100
0010
0001
1000
0010
0100
0001
,
1000
0001
0010
0100
1000
0000
0001
0000
,
0100
0001
0100
0010
1000
0100
0010
0001
,
0010
0100
1000
0001
1000
0000
0001
0000
,
1000
0010
0100
0001
1000
0100
0010
0001
,
0010
0100
1000
0001
0100
0000
0001
0000
,
1000
0001
1000
0000
0100
1000
0100
0000
,
1000
0001
0010
0100
1000
0001
0100
0000
,
0001
1000
0001
0000
0100
0001
0100
0000
,
0001
0010
0100
1000
0001
0100
0010
0000
,
1000
0100
1000
0000
0001
0010
0001
0000
,
1000
0010
0100
0001
0010
0100
1000
0001
,
0100
0000
0010
1000
0001
0100
0010
1000
,
0100
0010
0001
0010
0100
1000
0001
0000
,
0001
0100
1000
0000
0110
0000
0001
0100
1000
0000
0110
0000
0001
0010
1000
0000
,
0110
0000
0001
0010
1000
0000
0110
0000
0001
0100
1000
0000
0110
0000
0001
0100
,
1000
0000
0110
0000
0001
0010
1000
0000
0110
0000
0001
0010
1000
0000
0110
0000
,
0001
0100
1000
0000
0110
0000
0001
0010
1000
0000
0110
0000
0001
0100
1000
0000
,
0110
0000
0001
0010
1000
0000
0110
0000
0001
0100
1000
0000
0110
0000
0001
0010
,
1000
0000
0110
0000
0001
0100
1000
0000
0110
0000
1001
0000
0000
0000
1001
0000
,
1000
1000
0100
0010
0001
0010
0100
1000
0001
0001
0010
0100
1000
0100
0010
0001
,
1000
1000
0010
0100
0001
0100
0010
1000
0001
0001
0100
0010
1000
0100
0010
0001
,
0001
0010
0100
1000
0001
0010
0100
1000
1000
0100
0010
0001
1000
0010
0100
0001
,
0001
0100
0010
1000
0100
0010
0001
1000
1000
0100
0010
0001
1000
0001
1000
0000
,
0001
0100
0010
1000
0100
0010
0001
0010
,
0100
1000
0001
0100
0010
1000
0100
0000
,
1000
0100
0010
0001
0100
0010
0100
0001
,
0010
0100
1000
0100
0010
0100
1000
0000
,
0001
0010
0100
1000
0010
0100
0010
1000
,
0100
0010
0001
0010
0100
1000
0001
0000
,
1000
0100
0010
0001
0010
0100
1000
0010
,
0100
0010
1000
0100
0010
0001
1000
0000
,
0001
0010
0100
1000
0001
0100
0001
1000
,
0100
0010
0001
1000
0100
1000
0001
0000
,
1000
0010
1000
0001
0010
0001
1000
0100
,
1000
0001
0100
0001
1000
0100
0010
0000
,
0001
0010
0001
1000
0100
1000
0001
0100
,
0001
1000
0010
1000
0001
0010
0100
0000
,
1000
0001
1000
0001
0100
0001
1000
0010
,
1000
0001
0010
0100
1000
0001
0010
0000
,
0001
0001
1000
1000
0001
0000
1001
0000
;
#NOTES:
     dance-single:
     Renard:
     Easy:
     7:
     0.451,0.576,0.009,0.085,0.000:
0000
0000
0000
0000
,
0000
0000
0000
0000
,
0000
0000
0000
0000
,
0000
0000
0000
0000
,
0000
0000
0000
0000
,
0000
0000
0000
0000
,
0000
0000
0000
0000
,
0000
0000
0000
0000
,
1000
0000
0001
0000
0000
0100
0001
0000
,
1000
0000
0001
0000
1000
0100
1000
0000
,
0001
0000
0100
0000
0000
0001
1000
0000
,
0001
0000
0010
0000
0001
1000
0001
0000
,
1000
0000
0010
0000
0000
1000
0001
0000
,
0100
0000
0001
0000
0010
0001
0010
0000
,
0001
1000
0010
1000
,
0001
0100
0010
1000
,
0100
0000
1000
0000
0000
0001
1000
0000
,
0001
0000
0100
0000
0001
1000
0001
0000
,
1000
0000
0100
0000
0000
1000
0010
0000
,
1000
0000
0001
0000
0010
0001
0010
0000
,
0001
0000
1000
0000
0000
0001
0100
0000
,
0001
0000
1000
0000
0100
1000
0100
0000
,
1000
0001
0100
0010
,
1000
0100
0010
0001
,
1000
0001
1000
0001
1000
0000
0001
0000
,
2000
0000
3200
0320
,
0032
0000
0000
0000
0000
0000
0000
0023
,
0230
0000
0000
2300
,
3020
0000
0230
0302
,
1003
0100
1000
0001
,
0100
0000
0001
0000
1000
0000
0100
1000
,
0100
1000
0001
0100
,
0001
0000
1000
0000
0100
0000
1000
0001
,
1000
0001
0010
0001
,
1000
0000
0010
0000
1000
0000
0001
0010
,
0001
0010
0001
1000
,
0010
0000
1000
0000
0001
1000
0001
0000
,
1000
0100
0010
0001
,
1000
0000
1000
0000
0001
1000
0001
0000
,
1000
0001
0100
0010
,
1000
0000
1000
0000
0001
1000
0001
0000
,
1000
1000
0100
0010
,
0001
0001
0010
0100
,
1000
0001
1000
0000
0100
0000
0010
0000
,
0001
1000
0001
0000
0010
0000
0100
0000
,
1000
1000
0001
0100
,
0010
0010
1000
0100
,
0010
0010
0001
0100
,
0001
1000
0001
1000
0001
0000
1000
0000
,
0001
0001
0100
0010
,
1000
1000
0010
0100
,
0001
0001
1000
0100
,
1000
0001
1000
0001
1000
0000
0001
0000
,
1000
1000
0100
0010
0010
0001
1000
1000
,
0010
0100
0100
0001
1000
1000
0100
0010
,
0010
0001
1000
1000
0010
0100
0100
0001
,
1000
0100
0100
0010
0001
0001
1000
0010
,
0010
0100
0001
0001
1000
0100
0100
0010
,
0001
0001
1000
0010
0010
0100
0000
0000
,
0001
0001
1000
0000
0001
0000
1000
0000
,
0001
0001
1000
0000
0001
0000
1000
0000
,
0010
0010
0100
0000
0010
0000
0100
0000
,
0010
0010
0100
0100
0010
0100
0010
0100
,
0010
0000
1000
0000
0010
1000
0010
0000
,
1000
0010
1000
0010
1000
0000
0010
0000
,
0100
0000
0001
0000
0100
0001
0100
0000
,
0001
0100
0001
0100
0001
0000
0100
0000
,
0001
0000
1000
0000
0001
1000
0001
0000
,
1000
0001
1000
0001
1000
0000
0001
0000
,
1000
0100
1000
0000
0100
0000
1000
0000
,
0001
0010
0001
0000
0010
0000
0001
0000
,
1000
0001
1000
0001
1000
0001
1000
0001
,
1000
0001
1000
0001
,
0100
0010
0100
0010
0100
0010
0100
0010
,
0100
0010
0100
0010
,
1000
0010
1000
0010
1000
0010
1000
0010
,
1000
0010
1000
0010
,
0100
0001
0100
0001
0100
0000
0001
0000
,
1000
0001
1000
0000
0100
1000
0100
0000
,
1000
0100
0010
0001
1000
0000
1001
0000
;
#NOTES:
     dance-single:
     Renard:
     Beginner:
     3:
     0.317,0.407,0.009,0.102,0.000:
0000
0000
0000
0000
,
0000
0000
0000
0000
,
0000
0000
0000
0000
,
0000
0000
0000
0000
,
0000
0000
0000
0000
,
0000
0000
0000
0000
,
0000
0000
0000
0000
,
0000
0000
0000
0000
,
1000
0001
0000
0001
,
0100
0010
1000
0001
,
1000
0001
0000
0001
,
0100
0010
1000
0001
,
0100
0010
0000
0010
,
1000
0001
0100
0010
,
1000
0001
0000
0001
,
0100
0010
1000
0001
,
1000
0100
0000
0100
,
0010
0001
1000
0100
,
0010
0001
0000
0001
,
1000
0100
1000
0001
,
0010
0100
0000
0100
,
0010
0001
1000
0100
,
0010
0100
1000
0001
,
0010
0100
1000
0001
,
1000
0001
1000
1001
,
0002
0000
2003
3200
,
0320
0000
0000
0000
,
0032
0000
0000
2003
,
3020
0000
0230
0000
,
0301
0100
0001
1000
,
0001
0100
0001
1000
,
0100
1000
0001
1000
,
0100
1000
0001
1000
,
0001
0010
0001
1000
,
0001
0010
0001
1000
,
0010
1000
0001
1000
,
0010
1000
0001
0000
,
0100
0100
0001
0001
,
1000
0100
0010
0000
,
0001
0001
1000
1000
,
0001
0010
0100
0000
,
1000
1000
0010
0010
,
0100
0001
1000
0000
,
0001
0001
0100
0100
,
0001
0100
0010
1000
,
0010
0010
0100
0100
,
0001
1000
0001
0000
,
1000
1000
0010
0010
,
0100
0001
1000
0000
,
0001
0001
0010
0010
,
0100
1000
0001
0000
,
1000
1000
0100
0100
,
0010
0001
1000
0000
,
0001
0000
0000
1000
0000
0000
0100
0000
,
0000
0010
0000
0000
0002
0000
0000
0000
,
0000
2003
0000
0000
,
3010
0000
0000
1000
0000
0000
0001
0000
,
0000
0100
0000
0000
0020
0000
0000
0000
,
0000
0000
2030
0000
0000
3001
0000
0000
,
1000
1000
0001
0000
0000
0000
0001
0000
,
1000
1000
0001
0000
0000
0000
0001
0000
,
0100
0100
0010
0000
0000
0000
0010
0000
,
0100
0100
0010
0000
0100
0000
0010
0000
,
1000
0010
1000
0010
,
0100
0001
1000
0000
,
0001
0100
0001
0100
,
0010
1000
0001
0000
,
1000
0100
1000
0100
,
0010
0001
1000
0000
,
0001
0100
0010
0000
,
1000
0010
0100
0000
,
0001
0100
0001
1000
,
0001
0010
0001
0000
,
1000
0100
1000
0001
,
1000
0010
1000
0000
,
0001
1000
0001
0100
,
0001
0010
0001
0000
,
1000
0010
1000
0001
,
1000
0100
1000
0000
,
0001
1000
0001
1000
0001
0000
1000
0000
;
