#TITLE:Let There Be Light;
#SUBTITLE:;
#ARTIST:Justice;
#TITLETRANSLIT:;
#SUBTITLETRANSLIT:;
#ARTISTTRANSLIT:;
#CRChallenge:;
#BANNER:light.png;
#BACKGROUND:light-bg.png;
#LYRICSPATH:;
#CDTITLE:!cdtitle.png;
#MUSIC:light.ogg;
#OFFSET:0.000;
#SAMPLESTART:23.257;
#SAMPLELENGTH:12.000;
#SELECTABLE:YES;
#DISPLAYBPM:123.000;
#BPMS:0.000=122.985,16.000=61.493,19.000=122.985,20.000=61.493,23.000=122.985,24.000=61.493,27.000=122.985,28.000=61.493,31.000=122.985,192.000=61.493,198.000=122.985;
#STOPS:19.000=0.488
,23.000=0.488
,27.000=0.488
,31.000=0.488
;
#BGCHANGES:;
#NOTES:
     dance-single:
     Renard:
     Hard:
     10:
     0.572,0.661,0.313,0.221,0.525:
0000
0000
0000
0000
,
0000
0000
0000
0000
,
0000
0000
0000
0000
,
0000
0000
0000
0000
,
2200
0000
0000
3300
,
0022
0000
0000
0033
,
2020
0000
0000
3030
,
0202
0000
0000
0000
0000
0000
0000
0000
0000
0000
0000
0000
0303
0000
0000
0001
,
1000
0000
0100
1000
0100
1000
0000
0000
0001
0010
0001
0010
0000
0001
1000
0001
,
0000
1001
0000
0000
0110
0000
0000
0000
0010
1000
0001
0100
0010
1000
0001
1000
,
0001
0000
1000
0100
1000
0100
1000
0001
0010
0000
0001
0010
0000
0001
0010
0001
,
0010
0000
0001
1000
0100
0000
1000
0000
0001
0010
0100
1000
0100
0010
0001
1000
,
0001
0000
0010
0001
0010
0001
0000
0000
1000
0100
1000
0100
0000
1000
0001
1000
,
0001
0000
1000
0000
0010
0000
1000
0001
0100
0001
1000
0010
0100
0001
1000
0001
,
1000
0000
0011
1100
1100
0000
1010
0000
,
0101
0000
0000
0000
0011
0000
0000
0000
1000
0100
0010
0001
0100
0010
1000
0001
,
1000
0000
0001
0100
0001
0100
0000
0000
0010
1000
0010
1000
0000
0100
1000
0001
,
0010
0000
0100
0000
1000
0000
0001
0000
1000
0100
0010
0001
0010
0100
1000
0001
,
0100
0000
0010
0000
1000
0010
0000
0010
1000
0000
1000
0001
0000
0001
0100
0001
,
0100
0000
0001
0000
1000
0000
0100
0000
0010
0001
0010
0001
0010
0001
0010
0001
,
1000
0000
0000
0000
0000
0000
0001
0000
0000
0100
0000
0000
0001
0000
0000
0100
0000
0000
0000
0000
0000
0000
0000
0000
0010
0000
0000
0000
0010
0000
0000
0000
0010
0000
0000
0000
0010
0000
0000
0000
0010
0000
0000
0000
0010
0000
0000
0000
,
1000
0000
0010
0000
1010
0000
0000
0000
0100
0000
0100
0001
0000
0001
1000
0000
,
0102
0013
0102
1003
,
0012
0000
0000
0000
1003
0000
0000
0000
1000
0100
0010
0001
1000
0100
0010
0001
,
1000
0100
0010
0100
1000
0000
0001
0010
0100
0010
0001
0010
0100
0000
1000
0100
,
0010
0100
1000
0100
0010
0000
0001
0010
0100
1000
0001
0100
0010
0000
0000
0000
,
1000
0010
0100
0010
1000
0000
0010
0100
0001
0100
0010
0100
0001
0000
0100
0010
,
1000
0010
0100
0010
1000
0000
0001
0100
0010
1000
0001
1000
0001
0000
1000
0001
,
1000
0100
0010
0001
0010
0000
0100
1000
0001
0010
0100
1000
0100
0000
1000
0001
,
0010
0100
1000
0001
0100
0000
0010
1000
0001
0100
0010
1000
0001
0000
1000
0000
,
0100
0010
0001
0010
0100
0000
1000
0000
0001
0010
0100
1000
0001
0000
0100
0000
,
0001
0100
0010
1000
0010
0000
1000
0010
0100
0000
0001
0100
0010
1000
0001
0000
,
0201
0000
M01M
0000
1000
0000
M31M
2010
,
0000
01MM
0001
3M1M
,
0102
0000
MM10
0000
1000
0000
M1M3
0210
,
0000
M0M1
1000
M31M
,
2010
01MM
0001
3M1M
,
1200
M01M
0001
M31M
,
0012
M1M0
1000
M1M3
,
0201
0000
M00M
0320
0000
2030
02MM
3300
,
11MM
0010
M001
0100
100M
0100
M001
0011
,
0M10
1000
001M
0100
M001
0100
100M
0010
,
0M11
0010
100M
0100
M001
0100
10M0
1100
,
100M
0000
0010
0000
M100
0000
0001
0000
M010
0000
0100
0000
10M0
0000
0001
0100
,
M010
1000
010M
0010
M001
0010
1M00
1010
,
001M
0000
0011
0000
M001
0000
0100
0000
100M
0000
0100
0000
M010
0000
1000
0100
,
100M
0001
0M10
0100
100M
0001
M100
0010
,
101M
1000
0M10
0110
M100
0001
0M11
0000
,
22MM
0000
0000
0000
,
0000
0000
3300
0000
;
#NOTES:
     dance-single:
     Renard:
     Medium:
     9:
     0.480,0.479,0.368,0.221,0.249:
0000
0000
0000
0000
,
0000
0000
0000
0000
,
0000
0000
0000
0000
,
0000
0000
0000
0000
,
2200
0000
0000
3300
,
0022
0000
0000
0033
,
2020
0000
0000
3030
,
0202
0000
0000
0000
0000
0000
0000
0000
0000
0000
0000
0000
0303
0000
0000
0001
,
1000
0000
0100
0000
0100
1000
0000
0000
0001
0000
0001
0010
0000
0000
0001
1000
,
0000
1001
0000
0000
0110
0000
0000
0000
0010
0000
0000
0000
1001
0000
0000
0000
,
0001
0000
1000
0000
0100
1000
0000
0001
0010
0000
0001
0010
0000
0001
0010
0000
,
0001
0000
0000
0000
1001
0000
0000
0000
0001
0100
0001
0100
0001
0000
1000
0000
,
0001
0000
0010
0000
0010
0001
0000
0000
1000
0000
1000
0100
0000
0000
1000
0000
,
0001
0000
0000
0000
1001
0000
0000
0000
0001
0000
0100
0010
0000
1000
0010
0000
,
1000
0000
0011
1100
1100
0000
1010
0000
,
0101
0000
0000
0000
0011
0000
0000
0000
1000
0001
1000
0001
1000
0000
0001
0000
,
1000
0000
0001
0000
0001
0100
0000
0000
0010
0000
0010
1000
0000
0100
1000
0000
,
0001
0000
0000
0000
1001
0000
0000
0000
0001
0000
0001
1000
0000
1000
0001
0000
,
0001
0000
0000
0000
1001
0000
0000
0000
1000
0000
1000
0001
0000
0001
0100
0000
,
0001
0000
0000
0000
1000
0000
0100
0000
0010
0001
0010
0001
0010
0001
0010
0001
,
1000
0000
0000
0000
0000
0000
0001
0000
0000
0000
0000
0000
0001
0000
0000
0100
0000
0000
0000
0000
0000
0000
0000
0000
0010
0000
0000
0000
1000
0000
0000
0000
0010
0000
0000
0000
1000
0000
0000
0000
0010
0000
0000
0000
1000
0000
0000
0000
,
0010
0000
1000
0000
1010
0000
0000
0000
0100
0000
0100
0001
0000
0001
1000
0000
,
0102
0013
0102
1003
,
0012
0000
0000
0000
1003
0000
0000
0000
0001
1000
0001
0000
1000
0001
1000
0000
,
0001
0100
0001
0000
0100
0000
0001
0000
0100
0001
0100
0000
0001
0000
0100
0000
,
0001
0100
0001
0000
0100
0000
0001
0000
0100
0000
0000
0000
1001
0000
0000
0000
,
1000
0100
1000
0000
0100
0000
1000
0000
0100
1000
0100
0000
1000
0000
0100
0000
,
1000
0100
1000
0000
0100
0000
1000
0000
0100
1000
0100
0000
1000
0000
0100
0000
,
1000
0001
1000
0000
0001
0000
1000
0000
0001
1000
0001
0000
1000
0000
0001
0000
,
0100
0001
0100
0000
0001
0000
0100
0000
0001
0100
0001
0000
0100
0000
0001
0000
,
0010
0001
0010
0000
0001
0000
0010
0000
0100
1000
0100
0000
1000
0000
0100
0000
,
1000
0010
1000
0000
0010
1000
0000
0000
0001
0000
0100
0000
0001
0000
0000
0000
,
0201
0000
M01M
0000
1000
0000
M31M
2010
,
0000
01MM
0001
3M1M
,
0102
0000
MM10
0000
1000
0000
M1M3
0210
,
0000
M0M1
1000
M31M
,
2010
01MM
0001
3M1M
,
1200
M01M
0001
M31M
,
0012
M1M0
1000
M1M3
,
0201
0000
M00M
0320
0000
2030
02MM
3300
,
1100
0010
0001
0100
1000
0100
0001
0011
,
0010
1000
0010
0100
0001
0100
1000
0010
,
0011
0010
1000
0100
0001
0100
1000
1100
,
1000
0000
0010
0000
0100
0000
0001
0000
0010
0000
0100
0000
1000
0000
0001
0100
,
0010
1000
0100
0010
0001
0010
1000
1010
,
0010
0000
0011
0000
0001
0000
0100
0000
1000
0000
0100
0000
0010
0000
1000
0100
,
1000
0001
0010
0100
1000
0001
0100
0010
,
1010
1000
0010
0110
0100
0001
0011
0000
,
2200
0000
0000
0000
,
0000
0000
3300
0000
;
#NOTES:
     dance-single:
     Renard:
     Easy:
     5:
     0.263,0.319,0.147,0.193,0.000:
0000
0000
0000
0000
,
0000
0000
0000
0000
,
0000
0000
0000
0000
,
0000
0000
0000
0000
,
2002
0000
0000
3003
,
0220
0000
0000
0330
,
2020
0000
0000
3030
,
0202
0000
0000
0303
,
0001
0000
0100
0010
0100
0000
0001
0000
,
0100
0010
0100
0000
0001
0000
1000
0000
,
0100
0000
0010
0100
0010
0000
0100
0000
,
1000
0100
1000
0000
0100
0000
0010
0000
,
0001
0000
1000
0010
0100
0000
0010
0000
,
1000
0010
0100
0000
0010
0000
1000
0000
,
0001
0110
0001
0110
,
0001
0110
0001
0000
,
0100
0010
1000
0100
,
0010
0000
0001
0000
1000
0100
0010
0001
,
1000
0100
0010
0001
,
1000
0000
0001
0000
1000
0010
0100
0001
,
0100
0010
1000
0000
,
0010
1000
0100
0010
,
0001
0011
0000
0011
,
0010
0000
0110
0000
0100
1000
0100
0010
,
0001
0010
0100
1000
,
0100
0010
0001
1001
,
0001
0010
0100
1000
,
0100
0000
0010
0000
0001
0000
1000
0100
,
1000
0001
0100
0010
,
1000
0000
0001
0000
0100
0000
0010
1000
,
0001
0101
0100
0110
,
0010
1010
1010
1000
,
1200
0000
0000
0000
0000
0000
0000
0320
,
0000
0000
0000
0000
,
0032
0000
0000
0000
0000
0000
0000
2003
,
0000
0000
0000
0000
,
3020
0000
0000
0000
,
0230
0000
0000
0000
,
0302
0000
0000
0000
,
2003
0000
0000
3200
0000
0320
0032
0000
,
0013
0000
0100
0000
1000
0100
1000
0001
,
0000
0000
0100
0000
0010
0000
1000
0100
,
0010
0000
0001
0000
0010
0001
1000
0001
,
0000
0000
0100
0000
0010
0000
1000
0100
,
0010
0000
0001
0000
1000
0010
0100
0001
,
0000
0100
0000
0000
0010
0000
1000
0100
,
0010
0000
0001
0000
0010
0000
0100
1000
,
0001
0000
0100
0010
0000
1000
0002
0000
,
0200
0000
0000
0000
,
0000
0000
0303
0000
;
#NOTES:
     dance-single:
     Renard:
     Beginner:
     3:
     0.239,0.296,0.083,0.221,0.000:
0000
0000
0000
0000
,
0000
0000
0000
0000
,
0000
0000
0000
0000
,
0000
0000
0000
0000
,
2200
0000
0000
3300
,
0022
0000
0000
0033
,
0202
0000
0000
0303
,
2020
0000
0000
3030
,
1000
1000
0001
0001
,
0100
0000
0100
0000
0010
0100
0010
0000
,
1000
1000
0001
0001
,
0100
0000
0100
0000
0010
0100
0010
0100
,
0001
0001
1000
1000
,
0100
0000
0100
0000
0010
0100
0010
0000
,
0001
0011
0010
0011
,
0100
1100
1000
1100
,
0100
1000
0100
1000
,
0100
1000
0001
0001
,
0010
0001
0010
0001
,
0010
0001
1000
1000
,
0010
0100
0002
0000
,
1003
1000
0100
0100
,
0020
0031
0002
0013
,
0020
0031
1000
1000
,
0001
0001
0001
0001
,
0001
0000
0001
0000
1000
0001
1000
0000
,
0001
0001
0001
0001
,
0001
0000
0001
0000
0001
1000
0001
0000
,
1000
0000
1000
0000
0001
1000
0001
0000
,
1000
0000
1000
0000
1000
0001
1000
0000
,
0001
0000
0001
0000
0001
1000
0001
0000
,
1000
0001
1000
0000
0001
0000
1000
0000
,
0020
0000
0000
0000
0000
0000
0000
0230
,
0000
0000
0000
0000
,
0302
0000
0000
0000
0000
0000
0000
2003
,
0000
0000
0000
0000
,
3200
0000
0000
0000
,
0320
0000
0000
0000
,
0032
0000
0000
0000
,
2003
0000
0000
3020
0000
0000
0230
0000
,
0301
0000
1000
0000
0001
0000
0100
0001
,
0000
1000
0000
0100
,
0010
0000
0001
0000
0000
0000
1000
0010
,
0000
0100
0001
1000
,
0100
0000
1000
0000
0010
0000
0100
0001
,
0000
1000
0000
0000
0001
0000
1000
0000
,
0100
0000
1000
0001
,
0100
0000
0000
0010
0000
0100
0001
0000
,
2002
0000
0000
0000
,
0000
0000
3003
0000
;
