#TITLE:Lawn Wake IV;
#SUBTITLE:;
#ARTIST:The Flashbulb;
#TITLETRANSLIT:;
#SUBTITLETRANSLIT:;
#ARTISTTRANSLIT:;
#CRChallenge:;
#BANNER:lawn.png;
#BACKGROUND:lawn-bg.png;
#LYRICSPATH:;
#CDTITLE:!cdtitle.png;
#MUSIC:lawn.ogg;
#OFFSET:0.000;
#SAMPLESTART:35.252;
#SAMPLELENGTH:12.000;
#SELECTABLE:YES;
#BPMS:0.000=217.000;
#STOPS:;
#BGCHANGES:;
#NOTES:
     dance-single:
     Renard:
     Medium:
     9:
     0.698,0.832,0.087,0.308,0.000:
0000
0000
0000
0000
,
0000
0000
0000
0000
,
0000
0000
0000
0000
,
0000
0000
0000
0000
,
0000
0000
0000
0000
,
0000
0000
0000
0000
,
0000
0000
0000
0000
,
0000
0000
0000
0000
,
0000
0000
0000
0000
,
0000
0000
0000
0000
,
0000
0000
0000
0000
,
0000
0000
0000
0000
,
0000
0000
0000
0000
,
0000
0000
0000
0000
,
0000
0000
0000
0000
,
0000
0000
0000
0000
,
1001
0000
0010
1001
0000
0000
0000
0000
,
1000
0100
0010
0001
0010
0100
1000
0000
,
1001
0000
0010
1001
0000
0000
0000
0000
,
1000
0100
0010
0001
0010
0100
1000
0000
,
1001
0000
0010
1001
0000
0000
0000
0000
,
0001
0010
0100
1000
0100
0010
0001
0000
,
0001
0010
0100
1000
0100
0010
0001
0010
,
0100
1000
0001
0100
0010
1000
0100
0010
,
0001
1000
0100
0010
0001
0010
0100
1000
,
0001
0010
0100
1000
0100
0010
0001
0100
,
0020
0000
0000
0000
1030
1000
0010
0010
,
0100
0100
0001
0001
0010
0100
1000
0100
,
0020
0000
0032
0000
,
0023
0000
0230
0000
,
2300
0000
0000
0000
,
0000
0000
0000
3000
,
0100
1000
0001
0010
1000
0001
0100
1000
,
0100
0010
0001
0010
0100
1000
0010
0001
,
0010
0100
1000
0100
0001
1000
0010
0001
,
0010
0100
0001
1000
0100
0010
0001
1000
,
0010
0001
1000
0001
0010
1000
0100
0001
,
1000
0001
0100
1000
0010
0100
0001
0010
,
0100
1000
0100
0001
0010
0001
0100
1000
,
0010
1000
0100
0010
0001
0010
1000
0100
,
1000
0010
0001
0100
0001
0010
0100
1000
,
0001
0100
1000
0001
0010
1000
0001
0100
,
0010
1000
0100
0001
1000
0010
0001
1000
,
0100
0010
0001
0100
0001
1000
0100
1000
,
0001
0010
0001
1000
0010
1000
0001
0100
,
0001
0100
1000
0100
0010
0001
0010
1000
,
0010
1000
0010
0100
0001
0010
1000
0010
,
0100
0001
0100
1000
0010
0100
0001
1000
,
0002
0000
0000
0000
,
2003
0000
0000
0000
,
3100
0010
1000
0010
0100
1000
0001
0010
,
0100
0001
0100
0010
0001
1000
0010
0100
,
1000
0100
0010
1000
0001
0010
0100
0001
,
0100
0010
0001
1000
0100
0010
0001
1000
,
0001
0001
0001
0010
0100
1000
0010
0100
,
0001
0100
0010
1000
0100
0010
0001
1000
,
0002
0010
0013
0100
1000
0010
0100
0001
,
0200
0010
0310
1000
0100
0010
0001
0010
,
0100
1000
0100
0010
0100
0001
0100
0010
,
0100
1000
0010
0100
0001
0100
0010
1000
,
0020
0000
2030
0000
0001
0001
3001
0000
,
0100
0010
1000
0100
0010
0001
0010
0010
,
0200
0000
2300
0000
3100
0001
0100
0010
,
0002
0000
0023
0000
1030
0010
0100
1000
,
0020
0230
0302
2003
,
3200
0000
0000
0000
0010
0010
0010
0310
,
0001
0010
0001
0010
0001
0010
0001
0010
,
0001
0010
1000
0001
0100
1000
0001
0010
,
0100
1000
0010
0100
0001
0010
0100
1000
,
0010
0100
0001
0100
1000
0100
0010
0001
,
0010
1000
0001
0100
1000
0001
0010
1000
,
0010
0100
0001
1000
0100
0001
1000
0010
,
0002
0000
0013
0010
0100
0100
1000
1000
,
0020
0000
0130
0100
0001
0001
0010
0010
,
0100
1000
0001
0100
0010
0100
1000
0100
,
0020
2030
3002
2003
,
3020
0000
0000
0000
0000
0000
0000
0030
0020
0000
0000
0000
0000
0000
0000
0030
0100
0000
0000
0000
0001
0000
0000
0000
0100
0000
0000
0000
1000
0000
0000
0000
,
0100
0010
1000
0100
0001
0100
0010
0100
,
1000
0100
0010
0001
1000
0100
0010
0001
,
0010
0100
1000
0010
0100
0001
0010
0100
,
1000
0100
1000
0100
0010
0100
0010
0100
,
0010
0010
0010
0010
0010
0010
0010
0010
,
0002
0000
0000
0013
0100
1000
0100
0010
,
0100
1000
0100
0010
0100
1000
0100
0010
,
0110
0000
0000
0000
0100
1000
0000
1000
,
0010
0100
0001
0000
,
0011
0000
0000
0000
,
2002
0000
0000
0000
,
0000
0000
0000
0000
,
0000
0000
0000
0000
,
0000
0000
0000
0000
,
3003
0000
0000
0000
;
#NOTES:
     dance-single:
     Renard:
     Challenge:
     14:
     1.000,1.000,0.058,0.394,1.000:
0000
0000
0000
0000
,
0000
0000
0000
0000
,
0000
0000
0000
0000
,
0000
0000
0000
0000
,
0000
0000
0000
0000
,
0000
0000
0000
0000
,
0000
0000
0000
0000
,
0000
0000
0000
0000
,
0000
0000
0000
0000
,
0000
0000
0000
0000
,
0000
0000
0000
0000
,
0000
0000
0000
0000
,
0000
0000
0000
0000
,
0000
0000
0000
0000
,
0000
0000
0000
0000
,
0000
0000
0000
0000
,
1000
0000
0100
1000
0100
0010
0001
0000
0000
0000
1000
0000
0001
0000
0000
0000
,
1000
0010
0100
0001
1000
0100
0010
0000
,
0001
0000
0010
0100
1000
0100
0010
0000
0000
0000
0001
0000
0010
0000
0000
0000
,
0001
0000
0010
0000
0100
0000
1000
0001
1000
0000
0100
0000
0010
0000
0000
0000
,
0001
0000
1000
0000
0001
0100
0001
0100
0001
0000
1000
0000
0010
1000
0010
0000
,
1000
0100
0010
0001
1000
0010
0200
0000
,
0310
0000
1000
0010
1000
0010
1000
0000
0000
0000
0001
0000
0100
0001
0100
0000
,
0001
0010
0001
0010
0001
0010
0001
0010
0100
1000
0100
1000
0100
1000
0100
1000
,
0002
0000
0000
0000
,
1003
0010
1000
0010
1000
0010
1000
0010
0100
0001
0100
0001
0100
0001
0100
0001
,
2000
0000
0000
0000
0000
0000
0000
0000
3001
0010
0001
0010
0100
1000
0100
1000
,
0001
0100
0001
0100
0010
1000
0010
1000
0100
1000
0100
1000
0001
0010
0001
0010
,
M002
0M00
00M0
M000
0M23
M000
000M
0M00
,
023M
M000
00M0
000M
23M0
000M
0M00
00M0
,
3M02
M000
00M0
0M00
M000
00M0
0M00
00M0
,
M000
0M00
00M0
M000
00M0
0M00
1003
M00M
,
0001
0000
0100
0000
0010
0000
1000
0000
0100
1000
0100
0000
0010
0000
0001
0000
,
1000
0000
0001
0000
0100
0000
0010
0000
1000
0100
1000
0000
0001
0000
0010
0000
,
0001
0000
0100
0000
0010
0000
1000
0000
0001
0000
0010
0001
0010
0000
0100
0000
,
1000
0000
0100
0000
0010
0000
0001
0000
1000
0010
1000
0010
1000
0000
0000
0000
,
0001
0000
0100
0000
0010
0000
1000
0100
1000
0100
0010
0001
0010
0000
0001
0000
,
1000
0000
0010
0000
0100
0000
0001
0000
1000
0100
1000
0000
0001
0000
0010
0000
,
0100
0000
0100
0000
1000
0000
0010
0000
0010
0000
0100
0001
0100
0000
0000
0000
,
0010
0000
1000
0000
0100
0000
0010
0001
0010
0001
0010
0001
0020
0000
0000
0000
,
0031
0000
0010
0000
0001
0000
1000
0000
0100
0000
0010
0000
0001
0010
0100
1000
,
0001
0000
0010
0001
0010
0000
0100
1000
0100
0000
1000
0000
0002
0000
0000
0000
,
1003
0100
1000
0100
0010
0001
0010
0001
1000
0100
1000
0100
0010
0000
0001
0000
,
1000
0000
0100
0000
0010
0000
0001
0010
0100
1000
0001
0010
0001
0000
1000
0000
,
0001
0000
0010
0000
0200
0000
0000
0000
1300
0100
0010
0001
1000
0000
0001
0000
,
0100
0010
1000
0001
0100
0010
1000
0001
,
0100
0001
0100
0010
1000
0010
0100
0001
1000
0010
1000
0010
0100
0001
0100
0001
,
1000
0000
0100
1000
0100
0000
0010
0001
0010
0000
0001
0000
2000
0000
0000
0000
,
3001
0000
0010
0000
1001
0000
1000
0010
,
0100
0001
0010
0000
1001
0000
0100
0000
,
1001
0000
0000
0000
0001
0100
0001
0100
0010
1000
0010
1000
0100
1000
0100
1000
,
0001
0010
0001
0010
0001
0100
0001
0100
0020
0000
0000
0000
2030
0000
0000
0000
,
3002
0000
0000
0000
0203
0000
0000
0000
0310
1000
0010
1000
0010
1000
0010
1000
,
0200
0000
0000
0000
2300
0000
0000
0000
3001
0010
0001
0010
0001
0010
0001
0010
,
0001
0000
0010
0000
0100
0000
1000
0001
1000
0100
1000
0000
0001
0010
0001
0000
,
1000
0100
0010
0001
0010
0100
1000
0001
0010
0100
1000
0100
0010
0001
1000
0100
,
1000
0000
0000
0000
0001
0010
0001
0010
0100
1000
0100
1000
0001
0010
0001
0010
,
0100
0000
0000
0000
1000
0010
1000
0010
0100
0001
0100
0001
1000
0100
1000
0100
,
0010
0001
0010
0001
0100
0001
0100
0001
1000
0010
1000
0010
1000
0100
1000
0100
,
0010
0001
0010
0001
1000
0010
1000
0010
0100
0001
0100
0001
1000
0010
1000
0010
,
1000
0000
1000
0000
0001
0010
0100
0000
,
1000
0100
0010
0001
0010
0100
1000
0001
0010
0100
1000
0100
0010
0000
0001
0000
,
1000
0000
0000
0000
0100
0000
0000
0000
0010
0001
1000
0100
0010
0001
1000
0100
,
0010
0000
0000
0000
0100
0000
0000
0000
1000
0000
0001
0000
0100
0010
1000
0001
,
0200
0320
2030
3002
,
0203
0000
0000
0000
0310
1000
0001
0100
,
0010
1000
0001
0100
0010
1000
0100
0010
0001
0100
0010
1000
0100
0010
0001
0100
,
0010
1000
0100
0010
0001
0100
0010
1000
0100
1000
0001
0010
0001
1000
0010
0100
,
0001
0100
0010
1000
0010
0100
1000
0100
,
0001
0000
0010
0000
1000
0000
0010
0000
0100
1000
0100
0010
0001
0100
0010
1000
,
0100
1000
0001
0010
0100
1000
0010
0100
0001
0010
0001
1000
0100
1000
0010
0100
,
0001
0010
0100
1000
0001
0100
0010
1000
0001
0010
0100
1000
0010
0100
0001
0010
,
0200
0000
0000
0000
1300
0100
1000
0001
0010
0100
1000
0001
0010
0001
1000
0010
,
0200
0000
0000
0000
0301
0010
0100
1000
0010
0100
0001
0010
0100
1000
0001
0100
,
0010
1000
0100
1000
0001
0010
0001
1000
0010
1000
0001
0100
0001
1000
0100
0010
,
0002
0023
0230
2300
,
3002
0000
2003
0000
3020
0230
0302
2003
,
3002
0000
0000
0000
0103
0000
0010
0000
1000
0010
0100
0001
1000
0000
0100
0000
,
0010
0001
0010
1000
0010
0100
1000
0200
,
0000
0000
0310
0001
1000
0100
0010
0001
1000
0100
1000
0010
0100
0001
0100
0010
,
1000
0000
1000
0001
0000
0001
0100
0000
0100
0010
0000
0010
1000
0000
1000
0001
,
1000
0000
1000
0100
0000
0100
0010
0000
0010
0001
0000
0001
1000
0000
1000
0100
,
0020
0000
0000
0000
0030
0000
0001
0010
0100
1000
0010
0100
0001
0010
0100
0010
,
0001
1000
0100
0010
0100
1000
0010
0100
0001
0010
0100
0010
0001
1000
0010
0100
,
M001
0M00
00M0
M000
010M
M010
0M00
10M0
,
010M
M000
001M
0M00
10M1
0000
MMMM
0000
,
1101
0000
0000
0000
,
2022
0000
0000
0000
,
0000
0000
0000
0000
,
3033
0000
0000
0000
;
#NOTES:
     dance-single:
     WinDEU:
     Easy:
     8:
     0.542,0.744,0.164,0.404,0.000:
0000
0000
0000
0000
,
0000
0000
0000
0000
,
0000
0000
0000
0000
,
0000
0000
0000
0000
,
0000
0000
0000
0000
,
0000
0000
0000
0000
,
0000
0000
0000
0000
,
0000
0000
0000
0000
,
0000
0000
0000
0000
,
0000
0000
0000
0000
,
0000
0000
0000
0000
,
0000
0000
0000
0000
,
0000
0000
0000
0000
,
0000
0000
0000
0000
,
0000
0000
0000
0000
,
0000
0000
0000
0000
,
0001
0000
0001
0100
0000
0000
0000
0000
,
0010
1000
0100
0010
,
0100
0000
0100
1000
0000
0000
0000
0000
,
0010
0100
0001
0010
,
0100
1000
0100
1000
0001
0100
0001
0100
,
0020
0000
0000
0130
,
0001
0000
0001
0010
0000
0000
0000
0000
,
0100
1000
0001
0100
0010
0100
0001
1000
,
0200
0000
0000
0300
,
1000
0010
0100
0010
1000
0001
0010
0100
,
0020
0030
0100
1000
,
0001
0100
0010
1000
,
2100
0000
3001
0000
,
0102
0000
1003
0000
,
2002
0000
0000
0000
,
0000
0000
0000
3003
,
1000
0010
0100
0010
1000
0010
0100
0000
,
0001
0010
0100
0010
0001
0010
0100
0000
,
1000
0001
0100
0001
1000
0001
0100
0000
,
0010
1000
0001
1000
0010
1000
0001
0000
,
0010
0100
1000
0100
0010
0100
1000
0000
,
0001
0100
0010
0100
0001
0100
0010
0000
,
0100
0010
1000
0010
0100
0010
1000
0000
,
0001
1000
0100
1000
0001
1000
0100
0000
,
0010
0010
0001
0001
,
0100
0100
0010
0010
,
1000
1000
0100
0100
,
0010
0000
0010
0000
0001
0100
0010
0000
,
1000
1000
0010
0010
,
0100
0100
0001
0001
,
0010
0010
0100
0100
,
1000
0001
0100
0010
,
0220
0000
0000
0330
,
2002
0000
0000
3003
,
0001
0000
0010
0100
1000
0100
0010
0001
,
0010
0100
1000
0100
0010
0000
0001
0000
,
0101
0110
0000
0000
,
1001
0011
0000
0000
,
0001
0010
0100
1000
0010
0100
0001
0010
,
0100
1000
0010
0100
0001
0010
0100
1000
,
0002
0000
0103
0010
1000
0010
0100
0001
,
2000
0000
3100
0010
0001
0010
0100
1000
,
0001
0100
0001
0100
0010
0100
0010
0100
,
0010
1000
0010
1000
0001
1000
0001
1000
,
0200
0000
0320
0000
0031
1000
0020
0000
,
0130
0001
1000
0100
0010
0100
1000
0001
,
0200
0320
0030
0000
,
2000
3200
0300
0000
,
0020
0032
0203
0320
,
2030
0000
0000
0000
3010
0100
0010
0100
,
0001
1000
0100
1000
0001
0100
0010
0100
,
0001
1000
0100
0010
0100
1000
0001
0000
,
0010
0001
0010
0001
1000
0001
1000
0001
,
1000
0100
1000
0100
0010
0100
0010
0000
,
0011
0000
0000
1001
0000
0000
1010
0000
,
0110
0000
0000
0101
0000
0000
1001
0000
,
2000
0000
3100
0010
0001
0000
0100
0000
,
0020
0000
1030
0010
0100
0000
0001
0000
,
0010
0100
1000
0001
0010
0100
1000
0001
,
0020
0230
2300
3002
,
0203
0000
0320
0000
1030
0010
1000
0010
,
0200
0000
0300
0001
0100
0001
1000
0001
,
0010
0100
0010
0001
0010
0100
0010
0001
,
0000
1000
0010
0100
0001
1000
0100
1000
,
0002
0000
0203
0000
,
0320
0000
2030
0000
,
3002
0000
0003
0000
,
0000
0000
0000
0000
,
0200
0000
0000
0000
0310
0100
0000
0010
,
0100
0010
0100
0000
,
1001
0000
0000
0000
,
2002
0000
0000
0000
,
0000
0000
0000
0000
,
0000
0000
0000
0000
,
0000
0000
0000
0000
,
3003
0000
0000
0000
;
#NOTES:
     dance-single:
     WinDEU:
     Beginner:
     3:
     0.329,0.569,0.077,0.366,0.000:
0000
0000
0000
0000
,
0000
0000
0000
0000
,
0000
0000
0000
0000
,
0000
0000
0000
0000
,
0000
0000
0000
0000
,
0000
0000
0000
0000
,
0000
0000
0000
0000
,
0000
0000
0000
0000
,
0000
0000
0000
0000
,
0000
0000
0000
0000
,
0000
0000
0000
0000
,
0000
0000
0000
0000
,
0000
0000
0000
0000
,
0000
0000
0000
0000
,
0000
0000
0000
0000
,
0000
0000
0000
0000
,
0001
0000
0000
0001
0000
0000
0000
0000
,
0100
0010
1000
0000
,
0100
0000
0000
0100
0000
0000
0000
0000
,
0010
0001
0100
0000
,
0010
0000
0000
0010
0000
0000
0000
0000
,
1000
0000
0000
1010
,
1000
0000
0000
1000
0000
0000
0000
0000
,
0001
0100
0001
0100
0001
0100
0001
0100
,
0002
0000
0000
0003
,
1000
0001
1000
0001
1000
0001
1000
0001
,
2000
3000
0010
0100
,
0001
0010
0100
1000
,
2100
0000
3001
0000
,
0012
0000
1003
0000
,
2002
0000
0000
0000
,
0000
0000
0000
3003
,
1000
0000
0000
0000
,
0010
0000
0000
0000
,
0100
0000
0000
0000
,
0001
0000
0000
0000
,
0010
0000
0000
0000
,
0100
0000
0000
0000
,
1000
0000
0000
0000
,
0010
0000
0000
0000
,
0100
0100
1000
1000
,
0010
0010
0100
0100
,
0001
0001
0010
0010
,
0100
0100
1000
1000
,
0001
0001
0100
0100
,
0010
0010
1000
1000
,
0100
0100
0010
0010
,
0001
1000
0010
0100
,
0220
0000
0000
0330
,
2002
0000
0000
3003
,
0002
0103
0010
1000
,
0100
0000
0010
0000
0002
0003
0002
0003
,
0002
0203
0300
0000
,
0020
2030
3000
0000
,
0002
2003
3002
0003
0000
0000
0000
0000
,
0000
0000
0000
0000
,
0200
0300
0000
0000
,
0020
0030
0000
0000
,
1000
0100
0010
0001
,
0010
0100
1000
0001
,
0100
0000
0010
0000
1000
0010
1000
0000
,
0010
0000
0100
0000
0001
0000
0100
0001
,
0100
0010
0000
0000
,
1000
0100
0000
0000
,
0010
0001
0100
0001
,
0020
0030
0100
1000
,
0010
0100
0010
1000
,
0001
0010
0100
1000
,
0010
0100
0001
0100
,
0010
1000
0001
0010
,
0100
0000
0000
0100
0000
0000
0100
0000
,
1000
0000
0000
1000
0000
0000
1000
0000
,
0020
0030
0000
0000
,
0200
0300
0000
0000
,
0001
0010
0100
1000
,
0002
0203
0320
2030
,
3020
0000
0230
0000
0301
0100
0001
0100
,
0001
0000
1000
0100
,
0010
0100
1000
0010
,
0100
0000
0000
0000
,
0002
0000
0203
0000
,
0320
0000
2030
0000
,
3200
0000
0000
0000
,
0000
0000
0000
0300
,
1000
0000
0000
0000
0001
1000
0000
0001
,
1000
0001
1000
0000
,
1001
0000
0000
0000
,
2002
0000
0000
0000
,
0000
0000
0000
0000
,
0000
0000
0000
0000
,
0000
0000
0000
0000
,
3003
0000
0000
0000
;
