#TITLE:Last Moment on Earth;
#SUBTITLE:;
#ARTIST:Emoticon;
#TITLETRANSLIT:;
#SUBTITLETRANSLIT:;
#ARTISTTRANSLIT:;
#CRChallenge:;
#BANNER:last-bn.png;
#BACKGROUND:last-bg.png;
#LYRICSPATH:;
#CDTITLE:cdtitle.png;
#MUSIC:last.ogg;
#OFFSET:-0.020;
#SAMPLESTART:45.430;
#SAMPLELENGTH:10.000;
#SELECTABLE:YES;
#BPMS:0.000=180.000;
#STOPS:121.000=2.000
;
#BGCHANGES:;
#NOTES:
     dance-single:
     pyroko:
     Medium:
     9:
     0.606,0.766,0.601,0.300,0.120:
2100
0000
0000
0000
,
0000
0000
0000
0000
,
0000
0020
0000
0000
0000
0000
0000
0000
,
0000
0000
0000
0000
,
0000
3000
0200
0000
0000
0000
0000
0000
,
0000
0000
0000
0000
,
0000
0000
0000
0000
,
0030
0002
0000
0000
0300
0020
0000
0000
,
0000
0000
0000
0000
,
0003
0200
0000
0000
0000
0000
0000
0000
,
0030
0002
0000
0000
0000
0000
0000
0300
,
2000
0000
0000
0003
0020
0000
0000
3000
,
0200
0000
0000
0000
,
0000
0000
0000
0000
,
0030
2000
0000
0000
0000
0000
0000
0000
,
0300
0002
0000
0000
0000
0000
3003
0000
,
1010
0000
0010
0000
0010
0000
0010
0010
,
0000
0000
0000
0000
1000
0100
1000
0000
0010
0000
0000
0000
0100
0000
0000
0000
,
0001
0000
0010
0000
0001
0000
0100
0100
,
0000
0020
0000
1030
0100
1000
0100
0000
0010
0000
0000
0000
0010
0000
0000
0000
,
0001
0000
1000
0000
0010
0000
0100
0001
,
0000
0000
0000
0000
0010
0001
0010
0000
0100
0000
0000
0000
1000
0000
0000
0000
,
0010
0000
0100
0000
0010
0000
1000
0100
,
0000
0020
0000
0031
1000
0001
0100
0000
0010
0000
0000
0000
1000
0000
0000
0000
,
0100
0010
0001
0100
0010
1000
0100
2000
,
0000
0000
3000
0000
0010
0100
0010
0000
1000
0000
0000
0000
0100
0000
0000
0000
,
1000
0010
0100
0010
1000
0100
0010
0200
,
0000
2000
0300
3010
0100
0010
1000
0000
0001
0000
0000
0000
0100
0000
0000
0000
,
0010
1000
0100
MMMM
0010
0001
0100
MMMM
,
0010
1000
0001
MMMM
0010
0001
1000
MMMM
,
0202
0000
0000
0000
0000
0000
0000
0000
0000
0000
0000
0000
0000
0000
0000
0000
0000
0000
0000
0000
0000
0000
0000
0000
0000
0000
0000
0000
0000
0000
0000
0000
0000
0000
0000
0000
0000
0000
0000
0000
0000
0000
0000
0000
0000
0000
0000
0000
0000
0303
0000
0000
0000
0000
0000
0000
0000
0000
0000
0000
0000
0000
0000
0000
0000
0000
0000
0000
0000
0000
0000
0000
0000
0000
0000
0000
0000
0000
0000
0000
0000
0000
0000
0000
0000
0000
0000
0000
0000
0000
0000
0000
0000
0000
0000
0000
1010
0000
0000
0000
0000
0000
0000
0000
0000
0000
0000
0000
0000
0000
0000
0000
0000
0000
0000
0000
0000
0000
0000
0000
0000
0000
0000
0000
0000
0000
0000
0000
0000
0000
0000
0000
0000
0000
0000
0000
0000
0000
0000
0000
0000
0000
0000
0000
1100
0000
0000
0000
0000
0000
0000
0000
0000
0000
0000
0000
0000
0000
0000
0000
0000
0000
0000
0000
0000
0000
0000
0000
0000
0000
0000
0000
0000
0000
0000
0000
0000
0000
0000
0000
0000
0000
0000
0000
0000
0000
0000
0000
0000
0000
0000
0000
,
0011
0000
0001
0010
0000
0010
0001
0000
,
1000
0010
0110
1100
,
0011
0000
0010
0001
0000
0001
0100
0000
,
0010
1000
1001
0011
,
1100
0000
1000
0010
0000
0010
0100
0000
,
0101
0110
1010
1100
,
0110
0000
0010
0001
0000
0001
0010
0000
,
0001
1000
1010
1100
,
0110
0000
0001
0010
0000
0010
0001
0000
,
0001
1000
0010
0100
0110
0000
1010
0000
,
1100
0000
0100
0010
0000
0010
0001
0000
,
0001
0010
0100
1000
0010
1000
0100
0010
,
0001
0000
0001
0010
0000
0010
0100
0000
,
1000
0010
1010
1100
,
0110
0000
0010
0001
0000
0001
0010
0000
,
0001
0010
0001
0010
0001
1000
0010
0100
,
0010
1000
0100
0010
0000
0010
0100
0000
,
0100
0010
0001
1000
0010
0100
0010
0001
,
0010
1000
0010
1000
0000
1000
0100
0000
,
0100
0010
0001
1000
0010
0100
0010
1000
,
0100
0010
0100
0010
0000
0010
0001
0000
,
0001
1000
0010
0100
0010
1000
0100
0010
,
0100
0000
0100
0010
0000
0010
0001
0000
,
0001
0010
0001
0000
1000
0010
0001
0010
,
1000
0100
0010
0100
0010
0001
1000
0010
,
0001
0010
1000
0100
0010
1000
0010
0001
,
0100
0010
0001
0010
1000
0100
0010
1000
,
0010
0001
1000
0010
0100
0010
1000
0100
,
1000
0100
0010
0001
1000
0010
0100
0010
,
1000
0100
0010
0100
1000
0010
0001
0010
,
1000
0100
0010
0001
0000
0001
1000
0000
,
0010
0000
0100
0000
0010
0100
0010
0000
1010
0000
0000
0000
11M0
0000
0000
0000
,
1M01
0000
0000
0000
M101
0000
0110
0000
1010
0000
0000
0000
1000
0100
0010
0000
,
0001
01M1
011M
1M10
,
0101
0000
0020
0000
0130
0000
0100
0000
0000
0002
0000
0103
0010
1000
0100
0000
,
0010
0001
2000
3000
1010
0000
M110
0000
,
1MM1
0000
0000
0000
1100
0000
0110
0000
1100
0000
0000
0000
0010
0100
0001
0000
,
1001
1M10
M110
01M1
,
0011
0000
0200
0000
1300
0000
0010
0000
0000
0200
0000
0310
1000
0010
0100
0000
,
0001
0000
0000
0000
0202
00M0
M000
03M3
1001
0000
0000
0000
M011
0000
0000
0000
,
10M1
0000
0000
0000
101M
0000
0110
0000
0101
0000
0000
0000
0001
0010
0100
0000
,
1000
1010
M110
01M1
,
1M1M
0000
0200
0000
0310
0000
0010
0000
0000
2000
0000
3010
0100
0001
0010
0000
,
0100
1000
0002
0003
0101
0000
011M
0000
,
1MM1
0000
0000
0000
0011
0000
0110
0000
0011
0000
0000
0000
0100
0010
1000
0000
,
1001
M101
011M
1M10
,
1100
0020
0031
0100
0020
0000
0000
0000
,
0000
0000
0030
00M0
2020
0000
0000
0000
,
0000
0000
0000
0000
,
0000
0000
0002
0000
,
0000
0000
0000
0000
,
0000
0000
0000
0000
0003
0200
0000
0000
,
0000
0000
0000
0000
,
0000
0000
0000
0000
,
3330
0000
0000
0000
;
#NOTES:
     dance-single:
     pyroko:
     Easy:
     6:
     0.373,0.512,0.189,0.172,0.000:
0000
0000
0000
0000
,
0000
0000
0000
0000
,
0000
0000
0000
0000
,
0000
0000
0000
0000
,
0000
0000
0000
0000
,
0000
0000
0000
0000
,
0000
0000
0000
0000
,
0000
0000
0000
0000
,
0000
0000
0000
0000
,
0000
0200
0000
0000
0000
0000
0000
0000
,
0000
0320
0000
0000
0000
0000
0000
0000
,
0032
0000
2003
0000
,
3200
0000
0000
0000
,
0000
0000
0000
0000
,
0000
2300
0000
0000
0000
0000
0000
0000
,
0000
3020
0000
0000
0000
0000
0000
0030
,
1000
0000
1000
0000
1000
0000
1000
1000
,
0000
0000
0000
0000
,
0001
0000
0001
0000
0001
0000
0001
0001
,
0000
0000
0000
0000
,
0010
0000
0010
0000
0010
0000
0010
0010
,
0000
0000
0000
0000
,
0100
0000
0100
0000
0100
0000
0100
0100
,
0000
0000
0000
0000
,
0001
0010
0001
0010
0001
0010
0001
0000
,
0000
0000
0000
0000
,
1000
0010
1000
0010
1000
0010
1000
0000
,
0000
0000
0000
0000
,
0002
0000
0000
0003
2000
0000
0000
3000
,
0020
0000
0000
0030
0200
0000
0000
0300
,
2002
0000
0000
0000
0000
0000
0000
0000
0000
0000
0000
0000
0000
0000
0000
0000
0000
0000
0000
0000
0000
0000
0000
0000
0000
0000
0000
0000
0000
0000
0000
0000
0000
0000
0000
0000
0000
0000
0000
0000
0000
0000
0000
0000
0000
0000
0000
0000
0000
3003
0000
0000
0000
0000
0000
0000
0000
0000
0000
0000
0000
0000
0000
0000
0000
0000
0000
0000
0000
0000
0000
0000
0000
0000
0000
0000
0000
0000
0000
0000
0000
0000
0000
0000
0000
0000
0000
0000
0000
0000
0000
0000
0000
0000
0000
0000
1000
0000
0000
0000
0000
0000
0000
0000
0000
0000
0000
0000
0000
0000
0000
0000
0000
0000
0000
0000
0000
0000
0000
0000
0000
0000
0000
0000
0000
0000
0000
0000
0000
0000
0000
0000
0000
0000
0000
0000
0000
0000
0000
0000
0000
0000
0000
0000
0010
0000
0000
0000
0000
0000
0000
0000
0000
0000
0000
0000
0000
0000
0000
0000
0000
0000
0000
0000
0000
0000
0000
0000
0000
0000
0000
0000
0000
0000
0000
0000
0000
0000
0000
0000
0000
0000
0000
0000
0000
0000
0000
0000
0000
0000
0000
0000
,
0100
0001
1000
0100
,
0010
0001
1000
0010
,
0100
0001
0010
0100
,
1000
0001
0100
0010
,
0100
0001
1000
0100
,
0010
0100
1000
0010
,
0100
0001
0010
0001
,
1000
0010
1000
0100
,
0010
0000
0001
0010
0000
0010
0001
0000
,
0001
1000
0010
1000
,
0100
0000
0100
0010
0000
0010
0100
0000
,
0010
0001
1000
0001
,
1000
0000
0001
1000
0000
1000
0001
0000
,
0001
0010
0100
1000
,
0010
0000
0010
0100
0000
0100
0010
0000
,
1000
0100
0010
0001
,
1000
0000
1000
0100
0000
0100
0010
0000
,
0001
1000
0010
0100
,
0010
0000
1000
0100
0000
0100
0010
0000
,
0011
1001
0010
1000
,
0100
0000
0100
0010
0000
0010
0100
0000
,
1100
1100
0010
0100
,
0010
0000
1000
0001
0000
0001
0010
0000
,
0011
0011
0001
1000
,
0010
0000
0010
0100
0000
0100
0010
0000
,
1000
0100
0010
0001
,
1000
0000
0010
1000
0000
1000
0010
0000
,
1010
1100
0100
0010
,
0001
0000
0001
0010
0000
0010
0100
0000
,
1100
1010
1000
0100
,
0010
0000
0001
0010
0000
0010
0001
0000
,
1001
0110
1001
1000
,
0100
0000
0010
0001
0010
0000
0001
0100
,
0001
0010
0001
1000
1000
0000
0010
0000
,
0100
0010
1000
0100
,
0010
0100
1001
1001
,
1001
0000
1000
0100
0010
0000
0001
1000
,
0100
0010
0100
1000
0100
0000
1000
0000
,
0010
0100
0010
1000
,
0100
0000
2200
0300
3100
0000
0010
0000
,
0001
1000
0010
0100
,
0010
1000
0100
1000
0100
0000
1000
0000
,
0001
0010
0001
1000
,
0010
1000
0110
0110
,
0110
0000
1000
0100
0010
0000
0010
0000
,
0001
0000
1000
0001
1000
0000
0001
0000
,
1000
0010
0200
0000
,
0000
0000
0000
0300
2020
0000
0000
0000
,
0000
0000
0000
0000
,
0000
0000
0000
0030
0002
0000
0000
0000
,
0000
0000
0000
0000
,
0000
0000
0000
0000
3000
0200
0000
0000
,
0000
0000
0000
0000
,
0000
0000
0000
0000
,
0000
0303
0000
0000
;
#NOTES:
     dance-single:
     pyroko:
     Beginner:
     2:
     0.210,0.402,0.189,0.172,0.000:
0000
0000
0000
0000
,
0000
0000
0000
0000
,
0000
0000
0000
0000
,
0000
0000
0000
0000
,
0000
0000
0000
0000
,
0000
0000
0000
0000
,
0000
0000
0000
0000
,
0000
0000
0000
0000
,
0000
0000
0000
0000
,
0020
0000
0000
0000
,
0000
0000
0000
0000
,
2030
0000
3002
0000
,
0203
0000
0000
0000
,
0000
0000
0000
0000
,
0000
0320
0000
0000
0000
0000
0000
0000
,
0000
0000
0000
0030
,
2002
0000
0000
0000
0000
0000
0000
3003
,
0000
0000
0000
0000
,
1000
0100
1000
0000
,
0000
0000
0000
0000
,
0010
0100
0010
0000
,
0000
0000
0000
0000
,
1000
0001
1000
0000
,
0000
0000
0000
0000
,
1000
0100
1000
0001
,
0000
0000
0000
0000
,
0100
0010
0100
0001
,
0000
0000
0000
0000
,
2000
3000
0200
0300
,
0020
0030
0002
0003
,
2000
0000
0000
0000
0000
0000
0000
0000
0000
0000
0000
0000
0000
0000
0000
0000
0000
0000
0000
0000
0000
0000
0000
0000
0000
0000
0000
0000
0000
0000
0000
0000
0000
0000
0000
0000
0000
0000
0000
0000
0000
0000
0000
0000
0000
0000
0000
0000
0000
3000
0000
0000
0000
0000
0000
0000
0000
0000
0000
0000
0000
0000
0000
0000
0000
0000
0000
0000
0000
0000
0000
0000
0000
0000
0000
0000
0000
0000
0000
0000
0000
0000
0000
0000
0000
0000
0000
0000
0000
0000
0000
0000
0000
0000
0000
0000
0010
0000
0000
0000
0000
0000
0000
0000
0000
0000
0000
0000
0000
0000
0000
0000
0000
0000
0000
0000
0000
0000
0000
0000
0000
0000
0000
0000
0000
0000
0000
0000
0000
0000
0000
0000
0000
0000
0000
0000
0000
0000
0000
0000
0000
0000
0000
0000
0000
0000
0000
0000
0000
0000
0000
0000
0000
0000
0000
0000
0000
0000
0000
0000
0000
0000
0000
0000
0000
0000
0000
0000
0000
0000
0000
0000
0000
0000
0000
0000
0000
0000
0000
0000
0000
0000
0000
0000
0000
0000
0000
0000
0000
0000
0000
0000
,
0000
0000
1000
0000
,
0000
0000
0100
0000
,
0000
0000
1000
0000
,
0000
0000
0001
0000
,
0000
0000
0100
0000
,
0000
0000
0010
0000
,
0000
0000
1000
0000
,
0000
0000
0100
1000
,
0100
0000
0000
0000
,
0000
0000
0010
0001
,
0010
0000
0000
0000
,
0000
0000
0001
0100
,
0001
0000
0000
0000
,
0000
0000
0010
1000
,
0010
0000
0000
0000
,
0000
0000
1100
0000
,
0000
0000
0011
0000
,
0000
0000
1001
0000
,
0000
0000
0110
0000
,
0000
0000
1001
0000
,
0000
0000
1100
0000
,
0000
0000
0011
0000
,
0000
0000
1001
0000
,
0000
0000
1000
0100
,
1000
0100
1000
0100
,
1000
0100
0010
0001
,
0010
0001
0010
0001
,
0010
0001
1000
0001
,
1000
0001
1000
0001
,
1000
0001
1000
0010
,
1000
0010
2000
0000
,
0000
3000
0010
1000
,
0010
0000
1000
0001
,
1000
0000
0001
0100
,
0002
0000
0000
0000
,
0000
0003
1001
1001
,
1001
0000
1000
0100
,
1000
0000
0110
0110
,
0110
0000
1000
0100
,
0020
0030
1001
1001
,
1001
0000
1000
0001
,
0100
0000
0110
0110
,
0110
0000
0000
0000
,
0000
0000
1000
0100
,
1000
0000
0100
0010
,
0100
0000
0010
0001
,
0010
0001
2000
0000
,
0000
3000
0220
0000
,
0000
0000
0000
0000
,
0000
0030
0002
0000
,
0000
0000
0000
0000
,
0000
0300
2000
0000
,
0000
0000
0000
0000
,
0000
0000
0000
0000
,
0000
3003
0000
0000
;
