#TITLE:Kiranger;
#SUBTITLE:;
#ARTIST:m1dy;
#TITLETRANSLIT:;
#SUBTITLETRANSLIT:;
#ARTISTTRANSLIT:;
#GENRE:;
#CRChallenge:;
#BANNER:kiranger.png;
#BACKGROUND:kiranger-bg.png;
#LYRICSPATH:;
#CDTITLE:;
#MUSIC:kiranger.ogg;
#OFFSET:0.000;
#SAMPLESTART:7.460;
#SAMPLELENGTH:12.000;
#SELECTABLE:YES;
#BPMS:0.000=500.000;
#STOPS:80.000=1.440
;
#BGCHANGES:;
#KEYSOUNDS:;
#NOTES:
     dance-single:
     Renard:
     Medium:
     11:
     1.000,0.000,0.142,0.012,0.000:
0000
0000
0000
0000
,
0000
0000
0000
0000
,
0000
0000
0000
0000
,
0000
0000
0000
0000
,
0000
0000
0000
0000
,
0000
0000
0000
0000
,
0000
0000
0000
0000
,
0000
0000
0000
0000
,
0000
0000
0000
0000
,
0000
0000
0000
0000
,
0000
0000
0000
0000
,
0000
0000
0000
0000
,
0000
0000
0000
0000
,
0000
0000
0000
0000
,
0000
0000
0000
0000
,
0000
0001
0001
0001
,
1001
0000
0000
0000
,
0000
1000
1000
1000
,
1001
0000
0000
0000
,
0000
0001
1000
0001
,
1001
0000
0000
0000
0001
1000
0001
0000
,
1000
0001
1000
0001
,
0100
0010
1000
0100
,
0010
0001
0010
0001
,
0010
0100
1000
0001
,
0100
0010
0100
0010
,
1000
0100
0010
0001
,
0100
0010
0100
0010
,
1000
0100
0010
0100
,
1000
0010
0100
0010
,
0100
0001
0010
0100
,
1000
0010
0100
0010
,
0100
0001
0010
0100
,
1000
0100
0001
0100
,
1000
0010
0001
0010
,
0011
0000
0100
1010
,
0000
0100
1001
0000
,
1000
0100
0001
0100
,
0000
1000
0010
0001
,
0010
0100
0001
0100
,
0000
0010
1000
0100
,
0001
0100
1000
0010
,
0000
0100
0001
0100
,
0010
1000
0100
0001
,
0000
0100
1000
0010
,
1000
0100
0001
0100
,
0000
1000
0010
0001
,
0010
0100
0001
0100
,
0000
0010
1000
0100
,
0001
0000
0100
0000
1000
0100
1000
0000
,
0001
0000
1000
0001
1000
0000
0001
0000
,
0010
0001
0010
0000
0100
0000
1000
0000
,
1001
0000
0110
0000
,
0010
0100
0001
0100
,
0001
0100
0001
0100
,
0010
0010
1000
1000
,
0010
0100
0001
0000
,
0100
0010
1000
0010
,
1000
0010
1000
0010
,
0100
0100
0001
0001
,
0100
0010
1000
0000
,
0010
0100
0001
0100
,
0001
0100
0001
0100
,
0010
0010
1000
1000
,
0010
0100
0001
0000
,
0100
0010
1000
0010
,
1000
0010
1000
0010
,
0100
0001
0100
0000
0001
0000
0100
0000
,
0001
1000
0001
1000
0001
1000
0001
1000
,
0001
0100
0001
0100
,
1000
0100
0001
0100
,
0010
1000
0010
0001
,
0010
1000
0010
0100
,
0001
0100
0001
0100
,
1000
0100
1000
0100
,
0010
0001
0010
1000
,
0010
0100
1000
0100
,
0001
0100
0001
0100
,
1000
0100
0001
0100
,
0010
1000
0010
0001
,
0010
1000
0010
0000
,
1001
0000
0000
0000
,
0000
0000
0000
0000
,
0000
0000
0000
0000
,
0001
1000
0001
1000
0001
0000
0000
0000
,
1000
0000
0100
0000
0010
0000
0001
1000
,
0001
0010
0100
1000
,
0100
0000
0010
0000
0001
0000
1000
0001
,
1000
0100
0010
0001
,
0010
0000
0100
0000
1000
0000
0001
1000
,
0001
1000
0100
0010
,
0001
0000
0010
0000
0100
0000
1000
0001
,
1000
0001
0100
0001
,
1000
0000
0100
0000
0010
0000
0001
1000
,
0001
0010
0100
1000
,
0100
0000
0010
0000
0001
0000
1000
0001
,
1000
0100
0010
0001
,
0010
0000
0100
0000
1000
0000
0001
1000
,
0001
1000
0100
0010
,
0001
1000
0001
1000
0001
1000
0001
1000
,
0001
0100
0001
0100
,
0001
0100
1000
0100
,
0001
0100
1000
0100
,
0001
0100
1000
0100
,
0001
0001
0001
0000
,
1000
0010
0001
0010
,
1000
0010
0001
0010
,
1000
0010
0001
0010
,
1000
1000
1000
0000
,
0010
1000
0010
1000
,
0100
1000
0100
1000
,
0001
0010
1000
0010
,
0001
1000
0001
0000
,
1000
1000
0000
0001
,
0001
0000
1000
1000
,
0001
0000
0100
0000
0010
0000
1000
0001
,
1000
0010
0200
0000
,
0301
0100
0010
1000
,
0100
0010
0001
0010
,
0100
1000
0010
0100
,
0001
0000
0000
0000
1000
0001
1000
0001
,
1000
0100
0010
0001
,
0100
0010
1000
0100
,
0010
0001
1000
0010
,
1000
0001
1000
0000
0001
0000
1000
0000
,
0001
0100
0010
1000
,
0100
0010
0001
0100
,
0010
1000
0100
0010
,
0001
0000
0000
0000
,
0001
0010
0100
1000
,
0001
1000
0001
1000
0001
1000
0001
1000
,
0001
0000
0000
0000
,
1001
0000
0000
0000
,
0001
0100
0010
1000
,
0001
1000
0001
1000
0001
0000
0100
0000
,
0010
0100
0001
0100
,
0010
0100
0001
1000
,
0100
0000
0010
0000
0001
1000
0001
1000
,
0001
1000
1000
0001
,
1000
1000
0010
1000
,
0001
0100
0001
0100
0001
0000
1000
0000
,
0100
0000
0010
0000
0001
1000
0001
1000
,
0010
0000
0100
0000
,
0010
0000
1000
0001
1000
0000
0010
0000
,
0100
0000
0001
0100
0001
0000
0000
0000
,
1000
0000
0010
0000
0100
0001
0100
0001
,
0100
0010
1000
0010
,
0100
0100
0100
0010
,
0010
0010
0100
0000
,
0010
0000
1000
0000
0001
0010
0001
0010
,
0001
0000
1000
0000
,
0100
0000
0000
0000
1000
0001
1000
0001
,
0100
0010
0100
0000
,
0001
1000
0010
0100
,
0001
1000
0001
1000
0001
0000
0100
0000
,
0010
0100
0001
1000
,
0010
1000
0001
0000
1000
0000
0000
0000
,
0100
1000
0001
0010
,
0001
1000
0001
1000
0010
0000
0000
0000
,
0100
0000
0001
0000
1000
0100
1000
0100
,
1000
0001
0100
0000
,
0010
0000
1000
0000
0001
0100
0001
0000
,
1000
0000
0100
1000
0100
0000
1000
0001
,
1000
0001
0100
0100
,
0010
0000
1001
0000
,
1001
0000
0000
0000
,
0000
0000
0001
1000
0001
1000
0001
1000
,
0001
0000
0000
0000
,
0000
0000
1000
0010
1000
0010
1000
0010
,
1000
0000
0000
0000
;
#NOTES:
     dance-single:
     pyroko:
     Easy:
     6:
     0.531,0.000,0.154,0.083,0.000:
0000
0000
0000
0000
,
0000
0000
0000
0000
,
0000
0000
0000
0000
,
0000
0000
0000
0000
,
0000
0000
0000
0000
,
0000
0000
0000
0000
,
0000
0000
0000
0000
,
0000
0000
0000
0000
,
0000
0000
0000
0000
,
0000
0000
0000
0000
,
0000
0000
0000
0000
,
0000
0000
0000
0000
,
0000
0000
0000
0000
,
0000
0000
0000
0000
,
0000
0000
0000
0000
,
0000
0000
0000
0000
,
1001
0000
0000
0000
,
0000
0000
0000
0000
,
1001
0000
0000
0000
,
0000
0000
0000
0000
,
1001
0000
0000
0000
,
1000
0000
0000
0100
,
0000
0010
0000
0100
,
0000
0000
1000
0000
,
0000
0100
0000
0010
,
0000
0000
0100
0000
,
0000
1000
0000
0100
,
0000
0000
0010
0000
,
0001
0000
1000
0000
,
0001
0000
0000
1000
,
0000
0001
0000
1000
,
0000
0000
0010
0000
,
0000
0100
0000
0010
,
0000
0000
0100
0000
,
0000
0010
0000
0000
,
1100
0000
0000
1100
,
0000
0000
0000
0000
,
0000
1000
0100
0000
,
0010
0000
0100
0000
,
1000
0000
0100
0000
,
0010
0000
0100
0000
,
1000
0000
0100
0000
,
0010
0000
0100
0000
,
1000
0000
0100
0000
,
0010
0000
0100
0000
,
1000
0000
0100
0000
,
0010
0000
0001
0000
,
1000
0000
0001
0000
,
0010
0000
0001
1000
,
0000
0010
0000
0100
,
0000
0010
0000
0000
,
1000
0000
0000
1001
,
0000
0020
0030
0000
,
1000
0100
1000
0100
,
1000
0000
0100
0000
,
0010
0000
0001
0000
,
1000
0000
0001
0000
,
0010
0001
0010
0001
,
0010
0000
0001
0000
,
1000
0000
0001
0000
,
0100
0000
0010
0000
,
0100
0010
0100
0010
,
0100
0000
0010
0000
,
1000
0000
0100
0000
,
0010
0000
0100
0000
,
1000
0000
0001
1000
,
0001
1000
0001
0000
,
0010
0000
0001
0000
,
0100
0000
0010
0000
,
0100
0010
0100
0010
,
0100
0000
0010
0000
,
1000
0000
0100
0000
,
0010
0000
0100
0000
,
1000
0100
1000
0100
,
1000
0000
0100
0000
,
0010
0000
0001
0000
,
1000
0000
0001
0000
,
0010
0001
0010
0001
,
0010
0000
0001
0000
,
0100
0000
0010
0000
,
0100
0000
0010
0000
,
2000
0000
0000
0000
,
0000
0000
0000
0000
,
0000
0000
0000
0000
,
3200
0020
0000
0330
,
0000
0001
0000
1000
,
0001
0000
1000
0000
,
0001
0000
0100
0000
,
0010
0000
0100
0000
,
0010
0000
1000
0000
,
0100
0000
0010
0000
,
0100
0000
1000
0000
,
0100
0000
0010
0000
,
0001
0000
1000
0000
,
0001
0000
0010
0000
,
0001
0000
1000
0000
,
0001
0000
1001
0000
,
0001
0000
0100
0000
,
0010
0000
0100
0000
,
0020
0000
0000
0030
,
0010
0000
0000
0000
,
1000
0000
0100
0000
,
1000
0000
0100
0000
,
1000
0000
0100
0000
,
0010
0000
0110
0000
,
0100
0000
1000
0000
,
0001
0000
0010
0000
,
0001
0000
1000
0000
,
0001
0000
1001
0000
,
0001
0000
0100
0000
,
0010
0000
0100
0000
,
0010
0000
1000
0000
,
0100
0000
1100
0000
,
0100
0000
0000
0000
,
0000
0000
0000
0000
,
1000
0000
0000
0000
,
0001
0000
0001
0000
,
1000
0000
0100
0000
,
0010
0000
0100
0000
,
1000
0000
0100
0000
,
0010
0000
0000
0000
,
0001
0000
1000
0000
,
0001
0000
0100
0000
,
0010
0000
1000
0000
,
0100
0000
0000
0000
,
0010
0000
0100
0000
,
1000
0000
0100
0000
,
0010
0000
0001
0000
,
1000
0000
0000
0000
,
0010
0000
0100
0000
,
0010
0000
0100
0000
,
0010
0000
2000
0000
,
0200
3300
0000
0000
,
1000
0100
1000
0100
,
1000
0000
0100
0000
,
0010
0000
0001
0000
,
1000
0000
0001
0000
,
0010
0000
0001
0010
,
0001
0000
1000
0000
,
0001
0000
0010
0000
,
0001
0000
1000
0000
,
0010
0100
0010
0100
,
0010
0000
0100
0000
,
0010
0000
1000
0000
,
0100
0000
0010
0000
,
0100
0010
0100
0000
,
0010
0000
0100
0000
,
1000
0000
0100
0000
,
0010
0000
0001
0000
,
1000
0001
1000
0001
,
1000
0000
0001
0000
,
0100
0000
0010
0000
,
0100
0000
0010
0000
,
1000
0000
0010
1000
,
0010
0000
1000
0000
,
0100
0000
0010
0000
,
0100
0000
0000
0000
,
1000
0000
0100
0000
,
0010
0000
0100
0000
,
1000
0000
0001
0000
,
1000
0000
0001
0000
,
0010
0000
0001
0000
,
1000
0000
0001
0000
,
0010
0001
0010
0001
,
0010
0000
0001
0000
,
1001
0000
0000
0000
,
0000
0000
0000
0000
,
0110
0000
0000
0000
,
0000
0000
0000
0000
,
0101
0000
0000
0000
;
#NOTES:
     dance-single:
     pyroko:
     Beginner:
     3:
     0.257,0.000,0.083,0.000,0.000:
0000
0000
0000
0000
,
0000
0000
0000
0000
,
0000
0000
0000
0000
,
0000
0000
0000
0000
,
0000
0000
0000
0000
,
0000
0000
0000
0000
,
0000
0000
0000
0000
,
0000
0000
0000
0000
,
0000
0000
0000
0000
,
0000
0000
0000
0000
,
0000
0000
0000
0000
,
0000
0000
0000
0000
,
0000
0000
0000
0000
,
0000
0000
0000
0000
,
0000
0000
0000
0000
,
0000
0000
0000
0000
,
1000
0000
0000
0000
,
0000
0000
0000
0000
,
0001
0000
0000
0000
,
0000
0000
0000
0000
,
1001
0000
0000
0000
,
0010
0000
0000
0000
,
1000
0000
0000
0000
,
0100
0000
0000
0000
,
0010
0000
0000
0000
,
0100
0000
0000
0000
,
1000
0000
0000
0000
,
0100
0000
0000
0000
,
0010
0000
0000
0000
,
0001
0000
0000
0000
,
1000
0000
0000
0000
,
0001
0000
0000
0000
,
0100
0000
0000
0000
,
0010
0000
0000
0000
,
0100
0000
0000
0000
,
0010
0000
0000
0000
,
0000
0000
0000
0000
,
1000
0000
0000
0000
,
0100
0000
0000
0000
,
0010
0000
0000
0000
,
0100
0000
0000
0000
,
1000
0000
0000
0000
,
0100
0000
0000
0000
,
0010
0000
0000
0000
,
0100
0000
0000
0000
,
1000
0000
0000
0000
,
0001
0000
0000
0000
,
0100
0000
0000
0000
,
0010
0000
0000
0000
,
1000
0000
0000
0000
,
0100
0000
0000
0000
,
0010
0000
0000
0000
,
0100
0000
0000
0000
,
1001
0000
0000
0000
,
0000
0000
0000
0000
,
0000
0000
0000
0000
,
0000
0000
0000
0000
,
0010
0000
0000
0000
,
0100
0000
0000
0000
,
0010
0000
0100
0000
,
0010
0000
0000
0000
,
1001
0000
0000
0000
,
0000
0000
0000
0000
,
0000
0000
0000
0000
,
0000
0000
0000
0000
,
0100
0000
0000
0000
,
0010
0000
0000
0000
,
0100
0000
1000
0000
,
0100
0000
0000
0000
,
0011
0000
0000
0000
,
0000
0000
0000
0000
,
0000
0000
0000
0000
,
0000
0000
0000
0000
,
0001
0000
1000
0000
,
0001
0000
0100
0000
,
0010
0000
0100
0000
,
0010
0000
0000
0000
,
1001
0000
0000
0000
,
0000
0000
0000
0000
,
0000
0000
0000
0000
,
0000
0000
0000
0000
,
0000
0000
0000
0000
,
0000
0000
0000
0000
,
0000
0000
0000
0000
,
0000
0000
0000
0000
,
1001
0000
0000
0000
,
0000
0000
0000
0000
,
0100
0000
0000
0000
,
0000
0000
0000
0000
,
0010
0000
0000
0000
,
0000
0000
0000
0000
,
0100
0000
0000
0000
,
0000
0000
0000
0000
,
1000
0000
0000
0000
,
0001
0000
0000
0000
,
0100
0000
0000
0000
,
0010
0000
0000
0000
,
1000
0000
0000
0000
,
0100
0000
0000
0000
,
0010
0000
0000
0000
,
0100
0000
0000
0000
,
1000
0000
0000
0000
,
0001
0000
0000
0000
,
0100
0000
0000
0000
,
0010
0000
0000
0000
,
0100
0000
0000
0000
,
0010
0000
0000
0000
,
1000
0000
0000
0000
,
0100
0000
1000
0000
,
0100
0000
0000
0000
,
0010
0000
0000
0000
,
0001
0000
0000
0000
,
1000
0000
0000
0000
,
0001
0000
0000
0000
,
0000
0000
0000
0000
,
0100
0000
0010
0000
,
0100
0000
0010
0000
,
0100
0000
0000
0000
,
0010
0000
0000
0000
,
1000
0000
0100
0000
,
1000
0000
0000
0000
,
0100
0000
0000
0000
,
0010
0000
0000
0000
,
0100
0000
1000
0000
,
0001
0000
0000
0000
,
0100
0000
0000
0000
,
0010
0000
0000
0000
,
0100
0000
0010
0000
,
1000
0000
0000
0000
,
0100
0000
0000
0000
,
0010
0000
0000
0000
,
0100
0000
0000
0000
,
0000
0000
0000
0000
,
1000
0000
0000
0000
,
0100
0000
0000
0000
,
1000
0000
0100
0000
,
1000
0000
0000
0000
,
0001
0000
0000
0000
,
1000
0000
0000
0000
,
0001
0000
0100
0000
,
0001
0000
0000
0000
,
0010
0000
0000
0000
,
0001
0000
0000
0000
,
0010
0000
0100
0000
,
0010
0000
0000
0000
,
0100
0000
0000
0000
,
1000
0000
0000
0000
,
0100
0000
0000
0000
,
0010
0000
0000
0000
,
0001
0000
0000
0000
,
1000
0000
0000
0000
,
0001
0000
1000
0000
,
0001
0000
0000
0000
,
1000
0000
0000
0000
,
0010
0000
0000
0000
,
0100
0000
0010
0000
,
0100
0000
0000
0000
,
0010
0000
0000
0000
,
1000
0000
0000
0000
,
0100
0000
0000
0000
,
0010
0000
0000
0000
,
0100
0000
0000
0000
,
1000
0000
0000
0000
,
0100
0000
1000
0000
,
0100
0000
1000
0000
,
0100
0000
0000
0000
,
0000
0000
0000
0000
,
0010
0000
0000
0000
,
0000
0000
0000
0000
,
0110
0000
0000
0000
;
