#TITLE:Killing Fields;
#SUBTITLE:;
#ARTIST:D-Mode-D & Jackal Queenston;
#TITLETRANSLIT:;
#SUBTITLETRANSLIT:;
#ARTISTTRANSLIT:;
#CRChallenge:;
#BANNER:fields-banner.avi;
#BACKGROUND:fields-bg.png;
#LYRICSPATH:;
#CDTITLE:!cdtitle.png;
#MUSIC:fields.ogg;
#OFFSET:0.000;
#SAMPLESTART:9.766;
#SAMPLELENGTH:12.000;
#SELECTABLE:YES;
#BPMS:0.000=195.000;
#STOPS:;
#BGCHANGES:;
#NOTES:
     dance-single:
     Renard:
     Hard:
     14:
     1.000,1.000,0.323,0.055,1.000:
0000
0000
0000
0000
,
0000
0000
0000
0000
,
0000
0000
0000
0000
,
0000
0000
0000
0000
,
0000
0000
0000
0000
,
0000
0000
0000
0000
,
0000
0000
0000
0000
,
0000
0000
0000
0000
,
0001
0000
0000
0000
0000
0000
1000
0000
0000
0100
0000
0000
1000
0000
0000
0000
0000
0000
0001
0000
0010
0000
0001
0000
0010
0000
0000
0000
0000
0000
0001
0000
0000
0000
0000
0000
0021
0000
0000
0000
0000
0000
0000
0000
0000
0000
0000
0000
,
0130
0000
0000
0000
0000
0000
1000
0000
0000
0100
0000
0000
1000
0000
0000
0000
0000
0000
0001
0000
1000
0000
0001
0000
1000
0000
0000
0000
0000
0000
0001
0000
0000
0000
0000
0000
2001
0000
0000
0000
0000
0000
0000
0000
0000
0000
0000
0000
,
3010
0000
0000
0000
0000
0000
1000
0000
0000
0010
0000
0000
1000
0000
0000
0000
0000
0000
0001
0000
0100
0000
0001
0000
0100
0000
0000
0000
0000
0000
0001
0000
0000
0000
0000
0000
0201
0000
0000
0000
0000
0000
0000
0000
0000
0000
0000
0000
,
0310
0000
1000
0100
1000
0000
0001
0000
0010
0001
0010
0000
0001
0000
1000
0100
,
1000
0000
0000
0000
0000
0000
0001
0000
0000
0010
0000
0000
0001
0000
0000
0000
0000
0000
1000
0000
0100
0000
1000
0000
0100
0000
0000
0000
0000
0000
1000
0000
0000
0000
0000
0000
1200
0000
0000
0000
0000
0000
0000
0000
0000
0000
0000
0000
,
0310
0000
0000
0000
0000
0000
0001
0000
0000
0010
0000
0000
0001
0000
0000
0000
0000
0000
1000
0000
0001
0000
1000
0000
0001
0000
0000
0000
0000
0000
1000
0000
0000
0000
0000
0000
1002
0000
0000
0000
0000
0000
0000
0000
0000
0000
0000
0000
,
0103
0000
0000
0000
0000
0000
0001
0000
0000
0100
0000
0000
0001
0000
0000
0000
0000
0000
1000
0000
0010
0000
1000
0000
0010
0000
0000
0000
0000
0000
1000
0000
0000
0000
0000
0000
1020
0000
0000
0000
0000
0000
0000
0000
0000
0000
0000
0000
,
0130
0000
0001
0010
0001
0000
1000
0000
0100
1000
0100
0000
1000
0000
0001
0010
,
0001
0010
0001
0000
1000
0001
1000
0000
0010
1000
0010
0000
0100
0001
0100
0000
,
0010
1000
0010
0000
1000
0100
1000
0000
0001
0010
0001
0000
0100
0001
0100
0000
,
0010
1000
0010
0000
1000
0100
1000
0000
0001
0010
0001
0000
0100
0001
0100
0000
,
0010
1000
0010
0000
1000
0100
1000
0000
0001
0010
0001
0000
1000
0001
1000
0000
,
0001
0010
0001
0000
1000
0001
1000
0000
0010
1000
0010
0000
0100
0001
0100
0000
,
0010
1000
0010
0000
1000
0100
1000
0000
0001
0010
0001
0000
0100
0001
0100
0000
,
0010
1000
0010
0000
1000
0100
1000
0000
0001
0010
0001
0000
0100
0001
0100
0000
,
0010
1000
0010
0000
1000
0100
1000
0000
0001
0010
0001
0000
1000
0000
0000
0000
,
0000
0000
0000
0000
,
0000
0000
0000
0000
,
0000
0000
0000
0000
,
0000
0000
0000
0000
,
1000
0000
0100
0010
0001
0000
0010
0100
1000
0001
0100
0000
0001
0000
1000
0000
,
0100
0000
0010
0001
1000
0000
0001
0010
0100
1000
0001
0000
0100
0000
0010
0000
,
1000
0000
0100
0010
0001
0000
0010
0100
1000
0001
0100
0000
0010
0000
1000
0000
,
0010
0000
0100
0001
0100
0000
0010
1000
0001
0100
0001
0000
1000
0000
0100
0000
,
1000
0000
0100
1000
0100
0000
0010
0001
0010
0001
0010
0000
0001
0000
0100
0000
,
0010
0000
1000
0100
1000
0000
0001
0010
0001
0010
0001
0000
0100
0000
0010
0000
,
1000
0000
0001
0100
0001
0000
1000
0010
1000
0010
1000
0000
0010
0000
0100
0000
,
0001
0000
1000
0100
1000
0000
0001
0010
0001
0010
0001
0000
1000
0000
0100
0000
,
1000
0100
0000
1000
0100
0000
1000
0100
0000
1000
0100
0000
0010
0001
0010
0001
,
0100
0001
0000
0100
0001
0000
0100
0001
0000
0100
0001
0000
1000
0010
1000
0010
,
1000
0100
0000
0010
0001
0000
1000
0100
0000
0010
0001
0000
1000
0100
0010
0001
,
1000
0010
0000
0100
0001
0000
1000
0010
0000
0100
0001
0000
1000
0010
0100
0001
,
1000
0100
0000
1000
0100
0000
1000
0100
0000
1000
0100
0000
0010
0001
0010
0001
,
0100
0001
0000
0100
0001
0000
0100
0001
0000
0100
0001
0000
1000
0010
1000
0010
,
1000
0100
0000
0010
0001
0000
1000
0100
0000
0010
0001
0000
1000
0100
0010
0001
,
1000
0010
0000
0100
0001
0000
1000
0010
0000
0100
0001
0000
1000
0000
0000
0000
,
0000
0000
0000
0000
,
0000
0000
0000
0000
,
0000
0000
0000
0000
,
0000
0000
0000
0000
,
0011
0000
0000
0110
0000
0000
1100
0000
1001
0000
0001
0000
1000
0000
0000
0000
,
0001
0010
0001
0010
0001
0010
0001
0010
0100
1000
0100
1000
0001
0010
0001
0010
,
0100
0000
0000
1100
0000
0000
0011
0000
1001
0000
1000
0000
0001
0000
0000
0000
,
0001
0100
0001
0100
0001
0100
0001
0100
0010
1000
0010
1000
0001
0000
0001
0000
,
1100
0000
0000
0110
0000
0000
0011
0000
1001
0000
1000
0000
0001
0000
0000
0000
,
1000
0100
1000
0100
1000
0100
1000
0100
0010
0001
0010
0001
1000
0100
1000
0100
,
0010
0000
0000
0011
0000
0000
1100
0000
1001
0000
0001
0000
1000
0000
0000
0000
,
1000
0010
1000
0010
1000
0010
1000
0010
0100
0001
0100
0001
1000
0000
1000
0000
,
0011
0000
0000
0110
0000
0000
1100
0000
1001
0000
0001
0000
1000
0000
0000
0000
,
0001
0010
0001
0010
0001
0010
0001
0010
0100
1000
0100
1000
0001
0010
0001
0010
,
0100
0000
0000
1100
0000
0000
0011
0000
1001
0000
1000
0000
0001
0000
0000
0000
,
0001
0100
0001
0100
0001
0100
0001
0100
0010
1000
0010
1000
0001
0000
0001
0000
,
1100
0000
0000
0110
0000
0000
0011
0000
1001
0000
1000
0000
0001
0000
0000
0000
,
1000
0100
1000
0100
1000
0100
1000
0100
0010
0001
0010
0001
1000
0100
1000
0100
,
0010
0000
0000
0011
0000
0000
1100
0000
1001
0000
0001
0000
1000
0000
0000
0000
,
1000
0010
1000
0010
1000
0010
1000
0010
0100
0001
0100
0001
1000
0000
1000
0000
,
0000
0000
0000
0000
,
0000
0000
0000
0000
,
0000
0000
0000
0000
,
0000
0000
0000
0000
,
0001
0010
0001
0010
0001
0010
0001
0010
0100
1000
0100
1000
0100
1000
0100
1000
,
0001
0010
0001
0010
0001
0010
0001
0010
0100
1000
0100
1000
0100
1000
0100
1000
,
0001
0100
0001
0100
0001
0100
0001
0100
0010
1000
0010
1000
0010
1000
0010
1000
,
0001
0100
0001
0100
0001
0100
0001
0100
0010
1000
0010
1000
0010
1000
0010
1000
,
0001
0010
0001
0010
0100
1000
0100
1000
0001
0010
0001
0010
0100
1000
0100
1000
,
0001
0100
0001
0100
0010
1000
0010
1000
0001
0100
0001
0100
0010
1000
0010
1000
,
0001
0010
0100
1000
0001
0010
0100
1000
0001
0100
0010
1000
0001
0100
0010
1000
,
0001
0010
0001
0010
0100
1000
0100
1000
0001
0010
0100
1000
0001
1000
0001
1000
,
0001
0010
0001
0010
0001
0010
0001
0010
0100
1000
0100
1000
0100
1000
0100
1000
,
0001
0010
0001
0010
0001
0010
0001
0010
0100
1000
0100
1000
0100
1000
0100
1000
,
0001
0100
0001
0100
0001
0100
0001
0100
0010
1000
0010
1000
0010
1000
0010
1000
,
0001
0100
0001
0100
0001
0100
0001
0100
0010
1000
0010
1000
0010
1000
0010
1000
,
0001
0010
0001
0010
0100
1000
0100
1000
0001
0010
0001
0010
0100
1000
0100
1000
,
0001
0100
0001
0100
0010
1000
0010
1000
0001
0100
0001
0100
0010
1000
0010
1000
,
0001
0010
0100
1000
0001
0010
0100
1000
0001
0100
0010
1000
0001
0100
0010
1000
,
0001
0010
0001
0010
0100
1000
0100
1000
0001
0010
0100
1000
0001
1000
0001
1000
,
1001
0000
0000
0000
;
#NOTES:
     dance-single:
     pyroko:
     Medium:
     10:
     0.694,0.698,0.074,0.406,0.037:
0000
0000
0000
0000
,
0000
0000
0000
0000
,
0000
0000
0000
0000
,
0000
0000
0000
0000
,
1000
0000
0100
0000
0010
0000
0000
0100
,
0000
0000
1000
0100
0010
0000
0000
0000
,
0001
0000
1000
0000
0001
0000
0100
0001
,
0000
0010
0001
1000
0002
0000
0003
0000
,
1000
0000
0100
0010
0000
0100
1000
0000
,
0010
0100
0010
1000
0100
0010
0100
1000
,
0001
0000
0010
0001
0000
0100
0001
0000
,
0010
0100
1000
0100
1000
0010
0100
0010
,
1000
0000
0010
0100
0000
0001
0010
0000
,
0100
1000
0010
0100
0010
1000
0100
0010
,
0100
0000
1000
0001
0000
0100
0001
0000
,
0010
0100
1000
0100
0010
0100
1000
0010
,
0100
0010
0001
0010
0000
1000
0100
0000
,
0010
0100
1000
0001
0100
0010
0001
0010
,
0100
0000
0010
0100
0000
0001
0010
0000
,
0100
1000
0100
0010
0100
1000
0001
0100
,
0010
0000
0001
0010
0000
0100
0010
0000
,
1000
0100
0010
0100
1000
0001
0100
0010
,
0100
0000
0010
1000
0000
0100
0010
0000
,
0100
0010
0001
1000
0001
0010
0002
0003
,
1000
0000
0010
0000
0100
0000
0000
0010
,
0000
0000
1000
0100
0010
0000
0000
0000
,
0100
0000
1000
0000
0010
0000
0000
0100
,
0020
0000
2030
3000
,
0010
1000
0020
0000
0031
0010
2000
0000
,
3100
0001
2000
0000
3001
1000
0020
0000
,
0130
1000
0002
0000
0103
0020
0000
0031
,
0020
0000
1030
0200
0000
0310
2000
0000
,
3001
1000
0020
0000
0130
1000
0002
0000
,
0103
0001
0200
0000
1300
0100
0020
0000
,
1030
0100
0002
0000
1003
0020
0000
1030
,
0020
0000
0031
0200
0000
0310
0002
0000
,
0013
1000
0100
0001
1000
0010
1000
0010
,
0001
1000
0010
0100
0010
0001
0010
1000
,
0100
0010
1000
0001
1000
0010
0100
1000
,
0010
0001
0010
1000
0010
0001
0010
1000
,
0100
0001
0100
1000
0100
0001
0100
0010
,
1000
0010
0001
0010
0001
0100
0010
0001
,
0010
1000
0100
0001
1000
0010
1000
0001
,
1000
0010
0100
0010
0001
1000
0020
0030
,
0100
0000
0010
0000
1000
0000
0000
0100
,
0000
0000
0010
0100
1000
0000
0000
0000
,
0001
0000
0010
0000
0001
0000
0000
0200
,
0002
0000
0020
0333
,
0202
0000
0000
0010
0000
0000
1000
0000
0010
0000
0000
0000
0010
0000
0303
0000
,
1000
0001
0100
0001
0010
0100
1000
0200
,
0020
0000
0000
0001
0000
0000
1000
0000
0000
0000
1000
0000
0001
0000
0330
0000
,
0100
1000
0001
0010
0001
0100
0010
1000
,
1010
0000
0000
0202
0000
0000
0010
0000
0010
0000
0000
0000
1000
0000
0303
0000
,
0001
0100
0010
0100
0001
0010
0100
0010
,
0001
0000
0000
0002
0000
0000
0020
0000
0000
0000
0100
0000
1000
0000
0033
0000
,
0001
0010
0001
0100
0010
1000
0010
0100
,
0101
0000
0000
0202
0000
0000
1000
0000
1000
0000
0000
0000
0010
0000
0303
0000
,
1000
0100
0010
0100
1000
0001
0100
0010
,
0200
0000
0000
0020
0000
0000
2000
0000
0000
0000
0001
0000
0001
0000
3330
0000
,
0100
0010
1000
0010
1000
0100
1000
0100
,
1100
0000
0000
2002
0000
0000
0010
0000
0010
0000
3003
0000
1000
0000
0000
0000
,
1000
0100
0010
0100
1000
0010
0100
0001
,
0010
0000
0000
0002
0000
0000
2000
0000
0000
0000
0100
0000
0100
0000
3003
0000
,
0010
1000
0010
0100
0010
1000
0100
0010
,
0001
0000
1000
0010
0100
0000
0010
1000
,
0000
0100
0010
0100
1000
0000
0000
0000
,
0100
M000
0M00
00M0
000M
0M00
00M0
M000
,
000M
000M
00M0
0M00
2MMM
3MMM
MMMM
000M
,
0001
M00M
10M0
M010
0MM0
01M0
0M10
M0M0
,
1M00
M1M0
0M10
M1M0
1M0M
MM01
01MM
0M1M
,
00M1
00MM
M010
10M0
M0M0
0M10
01M0
0M0M
,
00M1
0M1M
M1M0
1M00
M1M0
0M10
M1M0
1M00
,
M100
0MM0
001M
00M1
M00M
100M
M001
0M0M
,
01M0
0M10
01M0
MM10
1MM0
M1M0
0M10
M1M0
,
1M00
M00M
00M1
001M
00MM
M001
100M
M0M0
,
0M10
01M0
0M1M
00M1
M01M
1MM0
M1M0
0M10
,
01M0
0MM0
001M
00M1
M00M
100M
M001
0M0M
,
01M0
0M10
01M0
MM10
1MM0
M1M0
0M10
0MM0
,
0100
0MM0
001M
00M1
M00M
100M
M001
0M0M
,
01M0
MM10
10M0
MM10
01M0
MM10
1MM0
M1M0
,
0M10
0MM0
M100
1M00
M00M
00M1
001M
00MM
,
0M01
01MM
0M1M
00M1
M01M
1MM0
M1M0
MM10
,
10M0
M0M0
0M10
01M0
0MM0
001M
00M1
M00M
,
100M
MM01
01MM
0M1M
00M1
M01M
10M0
MM00
,
11MM
0000
0000
0000
;
#NOTES:
     dance-single:
     pyroko:
     Easy:
     7:
     0.470,0.543,0.203,0.083,0.000:
0000
0000
0000
0000
,
0000
0000
0000
0000
,
0000
0000
0000
0000
,
0000
0000
0000
0000
,
1000
0000
0100
0000
,
0010
0100
1000
0000
,
0001
0000
0100
0000
,
0001
0010
0002
0003
,
1000
0010
0100
0010
,
1000
0100
1000
0100
0010
0000
0100
0000
,
1000
0001
0010
0001
,
0100
0010
0100
0010
0100
0000
0010
0000
,
1000
0100
0010
0100
,
1000
0100
1000
0100
1000
0000
0100
0000
,
0010
0001
1000
0001
,
0100
0010
0100
0010
0100
0000
0010
0000
,
2010
0010
0010
3010
,
0102
0100
0010
0013
,
0100
1000
0100
0010
,
0100
0000
1000
0000
0001
0100
0001
0000
,
0012
0010
0010
0013
,
1200
1000
1000
1300
,
0210
0310
0001
1000
,
0001
0100
0001
0010
,
0100
0000
1000
0000
,
0010
0100
0010
0000
,
1000
0000
0100
0000
,
0010
0100
2000
3000
,
1000
0100
0010
0100
,
1000
0100
0010
0001
,
0100
0001
0100
0000
0001
0000
0010
0000
,
0001
0010
0001
1000
,
0010
0100
0010
1000
,
0010
0100
0010
1000
,
0001
0010
0001
0000
0010
0000
0000
0000
,
0001
0000
0010
0001
0000
1000
0001
0000
,
0010
0001
0010
0100
,
1000
0100
0010
0100
,
1000
0100
1000
0000
0001
0010
0000
0001
,
0010
0000
0001
0010
0000
0000
0001
0000
,
0100
0001
0010
0100
,
1000
0100
0010
0100
,
1000
0010
1000
0000
0010
1000
0000
0010
,
1000
0000
0010
1000
0000
0010
0100
0000
,
0001
0000
0010
0000
,
0100
1000
0100
0000
,
0010
0000
0100
0000
,
1000
0100
0020
0030
,
0001
1000
0001
0000
,
0100
0001
0100
0000
0001
0000
0010
0000
,
0001
1000
0001
0100
,
0010
0100
0010
0100
0010
0100
0010
0000
,
1000
0100
0010
0100
,
1000
0100
1000
0000
0100
0000
0010
0000
,
0100
1000
0001
0010
,
0001
0010
0001
0010
0001
0010
0001
0000
,
0010
0100
1000
0100
,
0010
0001
0010
0000
0001
0100
0001
0000
,
0010
0001
0010
0001
,
0100
0001
0100
0001
0100
0001
0100
0000
,
0001
0010
0001
0100
,
0001
0000
0010
0000
0001
1000
0001
0000
,
0010
0100
1000
0100
,
0010
0100
0010
0100
0010
0000
0100
0000
,
1000
0000
0001
0000
,
0100
0001
0010
0000
,
0100
0000
0000
0000
,
0000
0000
0000
0000
2000
3000
0000
0000
,
0110
0100
0100
0100
,
1001
0001
0001
0001
,
0011
0001
0100
0010
,
1010
0010
0100
0010
,
1100
0100
0010
0001
,
1001
0001
0100
0010
,
0110
0010
1000
0100
,
0110
0001
1000
0001
,
0011
0001
1000
0001
,
0101
0001
0010
0100
,
1100
0100
0010
0100
,
0110
0001
1000
0001
,
0110
0010
1000
0100
,
0110
0100
1000
0001
,
0010
0001
1000
0010
,
0110
0010
1010
0010
,
0101
0000
0000
0000
;
#NOTES:
     dance-single:
     pyroko:
     Beginner:
     4:
     0.317,0.465,0.139,0.175,0.000:
0000
0000
0000
0000
,
0000
0000
0000
0000
,
0000
0000
0000
0000
,
0000
0000
0000
0000
,
0000
0000
0000
0000
,
0000
0000
0000
0000
,
0000
0000
0000
0000
,
0000
0000
0000
0000
,
1000
0000
0100
0000
,
0010
0100
0010
0001
,
1000
0000
0010
0000
,
0100
0010
0100
0001
,
0010
0000
0100
0000
,
1000
0100
1000
0100
,
0010
0000
0001
0000
,
0100
0001
0100
0001
,
0020
0000
0000
0000
,
0230
0000
2300
0000
,
3020
0000
0000
0000
,
0130
0001
0010
0001
,
2000
0000
0000
0000
,
3020
0000
0230
0000
,
0302
0000
0000
0000
,
0013
0000
0100
0000
0010
0000
0002
0003
,
0000
0000
0000
0000
,
0000
0000
0000
0000
,
0000
0000
0000
0000
,
0000
0000
0000
0000
,
1000
0100
0010
0001
,
1000
0000
0001
0000
,
0110
0000
0010
0000
,
1100
0000
0100
0000
,
0110
0000
1001
0000
,
0011
0000
0101
0000
,
0001
0000
1000
0000
,
0010
0100
0010
0100
,
1001
0001
0001
0001
,
0110
0100
0100
0100
,
1100
0000
0100
0000
,
0010
0001
1000
0000
,
0110
0010
0010
0010
,
1100
1000
1000
1000
,
0001
0000
0010
0000
,
0100
0000
1000
0000
0100
0000
0020
0030
,
0000
0000
0000
0000
,
0000
0000
0000
0000
,
0000
0000
0000
0000
,
0000
0000
0000
0000
,
2000
0000
0000
3000
,
0100
0010
0100
0010
,
0001
1000
0001
0100
,
0010
1000
0010
0100
,
2020
0000
0000
3030
,
0100
0010
0100
1000
,
0001
0010
0001
0100
,
0001
0010
0001
1000
,
2002
0000
0000
3003
,
0100
0100
0010
0010
,
0001
1000
0001
0100
,
0010
0100
0010
1000
,
2200
0000
0000
3300
,
0100
0100
0010
0010
,
0001
1000
0001
0010
,
0002
0000
0023
0000
,
0030
0000
0000
0000
,
0000
0000
0000
0000
,
0000
0000
0000
0000
,
0000
0000
0000
0000
,
1000
0100
0010
0100
,
1000
0100
1000
0000
0100
0000
0010
0000
,
0001
1000
0001
0010
,
0001
0100
0001
0000
0010
0000
0001
0000
,
0100
0010
1000
0010
,
0100
0010
1000
0100
,
0010
0100
1000
0001
,
0010
0001
0100
0001
,
0010
0001
0100
0010
,
1000
0010
1000
0000
0100
0000
0010
0000
,
0100
1000
0001
0100
,
0010
1000
0010
1000
,
0100
0010
0100
1000
,
0001
0000
0010
0000
0001
0010
0001
0000
,
0100
0001
0010
0100
,
1000
0100
0010
0001
,
1001
0000
0000
0000
;
