#TITLE:Kill It;
#SUBTITLE:;
#ARTIST:Helloween;
#TITLETRANSLIT:;
#SUBTITLETRANSLIT:;
#ARTISTTRANSLIT:;
#CRChallenge:;
#BANNER:kill.png;
#BACKGROUND:kill-bg.png;
#LYRICSPATH:;
#CDTITLE:;
#MUSIC:kill.ogg;
#OFFSET:0.000;
#SAMPLESTART:28.692;
#SAMPLELENGTH:12.000;
#SELECTABLE:YES;
#BPMS:0.000=166.600,136.000=83.300,150.000=166.600;
#STOPS:;
#BGCHANGES:;
#NOTES:
     dance-single:
     Renard:
     Hard:
     11:
     0.846,0.809,0.189,0.530,1.000:
0000
0000
0000
0000
,
0000
0000
0000
0000
,
0000
0000
0000
0000
,
0000
0000
0000
0000
,
0001
0010
0100
1000
0100
0010
0001
0010
0100
1000
0100
0010
,
0001
0100
0010
1000
0010
0100
0001
0100
0010
1000
0010
0100
,
0001
0010
0100
1000
0100
0010
0001
0010
0100
1000
0100
0010
,
0001
0100
0010
1000
0010
0100
0001
0000
0000
1001
0000
0000
,
1000
0100
0010
0001
0010
0100
1000
0100
0010
0001
0010
0100
,
1000
0010
0100
0001
0100
0010
1000
0010
0100
0001
0100
0010
,
1000
0100
0010
0001
0010
0100
1000
0100
0010
0001
0000
0000
,
1001
0000
0000
0000
0000
0000
1000
0100
0010
0001
0010
0100
,
2000
0000
3010
0100
0001
0010
0200
0000
0310
0001
0100
0010
,
1000
0000
1000
0010
0000
0010
0100
0000
0100
0001
0000
0001
,
2000
0000
3100
0010
0001
0010
0200
0000
0310
0001
1000
0010
,
0100
0000
0100
0001
0000
0001
1000
0000
1000
0100
0000
0100
,
2000
0000
3010
0100
0001
0010
0200
0000
0310
0001
0100
0010
,
1000
0000
1000
0010
0000
0010
0100
0000
0100
0001
0000
0001
,
2000
0000
3100
0010
0001
0010
0200
0000
0310
0001
0000
0000
,
1001
0000
0000
0000
0000
0000
1000
0100
0010
0001
0010
0100
,
2000
0000
3010
0200
0000
0301
0020
0000
0130
0002
0000
0103
,
0010
0000
0010
0001
0000
0001
1000
0000
1000
0010
0000
0100
,
0002
0000
0103
0020
0000
1030
0200
0000
0310
2000
0000
3010
,
0100
0000
0100
1000
0000
1000
0001
0000
0001
0100
0000
0010
,
2000
0000
3010
0200
0000
0301
0020
0000
0130
0002
0000
0103
,
0010
0000
0010
0001
0000
0001
1000
0000
1000
0010
0000
0100
,
0002
0000
0103
0020
0000
1030
0200
0000
0310
2000
0000
3010
,
0100
0000
1001
0000
,
1000
0000
0000
0000
0001
0100
0001
0100
0010
0000
0000
0000
1000
0100
1000
0100
,
0010
0001
0010
0100
1000
0100
0010
0001
0010
0100
1000
0100
,
0010
0000
0000
0000
0001
0100
0001
0100
0010
0000
0000
0000
1000
0100
1000
0100
,
0010
0001
1000
0001
0100
0010
1000
0001
1000
0100
0010
0001
,
1000
0000
0000
0000
0001
0100
0001
0100
0010
0000
0000
0000
1000
0100
1000
0100
,
0010
0001
0010
0100
1000
0100
0010
0001
0010
0100
1000
0100
,
0010
0000
0000
0010
0000
0000
0001
0000
0000
0002
0000
2003
0000
0000
3020
0000
0000
0000
0000
0000
0000
0000
0000
0000
,
0130
0100
0002
2003
3200
0000
0000
0300
,
0010
0000
0000
0010
0000
0000
0001
0000
0000
2000
0000
3020
0000
0000
0230
0000
0000
0000
0000
0000
0000
0000
0000
0000
,
0301
0001
1000
1000
0101
0010
1000
0100
,
0011
0000
0000
0011
0100
1000
0010
0100
,
0101
0000
0000
0000
0101
0010
1000
0100
,
0011
0000
0000
0011
0100
1000
0010
0100
,
0101
1001
0202
0000
,
0313
0000
0000
0000
1010
2002
0000
0000
,
3013
0000
0202
0000
,
0313
0000
0000
0000
1001
0022
0000
0000
,
1033
0000
0000
1001
0000
0000
0001
0100
0010
1000
0100
0010
,
0001
0010
0100
1000
0010
0100
0001
0010
0100
1000
0100
0010
,
0001
0100
0010
1000
0100
0010
0001
0010
0100
1000
0010
0100
,
0001
0010
0100
1000
0100
0010
0001
1000
0010
0100
0001
0010
,
0100
1000
0100
0010
0001
1000
0001
0100
0010
1000
0100
0010
,
0001
0010
0100
1000
0010
0100
0001
0010
0100
1000
0100
0010
,
0001
0100
0010
1000
0100
0010
0001
0010
0100
1000
0010
0100
,
0001
0010
0100
1000
0100
0010
0001
1000
0010
0100
0001
0010
,
0100
1000
0100
0010
0001
1000
0002
0000
0103
0020
0000
1030
,
0200
0000
0310
2000
0000
3010
0100
0000
0100
1000
0000
1000
,
0001
0000
0001
0100
0000
0010
2000
0000
3010
0200
0000
0301
,
0020
0000
0130
0002
0000
0103
0010
0000
0010
0001
0000
0001
,
1000
0000
1000
0010
0000
0100
0002
0000
0103
0020
0000
1030
,
0200
0000
0310
2000
0000
3010
0100
0000
0100
1000
0000
1000
,
0001
0000
0001
0100
0000
0010
2000
0000
3010
0200
0000
0301
,
0020
0000
0000
0000
0000
0000
0000
0000
0130
0000
0000
0000
0002
0000
0000
0000
0000
0000
0000
0000
0103
0000
0000
0000
0010
0000
0000
0000
0000
0000
0000
0000
0000
0000
0000
0000
0000
0000
0000
0000
0000
0000
0001
0000
0000
0010
0000
0000
,
0001
0000
0000
0000
1000
0100
1000
0100
0010
0000
0000
0000
0001
0100
0001
0100
,
0010
1000
0001
0100
0010
1000
0100
0010
0001
0010
0100
1000
,
0001
0000
0000
0000
0100
1000
0100
1000
0010
0000
0000
0000
0100
0001
0100
0001
,
0010
0100
1000
0100
0010
0001
0100
0010
1000
0100
0010
0001
,
1000
0000
0000
0000
0001
0010
0001
0010
0100
0000
0000
0000
1000
0010
1000
0010
,
0100
0001
1000
0010
0100
0001
0010
0100
1000
0100
0010
0001
,
1000
0100
1000
0001
0010
0001
1000
0010
1000
0001
0100
0001
,
1000
0100
0010
0001
0010
0100
1000
0010
0100
0001
0100
0010
,
2002
0000
0000
0000
,
0000
0000
0000
0000
,
0000
0000
0000
0000
,
3003
0000
0000
0000
;
#NOTES:
     dance-single:
     Renard:
     Medium:
     9:
     0.597,0.615,0.386,0.333,0.625:
0000
0000
0000
0000
,
0000
0000
0000
0000
,
0000
0000
0000
0000
,
0000
0000
0000
0000
,
1000
0000
1000
0001
0000
0001
0100
0000
0100
0010
0000
0010
,
1000
0000
1000
0010
0000
0010
0100
0000
0100
0001
0000
0001
,
1000
0000
1000
0100
0000
0100
0010
0000
0010
0001
0000
0001
,
1000
0000
1000
0100
0000
0100
1000
0000
1000
0001
0000
0000
,
1000
0000
1000
0010
0000
0010
0100
0000
0100
0001
0000
0001
,
1000
0000
1000
0100
0000
0100
0010
0000
0010
0001
0000
0001
,
1000
0000
1000
0010
0000
0010
1000
0000
1000
0001
0000
0001
,
0100
0000
0000
0000
0000
0000
0001
1000
0001
1000
0001
1000
,
0001
0000
0001
0100
0000
0000
0010
0000
0010
1000
0000
0000
,
0100
0000
0100
1000
0000
0000
0001
0010
0100
1000
0000
0000
,
0001
0000
0001
1000
0000
0000
0010
0000
0010
1000
0000
0000
,
0100
1000
0001
1000
0000
0000
0001
1000
0001
1000
0000
0000
,
0001
0000
0001
0100
0000
0000
0001
0000
0001
0010
0000
0000
,
0100
0000
0100
1000
0000
0000
0010
1000
0010
1000
0000
0000
,
0100
0000
0100
1000
0000
0000
0001
0000
0001
0010
0000
0000
,
1001
0000
0000
0000
0000
0000
0001
0010
0100
1000
0000
0000
,
2000
0000
3010
0200
0000
0301
0020
0000
0130
0002
0000
0103
,
0010
0000
0000
0001
0000
0001
1000
0000
0000
0010
0000
0100
,
0002
0000
0103
0020
0000
1030
0200
0000
0310
2000
0000
3010
,
0100
0000
0000
1000
0000
1000
0001
0000
0000
0100
0000
0010
,
2000
0000
3010
0200
0000
0301
0020
0000
0130
0002
0000
0103
,
0010
0000
0000
0001
0000
0001
1000
0000
0000
0010
0000
0100
,
0002
0000
0103
0020
0000
1030
0200
0000
0310
2000
0000
3010
,
0100
0000
1001
0000
,
1011
0000
0111
0000
,
1110
0000
1001
0000
,
0111
0000
1110
0000
,
1011
0000
1001
0000
,
1110
0000
0111
0000
,
1011
0000
0101
0000
,
0001
0001
1000
1000
0200
0000
0000
0000
,
0310
0010
0001
0001
2000
0000
0000
0000
,
3010
0010
0100
0100
0002
0000
0000
0000
,
1003
1000
0100
0100
1100
0000
0000
0010
,
0001
0000
0000
0000
0101
0000
0000
0010
,
1000
0000
0000
0000
1100
0000
0000
0010
,
0001
0000
0000
0000
0101
0000
0000
0010
,
1000
0000
1100
0000
,
1001
0000
0000
0000
0101
0101
0000
0000
,
1001
0000
1100
0000
,
1001
0000
0000
0000
0011
0011
0000
0000
,
1001
0000
0000
1010
0000
0000
0010
0000
0010
0100
0000
0100
,
0001
0000
0001
1000
0000
1000
0100
0000
0100
0010
0000
0010
,
0001
0000
0001
0010
0000
0010
0100
0000
0100
1000
0000
1000
,
0001
0000
0001
0100
0000
0100
0010
0000
0010
1000
0000
1000
,
0001
0000
0001
1000
0000
1000
0100
0000
0100
0010
0000
0010
,
0001
0000
0001
0010
0000
0010
0100
0000
0100
1000
0000
1000
,
0010
0000
0010
0100
0000
0100
0001
0000
0001
1000
0000
1000
,
0100
0000
0100
0010
0000
0010
0001
0000
0000
0001
0000
0000
,
1001
0000
0000
0110
0000
0000
2000
0000
3010
0200
0000
0301
,
0020
0000
0130
0002
0000
0103
0010
0000
0000
0001
0000
0001
,
1000
0000
0000
0010
0000
0100
0002
0000
0103
0020
0000
1030
,
0200
0000
0310
2000
0000
3010
0100
0000
0000
1000
0000
1000
,
0001
0000
0000
0100
0000
0010
2000
0000
3010
0200
0000
0301
,
0020
0000
0130
0002
0000
0103
0010
0000
0000
0001
0000
0001
,
1000
0000
0000
0010
0000
0100
0002
0000
0103
0020
0000
1030
,
0200
0000
0310
2000
0000
3010
0100
0000
0000
0000
0000
0000
,
1011
0000
0111
0000
,
1110
0000
1001
0000
,
0111
0000
1110
0000
,
1011
0000
1001
0000
,
1110
0000
0111
0000
,
1011
0000
0101
0000
,
0001
0100
0001
0100
0001
0100
0010
1000
0010
1000
0010
1000
,
0100
1000
0100
1000
0100
1000
0001
1000
0001
1000
0001
2000
,
0002
0000
0000
0000
,
0000
0000
0000
0000
,
0000
0000
0000
0000
,
3003
0000
0000
0000
;
#NOTES:
     dance-single:
     Renard:
     Easy:
     6:
     0.426,0.453,0.638,0.225,0.085:
0000
0000
0000
0000
,
0000
0000
0000
0000
,
0000
0000
0000
0000
,
0000
0000
0000
0000
,
1000
1100
0001
0101
,
1000
0000
0000
1100
0000
0000
0001
0000
0001
1000
0000
0000
,
1000
1100
0001
0101
,
1000
0000
0000
1100
0000
0000
0001
0000
0001
1000
0000
0000
,
1000
1100
0001
0101
,
1000
0000
0000
1100
0000
0000
0001
0000
0001
1000
0000
0000
,
1000
1100
0001
0101
,
1001
0000
0110
0000
,
0001
0000
0000
0100
0000
0000
0010
0000
0000
1000
0000
0010
,
1000
0100
0010
0000
,
0001
0000
0000
0010
0000
0000
0100
0000
0000
1000
0000
0001
,
0100
0000
0000
0010
0000
1000
0010
0000
0000
1000
0000
0000
,
0100
0000
0000
0010
0000
0000
0001
0000
0000
1000
0000
0001
,
1000
0010
0100
0001
,
1000
0000
0000
0100
0000
0000
0010
0000
0000
0001
0000
1000
,
0001
0000
1010
0000
,
0110
0110
0101
0101
,
1001
0000
1000
0100
,
1100
1100
0110
0110
,
0011
0000
1001
0000
,
1000
0000
0000
0100
0000
0000
1000
0000
0000
0010
0000
0010
,
1000
0010
0100
0000
,
0101
0101
0110
0110
,
1010
0000
1001
0000
,
0201
0300
0210
0300
,
1200
0010
0301
0000
,
0201
0300
0210
0300
,
1200
0010
0301
0000
,
0021
0000
0100
0000
,
1000
0100
0031
0000
,
0002
2003
3020
0000
,
2030
3002
0023
0000
,
0032
2003
3020
0000
,
2030
3002
0103
0100
,
0110
0010
1000
0010
,
1010
0010
0200
0301
,
0101
0001
0010
0001
,
0011
0010
0100
1000
,
1100
1000
0010
0100
,
0110
0100
0002
0103
,
0101
0001
1000
0100
,
1001
0000
0000
0000
0000
0000
0001
0000
0000
1000
0000
1000
,
0100
1000
0010
0100
,
0110
0000
0000
0000
0000
0000
0100
0000
0000
0001
0000
0001
,
0010
0001
0100
0010
,
0110
0000
0000
0000
0000
0000
0010
0000
0000
1000
0000
1000
,
0100
1000
0010
0100
,
0101
0000
0000
0000
0000
0000
0001
0000
0000
0010
0000
0010
,
0100
1000
0001
0100
,
0101
0000
0001
0101
,
1000
0000
0000
1100
0000
0000
0001
0000
0001
1000
0000
1000
,
0001
0000
1000
1100
,
0001
0000
0000
0101
0000
0000
1000
0000
1000
0001
0000
0001
,
1000
0000
0001
0011
,
1000
0000
0000
1010
0000
0000
0001
0000
0001
1000
0000
1000
,
0001
0000
1000
1010
,
0011
1010
1001
0000
,
0110
0000
0201
0010
,
1300
0100
0010
0000
,
0120
0000
1000
0000
,
0001
0100
1030
0000
,
1010
0000
0110
0000
,
0201
0010
1300
0000
,
1100
0000
0110
0000
,
0101
0000
1001
0000
,
2002
0000
0000
0000
,
0000
0000
0000
0000
,
0000
0000
0000
0000
,
3003
0000
0000
0000
;
#NOTES:
     dance-single:
     Renard:
     Beginner:
     4:
     0.420,0.485,0.593,0.557,0.000:
0000
0000
0000
0000
,
0000
0000
0000
0000
,
0000
0000
0000
0000
,
0000
0000
0000
0000
,
1000
1100
0001
0101
,
1000
1100
1001
0000
,
0001
0101
1000
1100
,
0001
0101
1001
0000
,
1000
1010
0001
0011
,
1000
1010
1001
0000
,
0001
0011
1000
1010
,
1001
0000
0010
0000
,
2000
3100
2000
3010
,
1001
0000
1010
0000
,
0002
0013
0002
1003
,
1001
0000
0110
0000
,
0010
0100
0200
0301
,
0100
0010
1000
0010
,
0010
0100
0200
0301
,
1001
0000
1010
0000
,
2000
3200
0320
0032
,
1003
1000
0000
0000
,
0002
0023
0230
2300
,
3001
0001
0001
0000
,
2000
3020
0230
0302
,
1003
1000
0000
0000
,
0002
0203
0320
2030
,
3001
0000
1001
0000
,
2000
3100
2000
3100
,
0110
0000
0011
0000
,
0002
0103
0002
0103
,
0110
0000
1010
0000
,
1200
1300
1200
1300
,
1200
0000
0320
0000
,
0032
0000
2003
0000
,
3020
0000
0230
0000
,
0302
0000
2003
0000
,
3020
0000
0130
0000
,
0100
0000
1010
0000
,
0110
0000
0100
0000
,
0010
0000
0101
0000
,
0110
0000
1000
0000
,
0110
0000
0001
0000
,
0110
0000
0100
0000
,
1001
0000
0010
0000
,
1001
0000
1000
0100
,
1100
0100
0010
0001
,
0011
0001
0100
0001
,
0101
0100
0010
1000
,
1010
1000
0100
1000
,
1100
0100
0010
0001
,
0011
0001
0100
0001
,
0101
0100
1010
0100
,
1001
0000
1000
1100
,
0010
0011
2000
3200
,
0320
0032
1003
1100
,
0010
0011
2000
3200
,
0320
0032
0103
0101
,
1000
1010
0002
0203
,
0320
2030
3001
0101
,
1000
1010
1001
0000
,
0110
0000
2000
0000
,
3001
0100
0010
0000
,
2010
0000
3001
0000
,
1200
0010
0310
0000
,
0011
0000
0110
0000
,
1100
0000
1000
0001
,
0220
0330
2002
3003
,
0220
0330
2002
3003
,
0220
0000
0000
0000
,
0000
0000
0000
0000
,
0000
0000
0000
0000
,
0330
0000
0000
0000
;
