#TITLE:Kick it Complex;
#SUBTITLE:;
#ARTIST:Bassnectar;
#TITLETRANSLIT:;
#SUBTITLETRANSLIT:;
#ARTISTTRANSLIT:;
#CRChallenge:;
#BANNER:complex.png;
#BACKGROUND:complex-bg.png;
#LYRICSPATH:;
#CDTITLE:!cdtitle.png;
#MUSIC:complex.ogg;
#OFFSET:0.000;
#SAMPLESTART:43.080;
#SAMPLELENGTH:12.000;
#SELECTABLE:YES;
#BPMS:0.000=100.000;
#STOPS:;
#BGCHANGES:;
#NOTES:
     dance-single:
     Renard:
     Medium:
     9:
     0.511,0.558,0.236,0.036,0.657:
0000
0000
0000
0000
,
0000
0000
0000
0000
,
0000
0000
0000
0000
,
0000
0000
0000
0000
,
2002
0100
0000
0000
,
0000
0000
0000
3003
,
1000
0000
1000
0000
0001
0000
0001
0000
0100
0000
0000
0010
0000
0000
0100
0000
,
0001
0000
0001
0000
1000
0000
1000
0000
0010
0000
0000
0100
0000
0000
0010
0000
,
1000
0000
1000
0000
0001
0000
0001
0000
0100
0010
0000
0000
0100
0000
0000
0010
,
1000
0010
0100
0001
0010
0100
2000
0000
0000
3001
0000
0000
,
1000
0000
0100
0000
0010
0000
0001
0000
1000
0000
0001
0000
0000
1000
0000
0000
,
0001
0010
0001
1000
0100
1000
0001
0100
0001
1000
0010
1000
,
0001
0000
0000
0010
0000
0000
0100
0000
0000
1000
0000
0000
0001
0000
1000
0000
0100
0000
0010
0000
0001
0000
1000
0000
,
0001
0000
0000
0000
0010
0000
0000
0000
0001
0000
0000
0000
1000
0000
0000
0000
0100
0000
0000
0000
1000
0000
0000
0000
0001
0000
0000
0000
0000
0000
1000
0000
0000
0000
0000
0000
0000
0000
0000
0001
0000
0000
0000
0000
0000
0000
0000
0000
,
0100
0000
0001
0000
1000
0000
0010
0000
0100
0010
0000
0000
0100
0000
0000
0100
,
0010
1000
0010
0100
0001
0100
0010
0001
0010
0100
1000
0100
,
0010
0000
0000
1000
0000
0000
0001
0000
0000
0100
0000
0000
0010
0000
0100
0000
0001
0000
1000
0000
0010
0000
0100
0000
,
0010
0000
1000
0000
0010
0000
0100
0000
0001
0000
0100
0000
0010
0000
0000
0100
0000
0000
0010
0000
0000
0100
0000
0000
,
0010
0000
0000
1000
0000
0000
1010
0000
0000
0000
0000
0010
1000
0000
0000
0000
0000
1000
0001
0000
0000
0100
0000
0000
,
0001
0010
0001
0011
0010
0100
1000
0100
1000
1100
0000
0000
,
0001
0000
0000
0010
0000
0000
0011
0000
0000
0000
0000
0001
0010
0000
0000
0000
0000
0010
0100
0000
0000
1000
0000
0000
,
0001
0000
0100
0000
0001
0000
0101
0000
0100
0000
0010
0000
1000
0000
0000
0010
0000
0000
1010
0000
0000
0000
0000
0000
,
0100
0000
0000
0001
0000
0000
0101
0000
0000
0000
0000
0100
0001
0000
0000
0000
0000
0001
1000
0000
0000
0010
0000
0000
,
1000
0100
1000
1100
0100
0010
0001
0010
0001
0011
0000
0000
,
1000
0000
0000
0100
0000
0000
1100
0000
0000
0000
0000
1000
0100
0000
0000
0000
0000
0100
0010
0000
0000
0001
0000
0000
,
1000
0000
0010
0000
1000
0000
1010
0000
0010
0000
0100
0000
0001
0000
0000
0100
0000
0000
0101
0000
0000
0000
0000
0000
,
0001
0000
1000
0100
0000
1000
0001
0000
1000
0000
0000
0001
0010
0000
0001
0000
0000
1000
0100
0000
0000
1000
0000
0001
,
0100
0000
0001
0010
0000
0001
1000
0000
0001
0000
0000
1000
0100
0000
0000
0010
0000
0000
1001
0000
0000
0000
0000
0000
,
0001
0000
0010
0001
0000
0010
0001
0000
0100
0001
0000
1000
0000
0000
1000
0100
0000
1000
0001
0000
1000
0000
0000
0010
,
1000
0000
0000
0100
0000
0010
0000
0000
0001
0010
0000
0000
0100
0000
1000
0001
0000
0000
0010
0000
0000
0100
0000
0000
,
1000
0000
0100
0000
0000
1000
0001
0000
0100
0010
0000
1000
0000
0000
1000
0010
0000
1000
0001
0000
1000
0001
0000
0100
,
0010
0000
1000
0000
0000
0010
0100
0000
0000
0001
0000
0010
0000
0000
0100
1000
0000
0000
0001
0000
0000
0010
0000
0000
,
1000
0000
0100
0010
0000
0001
0010
0000
0100
0000
0000
1000
0100
0000
1000
0000
0000
0010
1000
0000
0000
0001
0000
0100
,
0010
0000
0010
1000
0000
1000
0001
0000
0001
0100
0000
0100
0010
0000
0000
1000
0000
0000
1001
0000
0000
0000
0000
0000
,
1000
0000
0000
0001
0000
0000
1001
0000
0000
0000
0000
0001
0100
0000
0000
0000
0000
0100
0010
0000
0000
1000
0000
0000
,
0100
0000
0000
0010
0000
0000
0011
0000
0000
0000
0000
0010
0100
0000
0000
0000
0000
0100
1000
0000
0000
0001
0000
0100
,
0010
0000
0000
1000
0000
0000
1010
0000
0000
1000
0000
0000
0010
0000
0000
0000
0000
0100
0001
0000
0010
0000
0000
0100
,
0010
0000
0000
0100
0000
0000
1100
0000
0000
0000
0000
0000
0010
0000
0000
0001
0000
0000
1001
0000
0000
0001
0100
0010
,
1000
0000
0000
0100
0000
0000
1100
0000
0000
0000
0000
0000
1000
0000
0000
0000
0000
1000
0001
0000
0000
0100
0000
0000
,
0010
0000
0000
1000
0000
0000
1010
0000
0000
0000
0000
0010
0100
0000
0000
0000
0000
0100
0001
0000
0000
0010
0000
0000
,
0011
0000
0000
0001
0000
0001
1000
0000
0000
0010
0000
0000
1001
0000
0000
0010
0000
0010
0100
0000
0000
0010
0000
0000
,
1001
0000
0000
0000
0100
0000
0000
0000
1010
0000
0000
0000
0100
0000
0000
0000
0001
0100
0001
0000
0100
0000
0010
0000
1000
0000
0100
0000
0010
0000
0001
0000
,
0010
0000
0000
0010
0000
0000
0010
0000
0001
0000
0000
0001
0000
0000
0001
0000
,
1000
0100
0010
0001
0010
0100
1000
0100
0010
0002
0000
0000
,
1003
0000
0000
0000
;
#NOTES:
     dance-single:
     Renard:
     Easy:
     6:
     0.355,0.339,0.517,0.063,0.000:
0000
0000
0000
0000
,
1000
0001
0101
0000
1000
0000
0011
0000
,
1000
0010
0101
0000
1000
0000
0011
0000
,
1000
0001
0101
0000
0010
0000
0000
0000
,
2002
0100
0000
0000
,
0000
0000
0000
3003
,
1000
1000
0001
0001
,
1000
0000
1000
0000
0001
0000
0001
0100
,
1000
0000
1000
0000
0001
0000
0001
0100
,
1000
1000
1000
0010
0001
0000
1001
0000
,
1000
0000
0011
0000
1000
0001
0100
0000
,
1000
0000
1010
0000
0001
2000
3100
0000
,
0011
0000
1010
0000
1000
0001
0100
0000
,
0011
0000
1010
0000
1000
0001
0100
0000
,
1000
0110
0001
0110
,
1000
0010
0100
0001
0010
0100
1000
0010
,
1001
0010
1001
0100
,
1001
0000
0010
0000
2001
3000
0110
0000
,
1000
0010
0110
0000
0001
0000
0110
0000
,
1000
0100
0110
0000
0001
0100
0110
0000
,
2000
3100
0110
0000
0001
0000
0110
0000
,
2000
3100
0110
0000
0001
0000
0110
0000
,
0001
0011
0110
0000
0100
0000
1100
0000
,
1000
1100
0110
0000
0001
0000
0110
0000
,
0001
0011
0110
0000
0100
1000
1100
0000
,
0100
0000
0010
0000
0001
1001
1001
0000
,
0010
0010
1000
1000
,
0100
0100
0001
0001
0010
0010
1000
0000
,
0100
1000
0100
1000
,
0010
0010
0001
0001
0100
0100
1000
1000
,
0100
1100
0001
0001
,
0010
0010
1000
1000
0100
0000
0001
0001
,
0010
0010
1000
1000
,
0100
1000
0101
1000
0101
1000
0110
0000
,
0001
0001
1100
0001
,
0001
0001
1100
0010
,
1010
0000
0001
0000
1010
1000
0011
0000
,
0001
0011
1000
1010
,
0100
1010
0001
0011
,
0100
0101
0100
1100
,
1000
0001
1000
0001
,
0100
0000
0001
0000
2100
3100
1001
0001
,
0100
0100
0010
0010
,
1000
0100
0001
0010
1000
0100
0001
0000
,
1001
0000
0000
0000
;
#NOTES:
     dance-single:
     Renard:
     Beginner:
     2:
     0.158,0.179,0.027,0.000,0.000:
0000
0000
0000
0000
,
0000
0000
0000
0000
,
0000
0000
0000
0000
,
0000
0000
0000
0000
,
0001
0000
0000
0000
,
0000
0000
0000
0000
,
1000
1000
0001
0000
,
0100
0100
0010
0000
,
1000
1000
0001
0000
,
0100
0010
0100
0110
,
0010
0000
1000
1000
,
0001
0000
0100
0000
,
0001
0000
0100
0100
,
0010
0000
1000
0000
,
0100
0000
0010
0010
,
0001
0000
1000
0000
,
0010
0000
0100
0100
,
0001
0000
1000
0010
,
1000
1000
0001
0001
,
0100
0100
0010
1000
,
0010
0000
0010
0000
,
0100
0001
1000
0001
,
0100
0000
0100
0000
,
0010
0010
1000
1000
,
0001
0000
1000
0000
,
0100
0100
0010
0001
,
1000
1000
0100
0100
,
0010
0010
0001
0001
,
1000
1000
0010
0010
,
0100
0100
0001
0001
,
1000
1000
0001
0001
,
0010
0010
0100
0100
,
1000
1000
0100
0100
,
0010
0001
1000
0001
,
0100
0000
0100
0000
,
0010
0000
0010
0000
,
1000
0000
1000
0000
,
1000
0000
0001
0100
,
0010
0000
0010
0000
,
0100
0000
0100
0001
,
1000
0000
1000
0000
,
0100
0010
0001
1000
,
1001
0000
0000
0000
,
0001
0001
1000
0010
,
1001
0000
0000
0000
;
