#TITLE:Kick Some Funk;
#SUBTITLE:;
#ARTIST:Kettu;
#TITLETRANSLIT:;
#SUBTITLETRANSLIT:;
#ARTISTTRANSLIT:;
#CRChallenge:;
#BANNER:funk.png;
#BACKGROUND:funk-bg.png;
#LYRICSPATH:;
#CDTITLE:!cdtitle.png;
#MUSIC:funk.ogg;
#OFFSET:0.000;
#SAMPLESTART:26.363;
#SAMPLELENGTH:12.000;
#SELECTABLE:YES;
#BPMS:0.000=145.000;
#STOPS:;
#BGCHANGES:;
#NOTES:
     dance-single:
     Renard:
     Hard:
     10:
     0.785,0.726,0.156,0.000,0.865:
0000
0000
0000
0000
,
0000
0000
0000
0000
,
0000
0000
0000
0000
,
0000
0000
0000
0000
,
1100
0000
0000
0000
0011
0000
0000
0001
1000
0000
0010
0000
0000
0100
0010
0000
,
0100
0000
0000
0000
0101
0000
0000
0001
1000
0000
1100
0000
0000
0000
1000
0000
,
0001
0000
0000
0000
0011
0000
0000
0010
0100
0000
1100
0000
0000
0000
1000
0000
,
0010
0000
1000
0010
1000
0010
1000
0000
0001
0100
0001
0100
0001
0000
0000
0000
,
1000
0000
0100
0000
0010
0001
0000
0010
0000
0100
0000
1000
0001
0010
0100
0000
,
1000
0000
0001
0000
0100
0010
0000
1000
0000
0010
0000
0100
0001
0100
0010
0000
,
1000
0000
0100
0000
0010
0001
0000
0010
0000
0100
0000
1000
0001
0100
0010
0000
,
1000
0000
0100
0000
1000
0001
0000
0010
0000
0001
0000
1000
0010
1000
0001
0000
,
0100
0000
0001
0000
1000
0100
0000
1000
0000
0001
0000
0010
0001
0010
0001
0000
,
1000
0000
0010
0000
0100
0001
0000
1000
0000
0100
0000
0010
0001
0010
0001
0000
,
0010
0000
0100
0000
1000
0001
0100
0000
0000
0010
0000
1000
0010
1000
0010
0000
,
1000
0000
0100
0000
0010
0001
0000
1000
0000
0100
0000
1000
0001
1000
0001
0000
,
1000
0000
0100
0000
0010
0000
0001
1000
0001
0000
0010
0000
0100
0000
1000
0000
,
0001
0000
1000
0010
1000
0010
1000
0000
0001
0100
0001
0100
0001
0000
1000
0000
,
0100
0000
0010
0000
0001
0000
1000
0001
1000
0000
0001
0000
0010
0000
0100
0000
,
1000
0000
0001
0100
0001
0100
0001
0000
1000
0010
1000
0010
1000
0000
0001
0000
,
0010
0000
0100
0000
1000
0000
0001
1000
0001
0000
1000
0000
0010
0000
0100
0000
,
0001
0000
1000
0100
1000
0100
1000
0000
0001
0010
0001
0010
0001
0000
1000
0000
,
0010
0000
0100
0000
0001
0000
0010
0001
0010
0000
0100
0000
1000
0000
0001
0000
,
0100
0000
0010
0100
0010
0100
0010
0000
1000
0001
1000
0001
1000
0000
0000
0000
,
0001
0000
0100
0001
0100
0001
0100
0001
0100
0000
0010
1000
0010
1000
0010
0000
,
1000
0000
0100
1000
0100
1000
0100
1000
0001
0000
0000
0001
0000
0000
0001
0000
,
1000
0000
0010
0100
0010
0100
0010
0100
0010
0000
1000
0010
1000
0010
1000
0000
,
0001
0000
0100
0001
0100
0001
0100
0001
1000
0000
0000
1000
0000
0000
1000
0000
,
0001
0000
0100
0001
0100
0001
0100
0001
0100
0000
0010
1000
0010
1000
0010
0000
,
1000
0000
0100
1000
0100
1000
0100
1000
0001
0000
0000
0001
0000
0000
0001
0000
,
0010
0000
0100
1000
0100
1000
0100
1000
0100
0000
1000
0001
1000
0001
1000
0000
,
0001
0000
0100
0010
0100
0010
0100
0010
1000
0000
0000
1000
0000
0000
1000
0000
,
0101
0000
0000
0000
1010
0000
0000
0000
1000
0000
0100
0000
0010
0000
0001
0010
,
0001
0000
0010
0000
0100
0000
1000
0000
0001
0010
0000
0100
0000
0000
1000
0000
,
0101
0000
0000
0000
1010
0000
0000
0000
1000
0000
0100
0000
0010
0000
0001
0010
,
0001
0000
0010
0000
0100
0000
1000
0000
0001
0100
0000
0010
0000
0000
1000
0000
,
1010
0000
0000
0000
0101
0000
0000
0000
0001
0000
0010
0000
0100
0000
1000
0010
,
1000
0000
0010
0000
0100
0000
0001
0000
0010
0100
0000
1000
0000
0000
0001
0000
,
1001
0000
0000
0000
0110
0000
0000
0000
0010
0000
1000
0000
0010
0000
0100
0001
,
0100
0000
0001
0000
1000
0000
0100
0000
0010
0001
0000
0010
0001
0000
0010
0001
,
0010
0100
0000
0100
1000
0000
0010
0000
0100
0001
0000
0001
0010
0000
0100
0000
,
1000
0001
0000
0001
0010
0000
0100
0000
1000
0000
0001
0000
0100
0000
0010
0000
,
1000
0010
0000
0010
0100
0000
0001
0000
0010
0100
0000
0100
1000
0000
0001
0000
,
0100
0010
0000
0010
1000
0000
0100
0000
0010
0000
0001
0000
1000
0000
0010
0000
,
0100
0001
0000
0001
0010
0000
0100
0000
1000
0001
0000
0001
0010
0000
0100
0000
,
1000
0010
0000
0010
0100
0000
0001
0000
0010
0000
0100
0000
1000
0000
0010
0000
,
0100
0010
0000
0010
1000
0000
0100
0000
0010
0100
0000
0100
1000
0000
0010
0000
,
1000
0001
0100
0010
1000
0001
1001
0000
,
1000
0000
0001
0100
0001
0100
0001
0100
0001
0000
0100
0000
0010
0000
1000
0000
,
0100
0000
0010
0001
0010
0001
0010
0000
0001
1000
0001
1000
0001
0000
1000
0000
,
0001
0000
0100
0010
0100
0010
0100
0010
0100
0000
0010
0000
1000
0000
0100
0000
,
0010
0000
0001
0010
0001
0010
0001
0000
1000
0100
1000
0100
1000
0000
0001
0000
,
0100
0000
0010
1000
0010
1000
0010
1000
0010
0000
0100
0000
0001
0000
0010
0000
,
0100
0000
1000
0001
1000
0001
1000
0000
0001
0100
0001
0100
0001
0000
0100
0000
,
0010
0000
1000
0100
1000
0100
1000
0100
1000
0000
0001
0000
0010
0000
0100
0000
,
1000
0000
0001
0100
0001
0100
0001
0000
1000
0010
1000
0010
1000
0000
0000
0000
;
#NOTES:
     dance-single:
     Renard:
     Medium:
     9:
     0.619,0.726,0.344,0.219,0.271:
0000
0000
0000
0000
,
0000
0000
0000
0000
,
0000
0000
0000
0000
,
0000
0000
0000
0000
,
1000
0000
0000
0000
0100
0000
0000
0100
1000
0000
0100
0000
0000
0100
0010
0000
,
0001
0000
0000
0000
0010
0000
0000
0010
0001
0000
0010
0000
0000
0010
0001
0000
,
0100
0000
0000
0000
0001
0000
0000
0001
0100
0000
0001
0000
0000
0001
1000
0000
,
0001
0100
0010
1000
0001
1000
1001
0000
,
0001
0000
0100
0000
0010
1000
0000
0010
0000
0000
1000
0000
0100
0000
0010
0000
,
0001
0000
1000
0000
0100
0010
0000
0001
0000
0000
0010
0000
0100
0000
1000
0000
,
0001
0000
0100
0000
0010
1000
0000
0001
0000
0000
0100
0000
0010
0000
1000
0000
,
0100
0000
0010
0000
0001
0010
0000
0100
0000
0000
1000
0000
0001
0000
0100
0000
,
0010
0000
1000
0000
0001
0010
0000
0100
0000
0000
1000
0000
0010
0000
0100
0000
,
0001
0000
1000
0000
0010
0100
0000
0001
0000
0000
0100
0000
0010
0000
1000
0000
,
0100
0000
0010
0001
0010
0000
0000
0001
0000
0000
0010
0000
0100
0000
0000
0000
,
1000
0000
0001
0000
0100
0000
0000
0010
0000
1000
0000
0000
0100
0000
0010
0000
,
0001
0001
0010
0010
0100
0100
1000
1000
,
0001
0000
1000
0010
1000
0000
0001
0000
0100
0001
0100
0000
0001
0000
0010
0000
,
0100
0100
1000
1000
0010
0010
0100
0100
,
0001
0000
1000
0100
1000
0000
0001
0000
0100
0001
0100
0000
0001
0000
0010
0000
,
0100
0100
1000
1000
0001
0001
0010
0010
,
0001
0000
1000
0010
1000
0000
0001
0000
0100
0001
0100
0000
0001
0000
0010
0000
,
0100
0100
1000
1000
0001
0001
0010
0010
,
0001
0000
1000
0001
1000
0000
0010
0000
0000
0100
0010
0000
0100
0000
0000
0000
,
0010
0000
0000
0000
1010
0000
0000
0010
1000
0000
0100
0000
0010
0000
0000
0000
,
0001
0000
0000
0000
0011
0000
0000
0001
0010
0000
0100
0000
1000
0000
0000
0000
,
0001
0000
0000
0000
0101
0000
0000
0100
0010
0000
1000
0000
0100
0000
0010
0000
,
0110
0000
0011
0000
0011
0110
0000
0100
,
1000
0000
0000
0000
0010
0000
0000
0010
0100
0000
0001
0000
0100
0000
0010
0000
,
1000
0000
0000
0000
0010
0000
0000
0010
1000
0000
0100
0000
0010
0000
0001
0000
,
1000
0000
0000
0000
0100
0000
0000
0100
1000
0000
0001
0000
0010
0000
0100
0000
,
1000
0100
0011
0000
0100
1000
0011
0000
,
2200
0000
3311
0000
1000
0010
0100
0000
,
0202
0000
1313
0202
0000
1010
1313
0000
,
0202
0000
1313
0000
0001
0010
0100
0000
,
2200
0000
3311
2200
0000
0011
3311
0000
,
2200
0000
3311
0000
1000
0010
0100
0000
,
0202
0000
1313
0202
0000
1010
1313
0000
,
0202
0000
1313
0000
0001
0010
0100
0000
,
1000
0100
1000
0010
2000
0000
3001
0000
,
0001
0000
0000
0001
1000
0000
0000
0000
0010
0000
0000
0010
0100
0000
0000
0000
,
0001
0000
0000
0001
1000
0000
0000
0000
0000
0000
0100
0000
0010
0000
0000
0000
,
0001
0000
0000
0001
1000
0000
0000
0000
0010
0000
0000
0010
1000
0000
0000
0000
,
0100
0000
0000
0100
1000
0000
0000
0000
0000
0000
0001
0000
0010
0000
0000
0000
,
0001
0000
0000
0001
0100
0000
0000
0000
0001
0000
0000
0001
0010
0000
0000
0000
,
0001
0000
0000
0001
1000
0000
0000
0000
0000
0000
0001
0000
0010
0000
0000
0000
,
0100
0000
0000
0100
1000
0000
0000
0000
0010
0000
0000
0010
0100
0000
0000
0000
,
0001
0000
0000
0001
0010
0000
0000
0000
0001
0000
0010
0000
0100
0000
1000
0000
,
0001
1000
0100
0010
0001
1000
0001
0100
,
0010
0000
1000
0010
1000
0000
0010
0000
1000
0000
0001
0000
1000
0000
0000
0000
,
0001
0010
0100
1000
0100
0010
0001
0100
,
0010
0000
1000
0001
1000
0000
0001
0000
0010
0000
0100
0000
1000
0000
0000
0000
,
0001
0010
0001
0010
0100
1000
0001
0100
,
0010
0000
1000
0010
1000
0000
0010
0000
0100
0000
0001
0000
0010
0000
0000
0000
,
0100
1000
0001
0010
0100
1000
0001
0100
,
0001
0000
0010
0001
0010
0000
0001
0000
0010
0000
0100
0000
1000
0000
0000
0000
;
#NOTES:
     dance-single:
     Renard:
     Easy:
     5:
     0.360,0.349,0.000,0.000,0.000:
0000
0000
0000
0000
,
0000
0000
0000
0000
,
0000
0000
0000
0000
,
0000
0000
0000
0000
,
1000
0000
0001
0000
0100
0001
0000
0000
,
0001
0000
1000
0000
0100
1000
0000
0000
,
0001
0000
1000
0000
0010
1000
0000
0000
,
1000
0001
1000
0001
,
1000
0000
0100
0000
1000
0100
1000
0000
,
0001
0000
1000
0000
0001
1000
0001
0000
,
0100
0000
0001
0000
0100
0001
0100
0000
,
0001
1000
0001
1000
,
0001
0000
0100
0000
0001
0100
0001
0000
,
1000
0000
0001
0000
1000
0001
1000
0000
,
0100
0000
1000
0000
0100
1000
0100
0000
,
1000
1000
0001
0001
,
1000
0010
0100
0100
,
0010
0000
0100
0010
0100
0010
0100
0000
,
0001
0100
0001
0010
,
0010
0000
0100
0000
0010
0100
0010
0000
,
0100
1000
0100
0100
,
1000
0000
0010
0100
0010
0100
0010
0000
,
0100
0001
0100
0001
,
0001
0000
0010
0100
0010
0100
0010
0000
,
0100
0100
1000
1000
,
0001
0000
0001
0000
1000
0001
1000
0000
,
0001
0001
0100
0100
,
0010
0000
0010
0000
1000
0001
1000
0000
,
0010
0010
0100
0100
,
0001
0000
0001
0000
1000
0100
1000
0000
,
0001
0001
1000
1000
,
0010
0000
0010
0000
1000
0001
1000
0000
,
0001
0001
1000
1000
,
0001
0100
0001
0100
0001
0100
0001
0000
,
1000
1000
0001
0001
,
1000
0100
1000
0100
1000
0100
1000
0000
,
0001
0001
1000
1000
,
0001
0010
0001
0010
0001
0010
0001
0000
,
1000
1000
0001
0001
,
1000
0010
1000
0010
1000
0000
1000
0000
,
0010
0010
0100
0100
,
0010
0000
0010
0000
0000
1000
0001
0000
,
0100
0100
0010
0010
,
0100
0000
0100
0000
0000
0001
1000
0000
,
0010
0010
0100
0100
,
0010
0000
0010
0000
0000
1000
0001
0000
,
0100
0100
0010
0010
,
0100
0000
0100
0000
0000
0001
1000
0000
,
0100
0010
0001
1000
,
0100
1000
0100
1000
0000
0100
1000
0000
,
0001
0001
1000
1000
,
0010
0000
0100
0001
0000
0100
0001
0000
,
1000
1000
0001
0001
,
0100
0000
0001
0100
0000
0001
0100
0000
,
0001
0001
1000
1000
,
0100
1000
0100
1000
0000
0100
1000
0000
;
#NOTES:
     dance-single:
     Renard:
     Beginner:
     3:
     0.275,0.291,0.125,0.010,0.000:
0000
0000
0000
0000
,
0000
0000
0000
0000
,
0000
0000
0000
0000
,
0000
0000
0000
0000
,
1000
0000
1000
0000
,
0001
0000
0001
0000
,
0100
0000
0100
0000
,
0010
0010
0010
0000
,
1000
0000
1000
0010
,
1000
0000
1000
0010
,
1000
0000
1000
0010
,
0100
0000
0100
0001
,
0010
0000
0010
0001
,
0010
0000
0010
0001
,
1000
0000
1000
0100
,
2000
0000
0000
0000
,
3001
1000
0001
1000
,
1000
0001
1000
0000
,
0001
1000
0001
1000
,
1000
0001
1000
0000
,
1000
0001
1000
0001
,
0001
1000
0001
0000
,
1000
0001
1000
0001
,
0001
1000
0001
0000
,
0100
0001
0100
0001
,
0100
0001
1000
1000
,
0001
0100
0001
0100
,
0001
0100
0010
0010
,
0100
0001
0100
0001
,
0100
0001
1000
1000
,
0001
0100
0001
0100
,
0001
0100
0010
0010
,
0100
0001
0100
0001
,
1000
0001
1000
0000
,
0001
0100
0001
0100
,
0001
1000
0001
0000
,
1000
0100
1000
0100
,
1000
0001
1000
0000
,
0100
1000
0100
1000
,
0001
1000
0001
0000
,
1000
1100
1000
1100
,
1000
1100
0000
0000
,
0010
0011
0010
0011
,
0010
0011
0000
0000
,
0100
0101
0100
0101
,
0100
0101
0000
0000
,
1000
1010
1000
1010
,
1000
1010
0000
0000
,
1000
0010
1000
0010
,
0010
1000
0010
0000
,
0100
0001
0100
0001
,
0001
0100
0001
0000
,
1000
0001
1000
0001
,
0001
1000
0001
0000
,
1000
0010
1000
0001
,
0100
0001
1000
0100
;
