#TITLE:Jump;
#SUBTITLE:;
#ARTIST:TC feat. Distorted Minds;
#TITLETRANSLIT:;
#SUBTITLETRANSLIT:;
#ARTISTTRANSLIT:;
#CRChallenge:;
#BANNER:jump.jpg;
#BACKGROUND:jump-bg.jpg;
#LYRICSPATH:;
#CDTITLE:!cdtitle.png;
#MUSIC:jump.ogg;
#OFFSET:0.000;
#SAMPLESTART:11.096;
#SAMPLELENGTH:12.000;
#SELECTABLE:YES;
#DISPLAYBPM:173.000;
#BPMS:0.000=172.725,208.000=769.339,209.000=172.731,270.000=43.183,271.750=86.366;
#STOPS:28.000=1.042
,149.000=2.084
,207.000=1.042
,208.000=0.955
;
#BGCHANGES:;
#NOTES:
     dance-single:
     Renard:
     Medium:
     9:
     0.531,0.815,0.796,0.451,0.197:
0000
0000
0000
0000
,
0000
0000
0000
0000
,
0000
0000
0000
0000
,
0000
0000
0000
0000
,
0000
0000
0000
0000
,
0000
0000
0000
0000
,
0000
0000
0000
0000
,
0000
1MM1
MMMM
M11M
,
MMMM
1MM1
MMMM
M11M
,
MMMM
1M1M
MMMM
M1M1
,
MMMM
MM11
MMMM
11MM
,
MMMM
1111
MMMM
1111
,
MMMM
1111
MMMM
1111
,
MMMM
0000
0000
0000
1MM0
0000
0MM0
1000
0MM1
0000
0MM0
0001
1MM0
0000
0MM0
1000
,
0MM1
0000
0MM0
0001
0100
0000
M00M
0100
M01M
0000
M00M
0010
M10M
0000
M00M
0100
,
M01M
1MM1
MMMM
M11M
,
MMMM
1MM1
MMMM
M11M
,
MMMM
M1M1
MMMM
1M1M
,
MMMM
11MM
MMMM
MM11
,
MMMM
1111
MMMM
1111
,
MMMM
1111
MMMM
1111
,
MMMM
0000
0000
0000
00M1
10M0
00M1
10M0
0M01
1M00
0M01
1M00
00M1
10M0
00M1
10M0
,
0M01
1M00
0M01
1M00
00M1
10M0
0M01
1M00
00M1
10M0
0M01
1M00
00M1
1M00
00M1
1M00
,
00M1
0012
1000
0100
,
0103
2010
0001
0100
,
3100
0200
0320
0032
,
0023
0230
0320
0032
,
0013
0210
0010
1000
,
1300
0210
0010
0001
,
0301
0000
0101
0000
1100
0000
1000
0010
,
0001
0000
0011
0000
1010
0000
1000
0100
,
0001
2100
0001
0010
,
3010
0102
1000
0010
,
0013
0020
0230
2300
,
3200
0320
0230
2300
,
3100
0120
0100
0001
,
0031
0120
0100
1000
,
1030
2020
3000
0001
,
0001
0100
0100
1000
,
0100
0001
0031
0200
,
0000
0010
0000
0000
,
0000
0000
0000
0320
,
0100
0100
1000
1000
,
0001
0100
1030
2000
,
0000
0100
0000
0000
,
0000
0000
0000
3001
0000
0000
0000
0000
0000
M11M
M00M
MMMM
,
M00M
MMMM
M00M
M11M
M00M
MMMM
M00M
MMMM
M00M
M11M
M00M
MMMM
,
M00M
MMMM
M00M
M11M
M00M
MMMM
M00M
MMMM
M00M
M11M
M00M
MMMM
,
M00M
MMMM
M00M
M11M
0000
0000
0000
0000
0000
0000
0000
0000
,
0000
0000
0000
1001
,
1001
0000
1001
0000
1001
0000
1001
1001
,
1001
1001
1001
1001
1001
1001
2002
0000
,
0010
3003
1000
0101
,
0001
0010
0100
0000
1000
0000
0011
0000
,
0100
0000
1000
0000
0010
0000
0000
0000
0120
0000
0000
0030
0120
0000
0000
0030
,
0210
0000
0000
0300
0210
0000
0000
0300
0120
0000
0000
0030
0120
0000
0000
0030
,
0210
0000
0000
0300
0210
0000
0000
0300
1000
0000
0000
0000
0101
0000
0000
0000
,
0001
0010
0100
0000
1000
0000
0011
0000
,
0100
1000
0010
0000
0100
0000
1001
0000
,
0001
0010
0100
0000
0010
0000
0001
1000
,
0000
0001
0100
0100
0001
0000
1010
0000
,
1000
0100
0010
0000
0001
0000
1100
0000
,
0010
0000
0001
0000
0100
0000
0000
0000
0210
0000
0000
0300
0210
0000
0000
0300
,
0120
0000
0000
0030
0120
0000
0000
0030
0210
0000
0000
0300
0210
0000
0000
0300
,
0120
0000
0000
0030
0120
0000
0000
0030
0001
0000
0000
0000
1010
0000
0000
0000
,
1000
0100
0010
0000
0001
0000
1100
0000
,
0010
0001
0100
0000
0010
0000
1001
0000
,
1000
0000
0100
0000
0010
0000
0000
0000
2002
0000
0000
0000
0000
0000
0000
3003
;
#NOTES:
     dance-single:
     Renard:
     Easy:
     6:
     0.344,0.392,0.537,0.019,0.000:
0000
0000
0000
0000
,
0000
0000
0000
0000
,
0000
0000
0000
0000
,
0000
0000
0000
0000
,
0000
0000
0000
0000
,
0000
0000
0000
0000
,
0000
0000
0000
0000
,
0000
1010
0000
0101
,
0000
0011
0000
1100
,
0000
0011
0000
0101
,
0000
1010
0000
1100
,
0000
0011
0000
1100
,
0000
1010
0000
0101
,
0000
0011
0000
1100
,
0000
0101
0000
1010
,
0000
0011
0000
1100
,
0000
1010
0000
0101
,
0000
0011
0000
1100
,
0000
1010
0000
0101
,
0000
1001
0000
0110
,
0000
1010
0000
0101
,
0000
0011
0000
1100
,
0000
1000
1000
1000
,
0001
0110
0010
1000
,
1000
0010
0010
1000
,
1000
0000
0010
0100
0010
0000
0100
0010
,
0100
0000
0010
0100
0010
0000
0100
0010
,
0100
0001
0001
1000
,
1000
0100
0100
0010
,
0010
0000
0001
0000
0001
0000
0010
0001
,
0010
0000
0100
0000
0100
0000
1000
0100
,
1000
0010
0010
1000
,
1000
0010
0010
1000
,
1000
0000
0001
0100
0001
0000
0100
0001
,
0100
0000
0001
0100
0001
0000
0100
0001
,
0100
0001
0001
1000
,
1000
0100
0100
0010
,
0010
0001
0000
1001
,
0000
1001
0000
1001
,
0000
1001
0000
1001
,
0000
1001
0000
0000
,
0000
0000
0000
0110
,
0000
0110
0000
0110
,
0000
0110
0000
0110
,
0000
0110
0000
0000
,
0000
0000
0000
1001
,
0000
0110
0000
1001
,
0000
0110
0000
1001
,
0000
0110
0000
0000
,
0000
0000
0000
1001
,
0000
0110
0000
1001
,
0000
0110
0000
1001
,
1001
M00M
0000
0000
1000
0000
1000
0000
,
0100
0100
0010
0010
,
0001
0001
1000
0100
,
0010
0001
1000
0100
,
0010
0001
1000
1000
,
0010
0100
0001
0001
,
0100
0010
1000
0100
,
0010
0001
0010
0000
0001
0000
0010
0000
,
0100
1000
0100
0000
1000
0000
1000
0000
,
0001
0001
0100
0100
,
0010
0000
0010
0000
1000
0001
1000
0000
,
0001
1000
0001
0000
1000
0001
1000
0000
,
0001
1000
0001
0000
0100
0000
0010
0000
,
1000
0100
0010
0001
,
1000
0100
0010
0001
,
1000
0001
0100
0000
0220
0000
0000
0000
,
0330
0000
0000
0000
;
#NOTES:
     dance-single:
     pyroko:
     Beginner:
     2:
     0.217,0.294,0.125,0.230,0.000:
0000
0000
0000
0000
,
0000
0000
0000
0000
,
0000
0000
0000
0000
,
0000
0000
0000
0000
,
0000
0000
0000
0000
,
0000
0000
0000
0000
,
0000
0000
0000
0000
,
0000
1000
0000
0100
,
0000
0010
0000
0100
,
0000
1000
0000
0001
,
0000
0100
0000
0001
,
0000
1001
0000
1001
,
0000
0110
0000
0110
,
0000
1000
0000
0100
,
0000
0010
0000
0100
,
0000
1001
0000
0001
,
0000
0100
0000
0010
,
0000
0110
0000
0010
,
0000
1000
0000
0100
,
0000
0110
0000
0110
,
0000
1001
0000
1001
,
0000
0001
0001
0100
,
0100
0010
0010
1000
,
1000
0200
0000
0320
,
0000
0032
0000
2003
,
0000
3010
0010
0100
,
0000
0001
0001
0010
,
0000
0200
0000
2300
,
0000
3020
0000
0230
,
0000
0301
0001
0010
,
0000
0100
0100
1000
,
0000
0020
0000
0000
,
0000
0230
0000
0000
,
0000
0301
0001
0010
,
0000
0100
0100
1000
,
0000
0020
0000
0000
,
0000
0230
0000
0000
,
0000
0301
0000
0020
,
0000
0000
0000
0000
,
0000
0000
0000
0230
,
0000
0000
0000
0000
,
0000
0000
0300
2002
,
0000
0000
0000
0000
,
0000
0000
3003
0220
,
0000
0000
0000
0000
,
0000
0000
0330
1000
,
0000
0100
0000
0010
,
0000
0100
0000
0010
,
0000
0001
0000
0000
,
0000
0000
0000
1000
,
1000
0001
0001
0100
,
0100
0010
0010
0110
,
0000
0000
0100
0010
,
0100
0000
0001
1000
,
0001
0000
0020
0000
,
0000
0000
0230
0000
,
0000
0300
1000
0100
,
1000
0000
0010
0100
,
0010
0000
0200
0000
,
0300
0000
0001
0000
,
0010
0100
1000
0000
,
0100
0000
0010
0100
,
0010
0001
2000
0000
,
0000
0000
3020
0000
,
0000
0000
0130
0001
,
0010
0000
0001
0010
,
0001
0000
0010
0000
,
0100
0000
2000
0000
,
3000
0000
0000
0000
;
