#TITLE:Jetpack Cutie;
#SUBTITLE:;
#ARTIST:Kitsune?;
#TITLETRANSLIT:;
#SUBTITLETRANSLIT:;
#ARTISTTRANSLIT:;
#CRChallenge:;
#BANNER:cutie.png;
#BACKGROUND:cutie-bg.png;
#LYRICSPATH:;
#CDTITLE:;
#MUSIC:cutie.ogg;
#OFFSET:0.000;
#SAMPLESTART:33.862;
#SAMPLELENGTH:12.000;
#SELECTABLE:YES;
#BPMS:0.000=170.000;
#STOPS:;
#BGCHANGES:;
#NOTES:
     dance-single:
     Renard:
     Medium:
     9:
     0.621,0.618,0.483,0.000,0.284:
0000
0000
0000
0000
,
0000
0000
0000
0000
,
0000
0000
0000
0000
,
0000
0000
0000
0000
,
1000
0000
0000
1000
0001
0000
0100
0000
0000
0000
0010
0000
1000
0000
0000
0000
,
0100
0000
0110
0000
0010
0001
1000
0000
,
0001
0000
0000
0001
0100
0000
0010
0000
0000
0000
1000
0000
0100
0000
0000
0000
,
1000
1001
0100
0110
,
1000
0000
1001
0000
0001
0100
0010
1000
,
0000
1001
0000
1100
0000
0110
0000
0010
,
0001
0000
1001
0000
0001
0100
0010
1000
,
0000
0000
1010
0000
0000
0000
1000
0000
0001
0000
0100
0001
0100
0000
0001
0000
,
1000
0000
1100
0000
0010
0001
1000
0001
,
0000
0101
0000
1001
0000
1100
0000
1000
,
0001
0000
0110
0000
0010
1000
0100
0010
,
0000
0000
0011
0000
0000
0000
0010
0000
0100
0000
1000
0001
1000
0000
0001
0000
,
0100
0000
0110
0000
0010
1000
0100
0010
,
0000
1001
0000
0110
0000
0010
1000
0001
,
0100
0000
0110
0000
0010
1000
0100
0010
,
0000
0000
0011
0000
0000
0000
0100
0000
0000
0000
1000
0001
1000
0000
0001
0000
,
0100
0000
0110
0000
0010
1000
0100
0010
,
0000
0011
0000
0110
0000
0100
1000
0001
,
0100
0000
0110
0000
0010
1000
0100
0010
,
0000
0000
0011
0000
0000
0000
0110
0000
0000
0000
0100
1000
0100
0000
1000
0000
,
0001
0000
0000
0000
0100
0000
0000
0100
0010
0000
1000
0000
0100
0000
0010
0000
,
0000
0011
0000
0110
,
0100
0000
0000
0000
1000
0000
0000
0010
0100
0000
0001
0000
0100
0000
0010
0000
,
0000
1001
0000
0110
0000
0010
1000
0100
,
0010
0000
0000
0000
0001
0000
0000
0001
0010
0000
0100
0000
1000
0000
0010
0000
,
0000
0100
0001
0000
0100
0010
1000
0000
,
0100
0000
0000
0100
1000
0000
0000
0000
0001
0000
0010
0000
0001
0000
1000
0000
,
0000
0000
0010
0000
0100
0000
0000
0001
0100
0000
0010
0000
1000
0000
0100
0000
,
0010
0000
0000
0000
0011
0000
0000
0001
0010
0000
0100
0000
1000
0000
0000
0000
,
0001
0000
0000
0000
0110
0000
0000
0010
1000
0000
0001
0000
0100
0000
0010
0000
,
1000
0000
0000
0000
1100
0000
0000
1000
0001
0000
0010
0000
0100
0000
1000
0000
,
0000
0101
0000
1010
0000
1000
0100
0010
,
0001
0000
0000
0000
0010
0000
0000
0010
0100
0000
1000
0000
0010
0000
0100
0000
,
0000
0101
0000
0110
0000
0010
1000
0100
,
0010
0000
0000
0000
0011
0000
0000
0010
0100
0000
1000
0000
0001
0000
0100
0000
,
0010
0000
1000
0000
0000
0000
0001
0000
0100
0000
0001
0000
1000
0001
1000
0001
,
1000
0000
0000
0000
1000
0000
0000
0001
0000
0000
0100
0000
0000
0000
0010
0000
,
1000
0000
0000
0000
0100
0000
0000
0010
0000
0001
0000
0000
0010
0000
0100
0000
,
1000
0000
0000
0000
0001
0000
0000
0000
0100
0000
0000
0010
0000
1000
0010
0100
,
0000
0000
0100
0000
0001
0100
0010
1000
,
0001
0000
0000
0000
0001
0000
0000
1000
0000
0000
0010
0000
0000
0000
0100
0000
,
0001
0000
0000
0000
0010
0000
0000
0100
0000
1000
0000
0000
0100
0000
0010
0000
,
0001
0000
0000
0000
1000
0000
0000
0000
0010
0000
0000
0100
0000
0001
0100
0010
,
0000
0000
0010
0000
1000
0010
0100
0001
,
0100
0000
0000
0000
0110
0000
0000
1010
0000
0000
1001
0000
0000
0000
1000
0000
,
0100
0000
0000
0000
0110
0000
0000
0010
0000
0001
0000
0000
0010
0000
0100
0000
,
1000
0000
0000
0000
0001
0000
0000
0000
0100
0000
0000
0010
0000
1000
0010
0100
,
0000
0000
0001
0000
0010
0100
1000
0001
,
0100
0000
0000
0000
0110
0000
0000
0010
0000
0000
1000
0000
0000
0000
1001
0000
,
1001
0000
0000
0000
1000
0000
0000
0100
0000
0010
0000
0000
0001
0010
0100
0000
,
1000
0000
0000
0000
0001
0000
0000
0000
0100
0010
0000
1000
0000
0010
1000
0010
,
0000
0000
1000
0000
0100
0010
0001
0010
,
0100
0000
0000
0000
1000
0000
0000
1000
0001
0000
0100
0000
0010
0000
0000
0000
,
1000
0000
0000
0000
0100
0000
0000
0100
1000
0000
0001
0000
0010
0000
0000
0000
,
0100
0000
0000
0000
1000
0000
0000
1000
0001
0000
0100
0000
0010
0000
0000
0000
,
1000
0000
0000
0000
0001
0000
0000
0100
0010
0000
1000
0000
0100
0000
0000
0000
,
1000
0000
0000
0000
0001
0000
0000
0010
0001
0000
1000
0000
0010
0000
0000
0000
,
0100
0000
0000
0000
0001
0000
0000
1000
0010
0000
1000
0000
0001
0000
0000
0000
,
0100
0000
0000
0000
0001
0000
0000
1000
0100
0000
0010
0000
0001
0000
1000
0000
,
0010
0000
0100
0000
0001
0000
0100
0000
0010
0000
1000
0000
0100
1000
0100
1000
;
#NOTES:
     dance-single:
     Renard:
     Easy:
     6:
     0.357,0.446,0.054,0.011,0.000:
0000
0000
0000
0000
,
0000
0000
0000
0000
,
0000
0000
0000
0000
,
0000
0000
0000
0000
,
1000
0000
1001
0000
0001
0100
0010
0000
,
1000
0000
1001
0000
0001
0100
0010
0000
,
1000
0000
1001
0000
0001
0100
0010
0000
,
1000
1001
0100
0110
,
0010
0000
0100
0000
0001
0000
1000
0100
,
0000
0010
0000
0001
0000
1000
0000
0000
,
0001
0000
0100
0000
0010
0000
1000
0010
,
0000
0100
0000
0001
0000
1000
0100
1000
,
0001
0000
0010
0000
0001
0000
1000
0001
,
0000
0100
0000
0010
0000
1000
0000
0000
,
0010
0000
0100
0000
0001
0000
0000
1000
,
0000
0100
0000
0010
0000
0001
1000
0001
,
0100
0000
0010
0000
1000
0000
0001
0100
,
0000
0001
0000
1000
0000
0000
0100
0000
,
0010
0000
0001
0000
1000
0001
0000
0100
,
0000
0010
0000
1000
0000
0010
1000
0000
,
0001
0000
0100
0000
0001
0000
1000
0100
,
0000
0010
0000
0001
0000
0000
1000
0000
,
0010
0000
0100
0000
0001
1000
0000
0100
,
0000
0010
0000
0001
0000
1000
0010
1000
,
0001
0000
0100
0000
0001
0000
1000
0100
,
0000
0010
0000
0001
,
1000
0000
0001
0000
0100
0000
0000
0001
,
0000
1000
0000
0100
0000
0000
0000
0000
,
0010
0000
0001
0000
1000
0000
0010
0100
,
0000
0000
0000
0000
,
0001
0000
1000
0000
0100
0000
0000
0010
,
0000
0000
0001
1000
,
0001
0000
0100
0000
0010
0000
0000
1000
,
0000
0010
0100
0001
,
1000
0000
0100
0000
0010
0000
0000
0001
,
0000
0010
0000
0100
0000
0000
0000
0000
,
1000
0000
0010
0000
0100
0000
0001
0100
,
0000
0000
0000
0000
,
0010
0000
1000
0000
0010
0000
0000
0100
,
0000
0000
0001
1000
,
0001
0100
0001
0000
,
1000
0100
1000
0000
,
0001
0010
0001
0000
,
1000
0000
0010
0000
1000
0010
1000
0000
,
0001
0100
0001
0000
,
1000
0100
1000
0000
,
0001
0010
0001
0000
,
1000
0000
0010
0000
1000
0010
1000
0000
,
0001
0000
1000
0000
0001
1000
0001
0000
,
0100
0010
1000
0100
,
0010
0001
1000
0001
,
0100
0000
0010
0000
1000
0001
1000
0000
,
0001
0000
0010
0000
0100
0000
1000
0001
,
1000
0001
0100
0010
,
1000
0100
0010
0001
,
1000
0000
0001
0000
0100
0001
0100
0000
,
0001
0000
1000
0000
0100
0000
0010
0001
,
0000
0000
0000
0000
,
0010
0000
0100
0000
1000
0000
0001
1000
,
0000
0001
0000
1000
0000
0000
0000
0000
,
0001
0000
0100
0000
0010
0000
1000
0100
,
0000
0000
0000
0000
,
0010
0000
0001
0000
1000
0000
0010
0200
,
0000
0000
0001
0000
0010
0000
0310
0010
;
#NOTES:
     dance-single:
     Renard:
     Beginner:
     3:
     0.239,0.240,0.000,0.011,0.000:
0000
0000
0000
0000
,
0000
0000
0000
0000
,
0000
0000
0000
0000
,
0000
0000
0000
0000
,
1000
0001
1000
0001
,
0100
0000
0100
0000
,
0001
1000
0001
1000
,
0010
0000
0010
0000
,
1000
0000
0001
0000
1000
0000
0000
0001
,
0000
0000
0100
0000
,
0010
0000
1000
0000
0001
0000
0000
1000
,
0000
0000
0001
0000
,
0100
0000
0010
0000
1000
0000
0000
0001
,
0000
0000
1000
0000
,
0100
0000
0010
0000
0001
0000
0000
1000
,
0000
0000
0001
0000
,
0010
0000
0100
0000
1000
0000
0000
0001
,
0000
0000
0100
0010
,
1000
0000
0001
0000
1000
0000
0000
0100
,
0000
0000
0010
0001
,
1000
0000
0010
0000
0100
0000
0000
0001
,
0000
0000
1000
0100
,
0010
0000
0001
0000
1000
0000
0000
0001
,
0000
0000
0010
0100
,
1000
0000
0001
0000
1000
0000
0000
0001
,
0000
0000
0000
0000
,
0100
0000
0010
0000
1000
0000
0000
0001
,
0000
0010
0000
0100
0000
0000
0000
0000
,
1000
0000
0001
0000
0100
0000
0000
0020
,
0000
0000
0000
0000
,
1030
0000
0010
0000
0100
0000
0000
0001
,
0000
0000
0000
1000
,
0100
0000
0010
0000
0001
0000
0000
1000
,
0000
0000
0000
0000
,
0001
0000
0010
0000
0100
0000
0000
1000
,
0000
0001
0000
0100
0000
0000
0000
0000
,
0001
0000
1000
0000
0001
0000
0000
0100
,
0000
0000
0000
0000
,
0010
0000
1000
0000
0010
0000
0000
0100
,
0000
0000
0001
1000
,
0100
0000
0100
0000
,
0010
0010
0010
0000
,
0001
0000
0001
0000
,
1000
1000
1000
0000
,
0010
0000
0010
0000
,
0100
0100
0100
0000
,
0001
0000
0001
0000
,
1000
1000
1000
0000
,
0100
0000
0100
0000
,
0010
0010
0010
0000
,
0001
0000
0001
0000
,
1000
1000
1000
0000
,
0001
0000
0001
0000
,
0100
0100
0100
0000
,
0010
0000
0010
0000
,
1000
1000
0010
1000
,
0001
0000
0000
0000
0100
0000
0000
0001
,
0000
0000
1000
0100
,
0010
0000
0000
0000
0001
0000
0000
1000
,
0000
0001
0000
0100
0000
0000
0000
0000
,
0001
0000
0000
0000
1000
0000
0000
0100
,
0000
0000
0000
0000
,
0010
0000
0001
0000
1000
0000
0000
0001
,
0000
0000
1000
0001
;
