#TITLE:Jaianizumu Shika;
#SUBTITLE:;
#ARTIST:Nightmare;
#TITLETRANSLIT:;
#SUBTITLETRANSLIT:;
#ARTISTTRANSLIT:;
#CRChallenge:;
#BANNER:shika.png;
#BACKGROUND:shika-bg.png;
#LYRICSPATH:;
#CDTITLE:;
#MUSIC:shika.ogg;
#OFFSET:0.000;
#SAMPLESTART:71.103;
#SAMPLELENGTH:12.000;
#SELECTABLE:YES;
#BPMS:0.000=86.000,10.000=172.000,272.000=86.000,282.000=172.000;
#STOPS:;
#BGCHANGES:;
#NOTES:
     dance-single:
     Renard:
     Medium:
     9:
     0.791,1.000,0.570,0.165,0.257:
0000
0000
0000
0000
0000
0000
0000
0000
1001
0000
0000
0001
1000
0100
0010
0001
,
1001
0000
0000
0001
0010
0100
1000
0001
1001
0000
0001
0100
0000
1000
0100
0000
,
0001
1000
0100
0010
0000
0001
0010
0100
1000
0000
0100
0000
1000
0000
0100
0000
,
1000
0100
1000
0100
1000
0100
1000
0100
,
0010
0001
0010
0100
1000
0100
0010
0001
,
1000
0010
0100
0001
1000
0100
0010
0100
,
1000
0010
0100
0010
1000
0100
0010
0001
,
1000
0010
0100
0001
1000
1000
0100
0100
,
0010
0010
0001
1000
0001
0010
0100
1000
,
0001
0100
0010
1000
0001
0010
0100
0010
,
0001
0100
0010
0100
0001
0010
0100
1000
,
0001
0100
0010
1000
0001
0100
0010
0100
,
0001
0010
0100
0010
0100
1000
0010
0100
,
0001
0010
0100
1000
0001
0100
0010
1000
,
0100
0010
0100
1000
0010
0100
0001
0010
,
0100
1000
0001
0100
0010
1000
0100
1000
,
0010
0100
0001
0010
0001
0000
0000
0011
,
0011
0000
0000
0110
0110
0000
0000
1100
,
1100
0000
1001
0000
0101
0000
0000
0110
,
0110
0000
0000
1010
1010
0000
0000
1010
,
1001
0000
1100
0000
1000
0100
0010
0100
,
1000
0010
0100
0010
0100
0001
0010
0100
,
0010
0001
0100
0010
1000
0100
0010
0100
,
1000
0010
0100
0010
0100
0001
0010
0100
,
0010
0001
0010
0100
1000
0100
0010
0001
,
1000
0010
0100
0001
1000
0100
1000
0100
,
0010
0001
0010
0001
0010
0100
0010
0100
,
1000
0100
1000
0100
1000
0100
0010
0001
,
0010
0100
1000
0001
0100
0010
0100
0010
,
0100
0001
0100
0001
1000
0001
1000
0001
,
1000
0100
1000
0100
0010
0100
0010
0100
,
0010
0001
0010
0001
1000
0010
0100
0001
,
0010
0100
1000
0100
1100
0000
0000
0110
,
0110
0000
0000
0011
0011
0000
0000
1001
,
1001
0000
0101
0000
0110
0000
0000
1010
,
1010
0000
0000
1001
1001
0000
0000
1100
,
1001
0000
0000
0000
1010
0000
0000
0000
1010
0000
0000
0101
0000
0000
0011
0000
,
0000
0000
0000
0000
1000
0000
0100
0000
1100
0000
0000
0110
0000
0000
0011
0000
,
0000
0000
0010
0000
0001
0000
0010
0000
0011
0000
0000
0101
0000
0000
0110
0000
,
0000
0000
0010
0000
1000
0000
0100
0000
0110
0000
0000
0011
0000
0000
1001
0000
,
0000
0001
0100
0010
2000
0000
0000
0000
,
3020
0000
0230
0000
,
0302
0000
2003
0000
,
0000
3200
2000
3310
,
1100
0010
0001
0100
0101
0102
0000
0000
,
1000
1000
1000
0003
1010
2010
0000
0000
,
0001
0001
0001
3000
2002
0000
0000
0000
,
3013
0000
0202
0313
,
2200
0000
0000
0000
3310
0000
0000
0000
1000
0000
0001
0000
0100
0001
0100
0000
,
0010
0000
1000
0000
0100
1000
0100
0000
1000
0000
0001
0000
0100
0001
0100
0000
,
0001
0000
1000
0000
0100
1000
0100
0000
1000
0000
0001
0000
0010
0001
0010
0000
,
0001
0000
1000
0000
0010
1000
0010
0000
1000
0000
0001
0000
0100
0001
0100
0000
,
0010
0000
1000
0000
0100
0000
0010
0000
0001
0000
1000
0000
0100
1000
0100
0000
,
1000
0000
0001
0000
0100
0001
0100
0000
0001
0000
1000
0000
0100
1000
0100
0000
,
1000
0000
0001
0000
0010
0001
0010
0000
0001
0000
1000
0000
0010
1000
0010
0000
,
1000
0000
0001
0000
0100
0001
0100
0000
0001
0000
1000
0000
0100
0000
0010
0000
,
0001
0000
1000
0000
0010
0000
0100
0000
0001
0000
1000
0000
0100
1000
0100
0000
,
1000
0000
0001
0000
0100
0001
0100
0000
0001
0000
1000
0000
0010
1000
0010
0000
,
1000
0000
0001
0000
0010
0001
0010
0000
0001
0000
1000
0000
0010
1000
0010
0000
,
1000
0000
0001
0000
0100
0001
0100
0000
0001
0000
1000
0000
0100
0000
0010
0000
,
0001
0000
0010
0000
0100
0000
1000
0000
0001
0000
0100
0000
0001
0100
0001
0000
,
1000
0000
0100
0000
1000
0100
1000
0000
0001
0000
0010
0000
0001
0010
0001
0000
,
1000
0000
0010
0000
1000
0010
1000
0000
0001
0000
0100
0000
0010
0000
1000
0000
,
0100
0010
0001
0010
0100
1000
0001
0100
,
0010
0000
1000
0000
0100
0000
0010
0000
0001
0000
0010
0000
0001
0010
0001
0000
,
0010
0000
0100
0000
0010
0100
0010
0000
0100
0000
1000
0000
0100
1000
0100
0000
,
1000
0000
0001
0000
1000
0001
1000
0000
0001
0000
0100
0000
0010
0000
1000
0000
,
0100
0000
0000
0010
0000
0000
0001
0000
0000
0010
0000
0000
0100
0000
1000
0000
0100
0000
1000
0000
0100
0000
1000
0000
,
0200
0000
0000
0000
1300
0000
0000
1100
0110
0000
0011
0000
0011
0000
0000
0011
,
0110
0000
0000
0000
1100
0000
0000
0000
1000
0000
0100
1000
0100
0000
1000
0000
0001
0000
1000
0001
1000
0000
0000
0000
0001
0000
0100
0000
0010
0000
0220
0000
,
0000
0000
0330
0000
;
#NOTES:
     dance-single:
     Renard:
     Easy:
     6:
     0.406,0.616,0.276,0.129,0.005:
0000
0000
0000
0000
,
0000
0000
0000
0000
,
0000
0000
0001
0001
,
0001
0001
1000
1000
,
1000
1000
0001
0010
,
0001
0010
0001
0000
0010
0000
0001
0000
,
0010
0001
0010
0000
0001
0000
1000
0000
,
0001
1000
0001
0000
1000
0000
0001
0000
,
1000
0001
1000
0000
0100
0000
1000
0000
,
0100
1000
0100
0000
1000
0000
0010
0000
,
1000
0010
1000
0000
0001
0000
0100
0000
,
0001
0100
0001
0000
0010
0000
0001
0000
,
0010
0001
0010
0000
1001
0000
0000
0000
,
0001
0000
1000
0000
0001
1000
0001
1000
,
0001
1000
0110
0000
,
0010
0000
0100
0000
0010
0100
0010
0100
,
0010
0000
0100
0000
0110
0000
0000
0010
,
0100
0000
0000
0100
0001
0000
0000
0001
,
1000
0000
0000
0000
1100
0000
0000
0100
,
0010
0000
0000
0010
0001
0000
0000
0001
,
1000
0000
0000
0000
0001
0100
0001
0100
,
0001
0100
0001
0100
,
0001
0000
0000
0000
1000
0010
1000
0010
,
1000
0010
1000
0010
,
1000
0000
0000
0000
0100
1000
0100
1000
,
0100
1000
0100
1000
,
0100
0000
0000
0000
0010
0001
0010
0001
,
0010
0001
0010
0001
,
0010
0000
1001
0000
,
0001
1000
0001
1000
0001
0000
1000
0000
,
0001
0000
0110
0000
,
0010
0100
0010
0100
0010
0000
0100
0000
,
0010
0000
0000
0000
0110
0000
0000
0010
,
1000
0000
0000
1000
0001
0000
0000
0001
,
0100
0000
0000
0000
0101
0000
0000
0001
,
1000
0000
0000
1000
0100
0000
0000
0100
,
1000
0000
0000
0000
1001
0000
0000
0110
,
0000
0000
0000
0000
0110
0000
0000
1001
,
0000
0000
0000
0000
1001
0000
0000
0110
,
0000
0000
0000
0000
1001
0000
0000
0110
,
0000
0000
0020
0000
,
0230
0000
0302
0000
,
2003
3000
1200
0000
,
0000
0000
2300
0000
,
0000
3000
1002
0000
,
0000
0003
2001
0000
,
0000
0000
3000
0000
0120
0000
0000
0030
,
0210
0000
0000
0300
0010
0000
0100
0000
,
0001
1000
0001
0000
1000
0000
0100
0000
,
0010
0000
0001
0000
1000
0001
1000
0001
,
1000
0000
0001
0100
,
0010
0000
1000
0000
0001
1000
0001
1000
,
0001
0000
1000
0100
,
0010
0000
0001
0000
1000
0001
1000
0001
,
1000
0000
0001
0100
,
0010
0000
1000
0000
0001
1000
0001
1000
,
0001
0000
1000
0100
,
1000
0000
0100
1000
0100
0000
1000
0000
,
0100
1000
0001
0010
,
0001
0010
0001
0000
0011
0000
0011
0000
,
1000
0100
1001
1000
,
0010
0000
0010
0100
,
0001
0000
1000
0001
,
0100
0000
0010
0000
1000
0010
1000
0010
,
1000
0010
1000
0010
1000
0000
1000
0000
,
0010
0010
1000
1000
,
0010
0000
0100
0100
,
0001
0001
1001
0000
,
0110
0000
0020
0000
0130
0100
0002
0000
,
1003
0000
0000
0000
0100
0000
1100
0000
0010
0000
0011
0000
1001
0000
0000
0220
,
0000
0000
0330
0000
;
#NOTES:
     dance-single:
     Renard:
     Beginner:
     3:
     0.324,0.454,0.368,0.423,0.005:
0000
0000
0000
0000
,
0000
0000
0000
0000
,
0000
0000
1000
1000
,
0001
0001
1000
0001
,
1000
0001
0200
0000
,
0000
0310
2000
0000
,
0000
3100
0020
0000
,
0000
0031
2000
0000
,
0000
3010
0100
0100
,
0010
0010
0100
0100
,
0010
0010
1000
1000
,
0001
0001
1000
1000
,
0001
0001
2002
0000
,
0000
0000
0000
0000
,
3003
1001
0220
0000
,
0000
0000
0000
0330
,
0110
0000
0202
0000
,
0010
0000
1000
0000
,
0010
0303
2200
0000
,
0010
0000
0001
0000
,
0010
3300
1000
0000
,
0000
0001
0200
0000
,
0320
0000
1030
0000
,
0000
0001
0020
0000
,
0230
0000
1300
0000
,
0000
0001
0200
0000
,
0320
0000
1030
0000
,
0000
0001
0020
0000
,
0230
0300
2002
0000
,
0000
0000
0000
0000
,
3003
0110
2002
0000
,
3003
0110
2002
0000
,
3003
0110
1010
0000
,
0110
0000
0101
0000
,
0101
0000
0101
0000
,
0110
0000
1010
0000
,
1010
0000
2002
0000
,
0000
0000
0010
0000
,
0000
0000
0010
0000
,
0000
0000
0010
0000
,
0000
3003
2000
0000
,
0200
0000
0010
0000
,
0001
0000
0011
0000
,
0000
0000
0000
0000
,
0000
3300
1100
0000
,
0000
0000
0011
0000
,
0000
0000
1001
0000
,
1001
0000
0110
0110
,
1001
1001
0002
0000
,
2003
0000
3200
0000
,
0320
0030
0001
0010
,
0100
1000
0100
0010
,
0001
1000
0020
0000
,
2030
0000
3002
0000
,
0203
0300
0010
1000
,
0010
1000
0001
0100
,
0001
0100
0001
0001
,
1000
1000
0001
1000
,
0001
1000
0010
0010
,
0100
0100
0110
0000
,
1010
0000
0110
0000
,
0100
0001
1000
1000
,
0100
0100
0020
0000
,
0032
0000
2003
0000
,
3200
0000
0310
0010
,
0001
0001
1000
1000
,
0100
1000
0010
0010
,
0100
0100
2002
0000
,
3003
1000
1001
0001
,
1001
0000
0000
0000
0110
0000
0000
0000
1001
0000
0000
0000
0110
0000
0000
2002
,
0000
0000
0000
0000
0000
0000
0000
0000
0000
3003
0000
0000
0000
0000
0000
0000
;
