#TITLE:It's a Dream;
#SUBTITLE:;
#ARTIST:Emoticon & Lollipop;
#TITLETRANSLIT:;
#SUBTITLETRANSLIT:;
#ARTISTTRANSLIT:;
#CRChallenge:;
#BANNER:dream.jpg;
#BACKGROUND:dream-bg.jpg;
#LYRICSPATH:;
#CDTITLE:;
#MUSIC:dream.ogg;
#OFFSET:0.000;
#SAMPLESTART:21.560;
#SAMPLELENGTH:12.000;
#SELECTABLE:YES;
#DISPLAYBPM:100:225;
#BPMS:0.000=200.000,136.000=160.300,136.500=130.360,137.000=116.160,137.500=110.960,138.000=101.000,138.500=95.160,139.000=81.180,139.500=65.360,140.000=100.000,156.000=200.000,188.000=225.000,268.000=200.000;
#STOPS:164.500=0.040
;
#BGCHANGES:;
#NOTES:
     dance-single:
     Renard:
     Medium:
     9:
     0.698,0.840,0.512,0.069,0.065:
0000
0000
0000
0000
,
0000
0000
0000
0000
,
0000
0000
0000
0000
,
0000
0000
0000
0000
,
1000
0000
0001
0000
0000
0100
0010
0000
,
1000
0000
0001
0000
0000
0100
0010
0000
,
1000
0000
0001
0000
0000
0100
0010
0000
,
1000
0000
0100
0000
0010
0001
0010
0001
,
0010
0000
0100
0000
1000
0010
0100
0001
,
0100
0000
0010
0000
1000
0010
0100
0001
,
1000
0000
0001
0000
0010
0001
1000
0100
,
0010
0000
0001
0000
1000
0001
1000
0000
,
0001
0000
0100
0000
0010
1000
0010
1000
,
0001
0000
1000
0000
0100
1000
0100
1000
,
0001
0000
0010
0001
1000
0001
0100
0010
,
1000
0100
0010
0001
1000
0010
0100
0001
,
1000
0001
1000
0001
1000
0001
1000
0001
,
1000
1000
0001
0001
1000
0000
1000
0001
,
1000
0000
0010
0100
0001
0000
0101
0000
,
0110
1100
0110
0101
,
1001
0000
1000
0100
0010
0001
1000
0010
,
0000
0010
1000
0100
0010
0001
0010
0000
,
0011
0000
0010
0100
1000
0010
0100
0001
,
0000
0001
0100
0010
1000
0100
0010
0001
,
0000
0001
0000
0010
0100
1000
0100
1000
,
0000
0001
0000
0100
0010
1000
0010
0000
,
1010
1001
1100
1001
,
1001
0101
0110
0101
,
1001
0000
0001
0010
0100
1000
0100
1000
,
0000
1000
0001
0010
0001
1000
0010
0000
,
0100
0000
0001
0100
0001
0010
0100
1000
,
0000
1000
0100
1000
0001
0010
0001
1000
,
0000
1000
0010
0100
0001
0100
0000
0001
,
0000
1000
0000
0100
0010
0001
1000
0000
,
0002
0000
0000
0000
,
1003
0000
1100
0000
1000
0100
0010
0001
,
0000
0001
1000
0010
0000
0010
0100
0001
,
1000
0000
1000
0100
0010
0001
1000
0001
,
0100
0000
0010
0000
1000
0000
0100
1000
0000
0001
0000
0010
0000
0001
1000
0000
,
0001
0100
1000
0100
0001
0010
1000
0010
,
0001
0100
1000
0100
1000
0100
1000
0100
,
0001
0010
1000
0010
0001
0100
1000
0100
,
0001
0010
1000
0010
1000
0010
1000
0010
,
0001
0100
1000
0100
0001
1000
0100
0001
,
0100
1000
0010
0001
0010
1000
0100
0001
,
0100
1000
0010
0001
0010
0001
0010
0001
,
0010
1000
0100
0001
0100
0001
0100
1000
,
2002
0000
0000
0000
,
0000
0000
0000
0000
,
0000
0000
0000
0000
,
0000
0000
0000
3003
,
1001
0000
0100
0010
0000
1010
0000
0101
,
0000
1001
0000
1000
0100
0010
0001
0000
,
1001
0000
1000
0010
0000
0110
0000
0101
,
0000
0011
0000
0010
0100
1000
0001
0000
,
0110
0000
0010
1000
0000
1001
0000
0101
,
0000
1001
0000
1000
0100
0010
0001
0000
,
1001
0000
1000
0010
0000
0101
0000
1001
,
0110
1001
0110
1001
,
1010
0000
1000
0100
0000
0011
0000
0110
,
0000
0110
0000
0100
1000
0010
0100
0000
,
0101
0000
0001
1000
0000
1100
0000
0011
,
0000
1001
0000
1000
0010
0100
0001
0000
,
0011
0000
0010
0100
0000
1100
0000
1010
,
0000
0101
0000
0001
1000
0100
0010
0000
,
0011
0000
0010
0100
0000
1000
0000
0110
,
1001
0110
1001
0110
,
2002
0000
0000
0000
,
0000
0000
0000
3003
,
1000
0100
0010
0100
0001
0100
0010
0100
,
1000
0010
1000
0010
0100
0010
0001
0010
,
0100
0010
0100
0001
0100
0001
0010
0001
,
1000
0100
1000
0100
1000
0010
1000
0001
,
0100
0001
0100
0001
0010
0001
1000
0001
,
1000
0100
1000
0100
1000
0010
1000
0001
,
0100
0010
0100
0010
0100
0001
0010
0100
,
0010
0000
0010
0001
0000
0001
1000
0000
1000
0020
0000
0000
,
1030
0100
1000
0100
0001
0100
0001
0100
,
1000
0010
1000
0010
0001
0010
0001
0010
,
0100
0010
0100
0010
0100
1000
0100
1000
,
0100
0001
0100
0001
0010
0001
0010
0001
,
0010
1000
0010
1000
0001
1000
0001
1000
,
0001
0100
0001
0100
1000
0100
1000
0100
,
1000
0010
1000
0010
0001
0010
1000
0100
,
0010
0001
0010
0100
1000
0001
0100
0000
,
0110
0000
0000
1001
,
0001
0100
0001
0100
0001
0100
0001
0100
0001
0100
0001
0100
0001
0100
0001
0100
,
0000
0000
0000
0000
0002
0200
1010
0000
,
0303
0000
0000
0000
;
#NOTES:
     dance-single:
     Renard:
     Easy:
     6:
     0.417,0.458,0.026,0.078,0.000:
0000
0000
0000
0000
,
0000
0000
0000
0000
,
0000
0000
0000
0000
,
0000
0000
0000
0000
,
1000
0000
0001
0000
0000
0100
0001
0000
,
1000
0000
0001
0000
0000
0100
0001
0000
,
1000
0000
0001
0000
0000
0100
0001
0000
,
1000
1000
0100
0100
,
1000
0001
0100
0001
,
1000
0001
1000
0100
,
1000
0001
0100
0001
,
1000
0001
1000
0100
,
1000
0001
0010
0001
,
1000
0001
1000
0010
,
1000
0001
0010
0001
,
1000
0001
0100
0001
,
2000
0000
0000
0000
,
0000
0000
0000
0000
,
3100
0100
1000
0001
,
0010
0010
0001
0001
,
1000
0000
0010
1000
0010
0000
1000
0000
,
0001
0000
0100
0001
0100
0000
0001
0000
,
0010
0010
0001
1000
,
0100
0100
1000
0001
,
0100
0000
0001
0000
1000
0001
1000
0000
,
0100
1000
0001
0001
,
0010
0010
0001
0010
,
0100
1000
0100
1000
,
0001
0000
0100
0001
0100
0000
0001
0000
,
1000
0000
0100
1000
0100
0000
1000
0000
,
0001
0010
0001
1000
,
0010
1000
0001
0100
,
0001
1000
0100
1000
,
0001
0000
0100
0000
0001
1000
0001
0000
,
2002
0000
0000
0000
0000
0000
0000
3003
,
1000
0000
0001
0000
0100
0100
0010
0000
,
1000
0000
0100
0000
0010
0010
0001
1000
,
0010
0000
0100
0000
0001
1000
0001
0000
,
0010
0000
0100
0000
1000
0100
1000
0000
,
0001
0010
0001
0010
,
0001
1000
0001
1000
,
0100
1000
0100
1000
,
0001
0010
0001
1000
,
0010
0100
0010
0100
,
0001
1000
0001
1000
,
0100
1000
0001
0010
,
0001
0000
1000
0000
0010
1000
0010
0000
,
2002
0000
0000
0000
,
0000
0000
0000
0000
,
0000
0000
0000
0000
,
0000
0000
0000
3003
,
1000
1000
0100
0100
,
1000
0000
0001
0000
0100
0001
0100
0000
,
0001
0001
0010
0010
,
0100
0000
1000
0000
0100
1000
0100
0000
,
1000
1000
0001
0001
,
0100
0000
0100
0000
0010
0100
0010
0000
,
1000
0001
1000
0001
,
0100
0100
0100
0100
,
0010
0010
1000
0000
,
0010
0000
0100
0000
0001
1000
0001
0000
,
0100
0100
0010
0000
,
1000
0000
0001
0000
0010
0001
0010
0000
,
0100
0100
1000
0000
,
0001
0000
1000
0000
0100
1000
0100
0000
,
1000
0001
1000
0001
,
0010
0100
1000
0001
,
2000
0000
0000
0000
,
0000
0000
0000
3000
,
0001
1000
0001
0100
,
0010
0000
0100
0000
0010
0000
1000
0010
,
1000
0100
0010
0001
,
0010
0000
0100
0000
1000
0000
0001
1000
,
0001
0100
0010
1000
,
0001
0010
0001
1000
,
0010
0100
0001
1000
,
0100
0100
0100
1100
,
1000
0001
0100
0001
,
1000
0000
0001
0000
0010
0000
0100
1000
,
0100
1000
0010
0100
,
0001
0000
1000
0000
0001
0000
0010
0001
,
0010
0000
0001
0000
0010
0000
0100
1000
,
0100
0000
1000
0000
0010
0000
0100
0001
,
0100
0000
0001
0000
1000
0000
0100
1000
,
0001
0000
0001
0000
0100
0010
0000
0000
,
2000
0000
0000
0000
,
3010
0100
0010
0100
0010
0100
0002
2000
,
0000
0000
0000
0010
,
3003
0000
0000
0000
;
#NOTES:
     dance-single:
     Renard:
     Beginner:
     3:
     0.330,0.344,0.009,0.087,0.000:
0000
0000
0000
0000
,
0000
0000
0000
0000
,
0000
0000
0000
0000
,
0000
0000
0000
0000
,
0000
1000
0000
0001
,
0000
0100
0000
0010
,
0000
1000
0000
0001
,
0000
1000
0001
0100
,
0002
0000
0003
1000
,
0100
0010
0001
1000
,
0020
0000
0030
1000
,
0001
0100
0001
1000
,
0200
0000
0300
1000
,
0001
0100
0010
1000
,
0002
0000
0003
0010
,
0100
0100
1000
0001
,
0200
0000
0000
0000
,
0000
0000
0000
0300
,
0010
0010
0100
0100
,
0010
1000
0010
1000
,
0010
0010
0100
0100
,
0001
1000
0001
0010
,
0100
0100
1000
0001
,
0010
0010
0001
1000
,
0010
0010
0100
0100
,
0001
1000
0001
1000
,
0100
0100
0010
0010
,
0001
1000
0001
1000
,
0010
0000
0010
0000
,
0010
0000
0010
0000
,
1000
0001
1000
0001
,
0010
0000
0010
0000
,
0100
0000
0100
0000
,
1000
0100
1000
0100
,
2000
0000
0000
0000
,
3001
0001
0100
0100
,
0010
0010
1000
1000
,
0001
0001
1000
1000
,
0100
1000
0001
0010
,
0001
1000
0001
1000
,
0010
0100
0010
0000
,
1000
0010
1000
0010
,
0100
0001
0100
0000
,
0001
1000
0001
0000
,
0010
0100
0010
0000
,
0100
1000
0100
0000
,
0010
0001
1000
0001
,
0200
0000
0000
0000
,
0000
0000
0000
0000
,
0000
0000
0000
0000
,
0000
0000
0000
0300
,
0010
0010
0010
0010
,
1000
0010
1000
0010
,
0100
0100
0100
0100
,
0001
0100
0001
0100
,
0001
0001
0001
0001
,
0010
0100
0010
0100
,
1000
1000
1000
1000
,
0100
0100
0100
0100
,
1000
0001
1000
0000
,
0001
1000
0001
0000
,
0100
0010
0100
0000
,
0010
0100
0010
0000
,
1000
0010
1000
0000
,
0001
0100
0001
0000
,
1000
0100
1000
0000
,
0001
0001
0001
0001
,
0020
0000
0000
0000
,
0000
0000
0030
0000
,
0100
0100
1000
0001
,
0100
0100
0010
1000
,
0001
0001
0010
0100
,
1000
0001
1000
0001
,
0100
0100
0010
1000
,
0001
0001
0010
0100
,
1000
0001
1000
0001
,
0100
0100
0100
0000
,
0010
0000
1000
0010
,
0100
0100
0001
0000
,
0010
0000
0001
0010
,
0100
0100
1000
0001
,
0010
0000
0001
1000
,
0010
0000
1000
0001
,
0010
0000
0001
1000
,
0001
0001
0100
0000
,
1001
0000
0000
0000
,
1000
0010
2000
0002
,
0000
0000
0000
0010
,
3003
0000
0000
0000
;
