#TITLE:It's Not Over;
#SUBTITLE:;
#ARTIST:D-Mode-D feat. Kitsune?;
#TITLETRANSLIT:;
#SUBTITLETRANSLIT:;
#ARTISTTRANSLIT:;
#CRChallenge:;
#BANNER:over.jpg;
#BACKGROUND:over-bg.jpg;
#LYRICSPATH:;
#CDTITLE:;
#MUSIC:over.ogg;
#OFFSET:0.000;
#SAMPLESTART:42.627;
#SAMPLELENGTH:12.000;
#SELECTABLE:YES;
#BPMS:0.000=180.000;
#STOPS:;
#BGCHANGES:;
#NOTES:
     dance-single:
     Renard:
     Medium:
     9:
     0.644,0.815,0.156,0.245,0.095:
0000
0000
0000
0000
,
0000
0000
0000
0000
,
0000
0000
0000
0000
,
0000
0000
0000
0000
,
0000
0000
0000
0000
,
0000
0000
0000
0000
,
0000
0000
0000
0000
,
0000
0000
0000
0000
,
1000
0000
1000
0100
0010
0000
0010
0001
,
0100
0000
0100
0010
1000
0000
1000
0000
,
0100
1000
0010
1000
0001
1000
0001
0000
,
1000
0000
0100
0000
0010
0000
0001
1000
,
0010
0000
0010
0100
0001
0000
0001
0000
,
0010
0000
0010
0100
1000
0000
0010
0000
,
0100
0000
0010
0000
1000
0100
0010
0000
,
0001
0001
0001
0001
0001
0000
1010
0000
,
0010
1000
0100
0100
1000
0010
0010
1000
,
0001
1000
0010
0010
1000
0001
0001
1000
,
0100
1000
0010
0010
1000
0001
0001
1000
,
0100
1000
0010
0010
1000
0001
0001
0000
,
1000
0001
0100
0100
0001
0010
0010
0001
,
1000
0001
0100
0100
0001
1000
1000
0001
,
0010
0001
0100
0100
0001
0010
0010
0001
,
1000
0001
0100
0100
0001
1000
1000
0000
,
0010
1000
0100
0100
1000
0010
0010
1000
,
0001
1000
0010
0010
1000
0001
0001
1000
,
0100
1000
0010
0010
1000
0001
0001
1000
,
0100
1000
0010
0010
1000
0001
0001
0000
,
1000
0001
0100
0100
0001
0010
0010
0001
,
1000
0001
0100
0100
0001
1000
1000
0001
,
0010
0001
0100
0100
0001
0010
0010
0001
,
1000
0001
0100
0100
0001
1000
1000
0000
,
0001
0000
0000
0000
0100
0000
0010
0000
0000
0000
1000
0100
1000
0000
0100
1000
,
0100
0000
1000
0001
1000
0000
0001
0000
0000
0000
0100
0001
0100
0000
0001
1000
,
0002
0203
0320
2030
3200
0320
0001
0031
,
0001
0010
0000
0110
0000
1100
1100
0000
,
1000
0000
0000
0000
0010
0000
0100
0000
0000
0000
0001
0010
0001
0000
0010
0001
,
0010
0000
0001
1000
0001
0000
1000
0000
0000
0000
0010
1000
0010
0000
1000
0001
,
2000
0000
3100
0001
0100
0001
0100
0001
,
0100
1000
0000
1010
0000
0101
0102
0000
,
0203
0000
0000
0000
2300
0000
3002
0000
0000
0000
0013
1000
0010
0000
1000
0010
,
1000
0000
0010
0100
0010
0000
0100
0000
0000
0000
1000
0100
1000
0000
0100
0010
,
0200
2300
3002
0023
2030
3002
0100
0103
,
0100
0001
0000
1001
0000
1010
1010
0000
,
0010
0000
0000
0000
0001
0000
1000
0000
0000
0000
0100
0001
0100
0000
0001
0100
,
0001
0100
1000
0100
0001
0010
1000
0010
,
0200
0000
0301
0100
0001
0100
0001
0100
,
1000
0010
0000
0101
0000
1001
1001
0000
,
0001
0000
0001
0100
0010
0000
0010
1000
,
0100
0000
0100
0010
0001
0000
0001
0000
,
1000
0100
0010
0001
0010
0100
1000
0000
,
0001
0000
1000
0000
0000
0001
0100
0000
,
0010
0000
0010
1000
0100
0000
0100
0010
,
0001
0000
0001
0010
0100
0000
0100
1000
,
0010
0100
0001
0100
0010
1000
0100
0000
,
0010
0000
0001
0000
0000
0010
0100
1000
,
0010
0000
0010
0100
0001
0000
0001
1000
,
0100
0000
0100
0010
0100
0000
0100
1000
,
0010
0100
0001
0100
0010
1000
0100
0000
,
1000
0000
0001
0000
0000
0010
0001
1000
,
0020
0000
0230
0000
,
0302
0000
0023
0000
,
0000
0030
0000
0000
,
0100
0100
0100
0100
0100
1000
0011
0000
;
#NOTES:
     dance-single:
     Renard:
     Easy:
     6:
     0.365,0.532,0.022,0.400,0.000:
0000
0000
0000
0000
,
0000
0000
0000
0000
,
0000
0000
0000
0000
,
0000
0000
0000
0000
,
0000
0000
0000
0000
,
0000
0000
0000
0000
,
0000
0000
0000
0000
,
0000
0000
0000
0000
,
2000
0000
3002
0000
,
0203
0000
0320
0000
,
2030
3200
0320
0031
,
1000
0000
0001
0000
0100
0010
0100
0000
,
0020
0000
2030
0000
,
3200
0000
0320
0000
,
0032
0023
0230
1300
,
0010
0100
0010
0100
0010
0000
1001
0000
,
1000
0000
0000
0100
0000
0000
0010
0000
,
0001
0000
0000
0010
0000
0000
0100
0000
,
1000
0000
0000
0010
0000
0000
0100
0000
,
0001
0000
0000
0100
0000
0000
0010
0000
,
1000
0000
0000
0100
0000
0000
0010
0000
,
0001
0000
0000
0010
0000
0000
0100
0000
,
1000
0000
0000
0010
0000
0000
0100
0000
,
0001
0000
0000
0010
0000
0000
0100
0000
,
1000
0000
0000
0001
0000
0000
1000
0000
,
0010
0000
0000
0100
0000
0000
0010
0000
,
1000
0000
0000
0010
0000
0000
1000
0000
,
0001
0000
0000
0100
0000
0000
0001
0000
,
0010
0000
0000
0001
0000
0000
0010
0000
,
0100
0000
0000
1000
0000
0000
0100
0000
,
1000
0000
0000
0010
0000
0000
1000
0000
,
0001
0000
0000
0100
0000
0000
0001
0000
,
1000
0000
0000
0100
0000
0000
0010
0000
,
0001
0000
0000
0010
0000
0000
0100
0000
,
1000
0000
0001
1000
0001
1000
0001
1000
,
0010
0100
0000
0010
0000
0100
0010
0000
,
0100
0000
0000
0001
0000
0000
1000
0000
,
0100
0000
0000
1000
0000
0000
0001
0000
,
0010
0000
0001
0010
0001
0010
0001
0010
,
0001
0000
0000
0010
0000
0000
0100
0000
,
1000
0000
0000
0001
0000
0000
0100
0000
,
0010
0000
0000
1000
0000
0000
0001
0000
,
1000
0000
0100
1000
0100
1000
0100
1000
,
0100
1000
0000
0001
0000
0010
0001
0000
,
1000
0000
0000
0001
0000
0000
0100
0000
,
0010
0000
1000
0010
1000
0010
1000
0010
,
1000
0000
0000
0001
0000
0000
0100
0000
,
0001
1000
0000
0100
0000
1000
0001
0000
,
0020
0000
0032
0000
,
2003
0000
3002
0000
,
0203
0320
2030
3100
,
1000
0001
1000
0001
,
0200
0000
0000
0000
0320
0000
0000
0030
,
2000
0000
3200
0000
,
0310
0001
0010
0100
,
1000
0000
0010
0000
0100
0001
0100
0000
,
0002
0000
0023
0000
,
0230
0000
2300
0000
,
3002
0023
0230
1300
,
0001
0100
0001
1000
,
0200
0000
0320
0000
,
0032
0000
2003
0000
,
0000
3000
0000
0000
,
0010
0100
0010
0100
0010
0000
1001
0000
;
#NOTES:
     dance-single:
     Renard:
     Beginner:
     3:
     0.256,0.425,0.011,0.211,0.000:
0000
0000
0000
0000
,
0000
0000
0000
0000
,
0000
0000
0000
0000
,
0000
0000
0000
0000
,
0000
0000
0000
0000
,
0000
0000
0000
0000
,
0000
0000
0000
0000
,
0000
0000
0000
0000
,
2000
0000
3002
0000
,
0203
0000
0302
0000
,
2003
3002
0203
0302
,
1003
0000
0001
0000
,
2000
0000
3200
0000
,
0320
0000
0032
0000
,
2003
3200
0320
0031
,
1000
1000
1000
0001
,
1000
0000
0010
0000
,
0100
0001
0010
0100
,
1000
0000
0001
0000
,
0100
0010
0100
0010
,
1000
0000
0100
0000
,
0010
0001
0010
0100
,
1000
0000
0001
0000
,
0010
0100
1000
0000
,
0001
0000
1000
0000
,
0001
0100
0001
0000
,
1000
0000
0100
0000
,
0010
0010
0010
0000
,
0001
0000
1000
0000
,
0010
0100
0010
0100
,
0001
0000
1000
0000
,
0001
0010
0001
0010
,
0100
0000
0100
0000
,
0100
0000
0100
0000
,
0010
0000
0010
0000
,
0001
1000
0001
1000
,
0001
0000
0100
0000
,
0010
0000
1000
0000
,
0010
0010
0100
0100
,
0010
0000
1000
0000
,
0010
0000
1000
0000
,
0010
0000
0100
0000
,
0001
0100
0010
1000
,
0010
0000
0100
0000
,
0001
0000
0100
0000
,
0001
0100
0001
0100
,
0010
0000
0010
0000
,
1000
0010
1000
0010
,
1000
0000
0001
0000
,
0100
0000
0010
0000
,
1000
1000
1000
1000
,
0000
0000
0000
0000
,
0001
0000
0010
0000
,
0100
0000
1000
0000
,
0001
0001
0001
0001
,
0000
0000
0000
0000
,
0100
0000
0010
0000
,
1000
0000
0010
0000
,
0100
0001
1000
0100
,
0000
0000
0000
0000
,
0020
0000
0032
0000
,
2003
0000
3020
0000
,
0030
0000
0000
0000
,
0100
0100
0100
1001
;
