#TITLE:Isabel;
#SUBTITLE:;
#ARTIST:Sonitus Vir vs Azrael;
#TITLETRANSLIT:;
#SUBTITLETRANSLIT:;
#ARTISTTRANSLIT:;
#CRChallenge:;
#BANNER:isabel-banner.avi;
#BACKGROUND:isabel-bg.png;
#LYRICSPATH:;
#CDTITLE:;
#MUSIC:isabel.ogg;
#OFFSET:0.000;
#SAMPLESTART:6.647;
#SAMPLELENGTH:12.000;
#SELECTABLE:YES;
#DISPLAYBPM:180;
#BPMS:0.000=180.000,4.000=90.000,12.000=180.000,56.000=90.000,58.000=180.000,72.000=90.000,73.000=180.000,87.000=90.000,88.000=180.000,102.000=90.000,103.000=180.000,117.000=90.000,118.000=180.000,162.000=90.000,164.000=180.000,178.000=90.000,179.000=180.000,193.000=90.000,194.000=180.000,208.000=90.000,209.000=180.000,223.000=90.000,224.000=180.000,228.000=270.000,235.500=180.000;
#STOPS:;
#BGCHANGES:;
#NOTES:
     dance-single:
     Renard:
     Hard:
     12:
     1.000,0.871,0.285,0.208,1.000:
0000
0000
0000
0000
,
1001
0000
0000
0000
,
0000
0000
0000
0000
,
1000
0100
1000
0001
0010
0001
1000
0010
1000
0001
0100
0001
,
1000
0100
0010
0001
0010
0100
1000
0001
0010
0100
1000
0100
,
0010
0001
0010
0100
1000
0100
1000
0001
0100
0001
1000
0010
,
1000
0001
0010
0100
1000
0100
0010
0001
1000
0010
0100
0001
,
1000
0100
1000
0001
0010
0001
1000
0010
1000
0001
0100
0001
,
1000
0100
1000
0001
0010
0001
1000
0010
1000
0001
0100
0001
,
1000
0100
1000
0100
1000
0100
0010
0001
0010
0001
0010
0001
,
1000
0010
0100
0001
0010
0100
1000
0001
0100
0010
1000
0100
,
0010
0001
0010
0100
1000
0001
0100
0010
1000
0100
0010
0001
,
0010
0000
0010
0100
0000
0100
1000
0000
1000
0010
0000
0010
,
0100
0001
0100
0010
1000
0100
0010
0001
0010
0100
1000
0010
,
2002
0000
0000
0000
0000
0000
0000
0000
0000
3003
0000
0000
0001
0000
0010
0000
0100
0000
1000
0000
0100
0000
0010
0000
,
0001
0010
0100
1000
0010
0100
0001
0010
0100
1000
0100
0010
,
0001
1000
0010
0100
0001
0010
0100
1000
0001
0100
0010
1000
,
0100
0010
0001
0010
0100
1000
0001
0100
0010
1000
0100
0010
,
0022
0000
0033
1000
0100
1000
0001
0010
0001
1000
0010
1000
,
0001
0100
0001
1000
0100
0010
0001
0010
0100
1000
0001
0100
,
0010
1000
0100
0010
0001
0010
0001
1000
0100
1000
0001
0100
,
0001
1000
0100
0010
0001
0010
0100
1000
0010
2002
0000
3003
,
0001
0100
0010
1000
0100
0010
0001
0010
0100
1000
0001
0100
,
0010
1000
0100
1000
0001
0010
0001
1000
0010
1000
0001
1000
,
0100
0010
0001
0010
0100
1000
0001
0100
0010
1000
0100
0010
,
0001
0010
0100
1000
0001
0100
2002
0000
3003
0001
0100
0001
,
1000
0100
1000
0001
0010
0001
1000
0010
1000
0001
0100
0010
,
1000
0100
0010
0001
0010
0100
1000
0001
0010
0100
1000
0001
,
0010
0001
1000
0010
1000
0001
0100
0001
1000
0100
0010
0001
,
0010
0100
1000
0220
0000
0330
1000
0100
0001
0100
0010
0001
,
0010
1000
0010
0100
1000
0100
0001
0100
0010
0001
0010
1000
,
0010
0100
1000
0100
0001
0100
0010
0001
0010
1000
0010
0001
,
0010
0100
0001
0100
1000
0100
0010
0100
1000
0100
0001
0100
,
0010
0001
0010
0100
1000
0100
1000
0010
0001
0010
0100
1000
,
0100
0001
0100
0010
1000
0010
0100
0001
0100
0010
1000
0010
,
0100
0001
0100
1000
0100
0010
0001
0010
0100
1000
0100
0001
,
0100
0010
1000
0010
0100
0001
0100
0010
1000
0010
0100
0001
,
0100
0010
1000
0001
0100
0001
1000
0100
0010
0001
1000
0100
,
0010
0001
1000
0100
0010
0001
1001
0000
0000
0110
0000
0000
,
1001
0000
0000
0110
0000
0000
0001
0010
0100
1000
0001
0010
,
0100
0000
1000
0000
0001
0000
0010
0000
0100
0000
1000
0000
2002
0000
0000
0000
0000
0000
0000
0000
0000
3003
0000
0000
,
1000
0100
1000
0001
0010
0001
1000
0010
1000
0001
0100
0001
,
1000
0100
0010
0001
0100
0010
1000
0100
0010
0001
0100
0010
,
1000
0010
1000
0001
0100
0001
1000
0100
1000
0001
0010
0001
,
1000
0100
0010
0001
1000
0010
2002
0000
3003
0001
0010
0001
,
1000
0100
1000
0001
0100
0001
1000
0010
1000
0001
0100
0010
,
1000
0010
0100
0001
0010
0100
1000
0010
0100
0001
0010
0001
,
1000
0100
0010
0001
1000
0010
0100
0001
1000
0100
0010
0001
,
0010
0100
1000
2002
0000
3003
0001
0100
0001
0100
1000
0100
,
0010
0100
0010
0100
0001
0100
0001
0010
0001
0010
1000
0010
,
1000
0010
0100
0010
0100
1000
0100
1000
0100
1000
0010
1000
,
0010
0001
0010
0100
0010
0100
0001
0100
0001
1000
0001
1000
,
0200
0000
0300
1000
0100
1000
0100
0001
0100
0001
0100
0010
,
0100
0010
0001
0010
1000
0010
1000
0010
0100
0010
0100
0001
,
0100
1000
0100
1000
0010
1000
0010
0001
0010
0100
0010
0100
,
0001
0100
0001
1000
0100
1000
0100
0010
0100
2002
0000
3003
,
0110
0000
1001
0000
0000
0000
1001
0000
0110
0000
0000
0000
,
1010
0M0M
0101
M0M0
0011
MM00
1100
00MM
,
1010
0M0M
0101
M0M0
1001
0MM0
1001
0MM0
;
#NOTES:
     dance-single:
     Renard:
     Medium:
     9:
     0.718,0.643,0.197,0.022,1.000:
0000
0000
0000
0000
,
1001
0000
0000
0000
,
0000
0000
0000
0000
,
1000
0000
1000
0100
0000
0100
0010
0000
0010
0001
0000
0001
,
0010
0000
0010
0100
0000
0100
1000
0000
1000
0010
1000
0010
,
1000
0000
1000
0010
0000
0010
0100
0000
0100
0001
0000
0001
,
0010
0000
0010
0100
0000
0100
1000
0000
1000
0001
0100
0001
,
0100
0000
0100
0010
0000
0010
1000
0000
1000
0100
0000
0100
,
0010
0000
0010
0001
0000
0001
0010
0000
0010
0100
1000
0100
,
1000
0000
1000
0010
0000
0010
0100
0000
0100
0001
0000
0001
,
0010
0000
0010
0100
0000
0100
1000
0000
1000
0010
0000
0010
,
0100
0000
0100
0001
0000
0001
0100
0000
0100
0010
1000
0010
,
1000
0000
1000
0100
0000
0100
0010
0000
0010
0001
0000
0001
,
0010
0000
0010
0100
0000
0100
1000
0000
1000
0001
0100
0001
,
0200
0000
0000
0000
0000
0300
0001
0000
0001
0100
0000
0100
,
0010
0000
0010
1000
0010
1000
0100
0000
0100
1000
0000
1000
,
0001
0000
0000
0010
0000
0000
0011
0000
0000
0001
0000
0001
,
0010
0000
0010
0100
0000
0100
1000
0000
1000
0010
0100
0010
,
0100
0000
0000
1001
0000
0000
1000
0000
1000
0100
0000
0100
,
0010
0000
0010
0001
0000
0001
1000
0000
1000
0010
0000
0010
,
0100
0000
0100
0001
0000
0001
1000
0000
1000
0100
0000
0100
,
0010
0000
0010
0001
0000
0000
0010
0100
1000
0001
0000
0000
,
1000
0000
1000
0001
0000
0001
0100
0000
0100
0010
0000
0010
,
1000
0000
1000
0100
0000
0100
0010
0000
0010
0001
0010
0100
,
1000
0000
1000
0001
0000
0001
0100
0000
0100
0010
0000
0010
,
1000
0000
1000
0010
0000
0010
0100
0000
0000
0001
0000
0001
,
0100
0000
0100
0010
0000
0010
1000
0000
1000
0100
0000
0100
,
0010
0000
0010
0001
0000
0001
0010
0000
0010
0100
0000
0100
,
1000
0000
1000
0010
0000
0010
0100
0000
0100
0001
0000
0001
,
1000
0100
1000
0001
0000
0000
1000
0000
1000
0001
0000
0001
,
0100
0000
0100
0010
0100
0010
1000
0000
1000
0010
0000
0010
,
0100
0000
0100
0001
1000
0001
1000
0000
1000
0100
0000
0100
,
0010
0000
0010
0001
1000
0001
1000
0000
1000
0001
0000
0001
,
0100
0000
0110
0000
1001
0000
0110
0000
0010
1000
0000
1000
,
0001
0000
0001
0100
0001
0100
0001
0000
0001
1000
0000
1000
,
0100
0000
0100
0010
0001
0010
0100
0000
1000
0001
0000
0100
,
0010
0000
1000
0001
0000
0100
0010
0000
1000
0100
0000
0010
,
0001
0000
0010
0100
0000
1000
0001
0000
0001
0010
0000
0010
,
0100
0000
0100
1000
0100
0010
0001
0000
0000
1000
0000
0000
,
0100
0000
0000
0010
0000
0000
0001
0000
0001
0010
0000
0010
,
0100
0000
0100
1000
0100
0010
0002
0000
0000
0000
0000
0003
,
1000
0100
1000
0100
0000
0000
1000
0010
1000
0010
0000
0000
,
0100
0001
0100
0001
0000
0001
0010
0000
0010
0100
0000
0100
,
1000
0001
1000
0001
0000
0000
0100
0010
0100
0010
0000
0000
,
1000
0010
1000
0010
0000
0010
0100
0000
0000
0001
0100
0001
,
0100
0000
0000
0010
1000
0010
1000
0000
0000
0100
1000
0100
,
1000
0000
1000
0100
0000
0100
0010
0000
0000
0001
1000
0001
,
1000
0000
0000
0001
0100
0001
0100
0000
0000
0010
1000
0010
,
0100
0001
0100
0001
0000
0000
1000
0000
1000
0100
0000
0100
,
0010
0000
0010
0001
0010
0001
0010
0000
0010
0100
0000
0100
,
1000
0000
1000
0010
1000
0010
1000
0000
1000
0010
0000
0010
,
0100
0000
0100
0001
1000
0001
1000
0000
1000
0100
0000
0100
,
0010
0000
0000
0001
0000
0001
0010
0000
0010
0100
0000
0100
,
1000
0001
1000
0001
0000
0001
0100
0000
0100
0010
0000
0010
,
1000
0010
1000
0010
0000
0010
0100
0000
0100
0001
0000
0001
,
0010
0000
0010
0100
0000
1000
0001
0000
0100
0010
0000
0000
,
1010
0000
0101
0000
0000
0000
0101
0000
1010
0000
0000
0000
,
1010
0101
0011
1100
,
1010
0101
1001
0110
;
#NOTES:
     dance-single:
     Renard:
     Easy:
     6:
     0.415,0.450,0.285,0.022,0.115:
0000
0000
0000
0000
,
1001
0000
0000
0000
,
0000
0000
0000
0000
,
1000
0100
1000
0001
,
0010
0001
1000
0100
,
1000
0010
0100
0001
,
1000
0000
0000
1000
0000
0000
0001
0000
0100
0000
0010
0000
,
1000
0010
0100
0010
,
1000
0001
0100
0010
,
0100
0001
1000
0100
,
0010
0000
0000
0001
0000
0000
1000
0000
0010
0000
1000
0000
,
0010
0100
0001
0100
,
0110
0110
0110
0110
,
0010
1000
0100
1000
,
0011
0000
0010
0100
,
1000
0010
0100
0110
,
0100
0110
0100
0001
,
0010
0000
0000
0100
0000
0000
1000
0000
0000
0001
0100
0001
,
0100
0001
1000
0100
,
1000
0001
0010
0011
,
0001
0011
0010
0100
,
1000
0000
0000
0001
0000
0000
1000
0010
1000
0010
0000
0000
,
1000
1000
1010
1010
,
0010
0100
0101
0101
,
0001
0001
0011
0011
,
0010
0100
1100
1000
,
0001
0101
0101
0001
,
1000
1100
1100
1000
,
0001
0010
0001
1000
,
0010
0100
0010
0100
0000
0000
0001
0000
0000
0100
0000
0000
,
0010
1000
0010
1000
,
0100
0010
0001
1000
,
0100
0010
0001
1000
,
0010
0000
0010
0000
0010
0000
0010
0000
0000
1000
0000
0000
,
0010
0100
0001
0010
,
0001
1000
0100
0010
,
0100
1000
0001
0100
,
0001
0000
0001
0000
0001
0000
1000
0000
0000
0100
0000
0000
,
0010
0001
1001
0000
,
0001
0100
0010
1000
,
0100
0000
0000
0010
0000
0000
2002
0000
0000
0000
3003
0000
,
1000
1000
0001
0001
,
0100
0000
0000
0010
0000
0000
1000
0000
0000
1000
0000
1000
,
0010
0100
0001
0010
,
0100
1000
1001
1000
,
0001
0100
0010
1000
,
0100
0000
0000
0010
0000
0000
0001
0000
0001
1000
0000
0000
,
0010
0100
0001
1000
,
0100
1100
1000
0100
,
0010
0001
1000
0010
,
0100
0000
0000
0001
0000
0001
0100
0000
0000
0010
0000
0000
,
1000
0100
0010
0001
,
1001
0001
0100
0010
,
1000
0000
0000
0010
0000
0000
0100
0000
0001
1000
0000
0000
,
0100
0010
0001
0010
,
0100
0000
0000
1000
0000
0000
0001
0000
0001
0100
0000
0000
,
0010
0000
0010
0000
0000
0000
1000
0000
1000
0000
0000
0000
,
0001
0100
0010
1000
,
0100
0010
0001
1000
;
#NOTES:
     dance-single:
     Renard:
     Beginner:
     3:
     0.350,0.322,0.110,0.022,0.000:
0000
0000
0000
0000
,
1001
0000
0000
0000
,
0000
0000
0000
0000
,
1000
1000
0100
0010
,
0001
0001
0010
0100
,
1000
1000
0100
0010
,
0001
0001
0010
0100
,
1000
1000
0010
0100
,
0001
0001
0100
0010
,
1000
1000
0010
0100
,
0001
0001
0100
0010
,
1000
1000
1000
1000
,
0100
0010
0001
0010
,
0100
0100
0100
0010
,
0002
0003
1000
0000
,
0001
0100
0010
1000
,
0010
0100
0001
0000
,
0100
0001
0010
0100
,
1100
1000
0000
0001
,
0100
0010
1000
0010
,
0100
0001
0010
0001
,
1000
0100
1000
1001
,
1000
1000
0001
0001
,
0100
0010
1000
0100
,
0010
0010
0100
0100
,
1000
0001
1001
0001
,
0100
0001
0100
0010
,
0100
0010
0100
0010
,
1000
0100
1000
0001
,
0010
1001
1000
0000
,
0001
0100
0010
0000
,
1000
0100
0010
0000
,
0001
1000
0010
0010
,
0100
0100
0010
0000
,
1000
0001
0100
0000
,
0001
0010
0100
0000
,
1000
0010
0100
0001
,
0100
0010
1000
0010
,
0010
0010
0100
0010
,
0010
0010
1000
0010
,
0100
0010
1010
0000
,
1000
1000
0010
0010
,
0100
0001
1000
0100
,
0010
0010
0001
1000
,
0010
0010
0110
0100
,
0001
1000
0100
0100
,
0010
0001
1000
1000
,
0010
0100
0001
0010
,
0010
1001
0001
1000
,
0001
1000
0010
0100
,
0010
0100
0010
1000
,
0010
1000
0001
0100
,
0002
1003
1000
0100
,
0010
0001
0001
0010
,
0100
1000
1000
0001
,
0100
0010
1000
0001
,
0011
0000
1100
0000
,
1000
0001
1000
0001
,
1000
0001
0100
0010
;
