#TITLE:Intro Outro;
#SUBTITLE:;
#ARTIST:The A.M.D.A;
#TITLETRANSLIT:;
#SUBTITLETRANSLIT:;
#ARTISTTRANSLIT:;
#GENRE:;
#CRChallenge:;
#BANNER:intro.jpg;
#BACKGROUND:intro-bg.jpg;
#LYRICSPATH:;
#CDTITLE:!cdtitle.png;
#MUSIC:intro.ogg;
#OFFSET:0.000;
#SAMPLESTART:23.926;
#SAMPLELENGTH:12.000;
#SELECTABLE:YES;
#BPMS:0.000=145.000,32.000=177.700,130.000=133.000,194.000=266.000,255.000=133.000;
#STOPS:128.500=7.428
,252.000=0.451
,254.000=0.226
;
#BGCHANGES:;
#KEYSOUNDS:;
#NOTES:
     dance-single:
     Renard:
     Medium:
     10:
     0.667,0.000,0.538,0.036,0.485:
0000
0000
0000
0000
,
0000
0000
0000
0000
,
0000
0000
0000
0000
,
0000
0000
0000
0000
,
1000
0000
0000
0001
0000
0000
0100
0000
0010
0000
1000
0000
0100
0000
0010
0000
,
0001
0000
0000
1000
0000
0000
0001
0000
0000
0010
0000
0000
0001
0000
1000
0000
,
0010
0000
0000
0100
0000
0000
0001
0000
0100
0000
0010
0000
1000
0000
0100
0000
,
0010
0000
0001
0010
0100
1000
0100
0010
0001
1000
0100
0010
0001
0000
0000
0000
,
1000
0000
0000
0001
0000
0001
0100
0000
0000
0010
0000
0000
,
1000
0000
0000
0001
0000
0001
0100
0000
0000
0010
0000
0000
,
1000
0000
0000
0100
0000
0100
0001
0000
0000
0100
0000
0000
,
1000
0000
0000
0010
0000
0010
0001
0000
0000
0010
0000
0000
,
1000
0000
0000
0001
0000
0001
0100
0000
0000
0010
0000
0000
,
1000
0000
0000
0100
0000
0100
0010
0000
0000
0001
0000
0000
,
1000
0100
0010
0001
,
2002
0000
0000
3003
,
0101
0000
0000
1010
0000
0000
0101
0000
0001
0100
0000
0100
,
0010
0000
0010
1000
0000
1000
0100
0000
0100
0010
0000
0000
,
0011
0000
0000
0110
0000
0000
1100
0000
1000
0100
0000
0010
,
0001
0000
1000
0001
0000
0100
0010
0000
1000
0100
0000
0000
,
0011
0000
0000
1100
0000
0000
1010
0000
0010
0100
0000
0100
,
0001
0000
0100
0010
0000
1000
0100
0000
0010
0001
0000
0000
,
0011
0000
0000
0110
0000
0000
1100
0000
1000
0001
0000
1000
,
0010
0000
0100
0001
0000
0000
1010
0000
0000
0101
0000
0000
,
1001
0000
0000
1001
0000
0000
0010
0000
0010
0100
0000
0100
,
0010
0000
0010
1000
0000
1000
0100
0000
0100
0010
0000
0000
,
0011
0000
0000
0011
0000
0000
0001
0000
0001
0010
0000
0010
,
0100
0000
0100
1000
0000
1000
0010
0000
0010
0100
0000
0000
,
0101
0000
0000
0101
0000
0000
0100
0000
0100
0010
0000
0010
,
1000
0000
1000
0100
0000
0100
0010
0000
0010
0001
0000
0000
,
0010
0000
0000
0100
0000
1000
0001
0000
0000
0100
0000
0000
,
0010
0100
0010
0100
0001
1000
0100
0000
,
2MM2
0MM0
0MM0
0MM0
0MM0
0MM0
0MM0
0MM0
0MM0
0MM0
0MM0
0MM0
0MM0
0MM0
0MM0
0MM0
3MM3
0MM0
0MM0
0MM0
MMMM
MMMM
MMMM
MMMM
MMMM
MMMM
MMMM
MMMM
MMMM
0000
0000
0000
1000
0000
0000
0000
0000
0000
0000
0000
0001
0000
0000
0000
0000
0000
0000
0000
0010
0000
0000
0000
0000
0000
0000
0000
0100
0000
0000
0000
0000
0000
0000
0000
,
1000
0000
1001
0000
0001
0000
0010
0100
,
1000
0010
0001
0010
0100
0000
0100
0001
,
0010
0100
0001
0100
1000
0000
1000
0001
,
0100
0010
1000
0100
0010
0010
0001
0000
,
0010
0100
0100
1000
0000
0010
0100
0001
,
1000
1000
0001
0000
0010
0010
0100
1000
,
0010
0100
0100
0001
0000
0010
0001
1000
,
0100
1000
0001
0100
0010
0010
1000
0000
,
0001
0100
0100
0010
0000
1000
0100
0010
,
0001
1000
1001
0000
0001
0100
0010
0000
,
1000
0100
0010
0010
0000
0001
0010
0100
,
1000
0001
1001
0000
0001
0001
0100
0000
,
0010
1000
0100
0010
0001
1000
0001
0100
,
0010
1000
1010
0000
1000
0001
0101
0000
,
0001
0010
0100
0110
0000
0100
1000
0001
,
0100
0000
0010
0000
1000
0001
1000
0001
1100
0000
0000
0000
0011
0000
0000
0000
,
0101
1010
1100
0011
,
0101
1010
1010
0101
,
0011
1100
1010
0101
,
0011
1100
0011
1100
,
0011
1100
0101
1010
,
0101
1010
1100
0011
,
0101
1010
1001
1001
,
0110
0000
0110
0000
0010
1000
0001
0100
,
0010
1000
0100
0010
0001
0010
0100
1000
,
0001
0100
0010
1000
0100
1000
0001
0010
,
0001
1000
0010
0100
0001
0100
0010
1000
,
0100
0010
0001
0010
0100
1000
0001
0100
,
0010
1000
0100
1000
0001
0010
0100
1000
,
0001
0100
0010
1000
0100
1000
0001
0010
,
0100
0000
0000
0000
1000
0000
0001
0000
1000
0000
0000
0000
0001
0000
0100
0010
,
1000
0100
0010
0000
0001
0010
0100
1000
0001
0000
0000
0000
0100
0000
0010
1000
,
0100
0010
0001
0000
0010
0100
1000
0001
0100
0000
0000
0000
0010
0000
1000
0001
,
0100
0010
1000
0000
0100
0010
0001
0010
0100
0000
0000
0000
1000
0000
0001
0100
,
0010
1000
0100
0000
1000
0001
0010
0001
1000
0000
0000
0000
0010
0000
0100
0001
,
0100
0010
1000
0000
0100
0010
0001
0010
0100
0000
0000
0000
1000
0000
0001
0100
,
0010
1000
0100
0000
0010
0001
0010
0100
1000
0000
0000
0000
0001
0000
0100
0010
,
1000
0100
1000
0000
0001
0010
0100
0010
0001
0000
0000
0000
0100
0000
0010
1000
,
0100
0010
0001
0000
0010
0100
1000
0001
0100
0000
0000
0000
0000
0000
0000
0000
;
#NOTES:
     dance-single:
     pyroko:
     Hard:
     11:
     0.687,0.000,0.529,0.188,0.485:
0000
0000
0000
0000
,
0000
0000
0000
0000
,
0000
0000
0000
0000
,
0000
0000
0000
0000
,
1000
0000
0000
0010
0000
0000
0100
0000
1000
0000
0100
0000
0010
0000
0001
0000
,
1000
0000
0000
0100
0000
0000
0001
0000
0000
0010
0000
0000
0100
0000
0001
0000
,
0100
0000
0000
0010
0000
0000
0100
0000
1000
0000
0010
0000
0001
0000
0010
0000
,
1000
0000
0100
0010
0100
0001
0100
0010
0001
0100
1000
0100
0020
0000
0000
0030
,
1000
0000
0000
0010
0000
0100
1000
0000
0000
0100
0000
0000
,
0010
0000
0000
1000
0000
0100
0001
0000
0000
1000
0000
0000
,
0010
0000
0000
0001
0000
0100
0010
0000
0000
0001
0000
0000
,
1000
0000
0000
0100
0000
1000
0001
0000
0000
0010
0000
0000
,
1000
0000
0000
0100
0000
0010
1000
0000
0000
0010
0000
0000
,
0001
0000
0000
0100
0000
0010
0001
0000
0000
0010
0000
0000
,
0001
1000
0100
0001
,
0022
0000
0000
0033
,
0110
0000
0000
1010
0000
0000
1001
0000
0001
0100
0000
0100
,
0010
0000
0010
1000
0000
1000
0010
0000
0010
0100
0000
0000
,
1100
0000
0000
1010
0000
0000
0110
0000
0001
0100
0000
0010
,
1000
0000
1000
0100
0000
0100
0001
0000
0001
1000
0000
0000
,
1001
0000
0000
1010
0000
0000
0110
0000
0010
0001
0000
0100
,
0010
0000
1000
0100
0000
0010
0100
0000
1000
0001
0000
0000
,
0101
0000
0000
0110
0000
0000
1100
0000
1000
0100
0000
0100
,
0001
0000
0001
0010
0000
0000
0110
0000
0000
0101
0000
0000
,
1001
0000
0000
1010
0000
0000
0010
0000
0001
0100
0000
0010
,
1000
0000
0100
0001
0000
0001
1000
0000
1000
0010
0000
0000
,
0011
0000
0000
1100
0000
0000
1000
0000
0010
0001
0000
1000
,
0100
0000
0100
0001
0000
0010
0100
0000
1000
0100
0000
0000
,
1100
0000
0000
1100
0000
0000
0010
0000
0100
0010
0000
0001
,
0100
0000
0100
1000
0000
0100
0010
0000
0010
0001
0000
0000
,
1000
0000
0000
0100
0000
0001
1000
0000
0000
0100
0000
0000
,
0010
0100
0010
0100
0001
1000
0010
0000
,
MM22
MM00
MM00
MM00
MM00
MM00
MM00
MM00
MM00
MM00
MM00
MM00
MM00
MM00
MM00
MM00
MM33
MM00
MM00
MM00
MMMM
MMMM
MMMM
MMMM
MMMM
MMMM
MMMM
MMMM
MMMM
0000
0000
0000
0001
0000
0000
0000
0000
0000
0000
0000
0010
0000
0000
0000
0000
0000
0000
0000
1000
0000
0000
0000
0000
0000
0000
0000
0010
0000
0000
0000
0000
0000
0000
0000
,
0001
0000
1001
0000
0010
0000
0100
1000
,
0001
0010
0001
0010
1000
0000
0100
0001
,
1000
0010
0001
0100
1000
0000
1000
0001
,
0010
1000
0100
0001
1000
1000
0010
0000
,
0001
0100
0100
1000
0000
0100
0001
1000
,
0010
0010
0100
0000
0001
0001
0100
1000
,
0100
0010
0010
0001
0000
0010
1000
0100
,
0001
0000
1000
0000
0001
0000
0100
0000
0020
0000
0002
0000
1000
0033
0000
0000
,
0001
0000
2000
0000
0020
0000
0001
3030
0000
0000
0010
0000
0100
0000
0010
0000
,
1000
0000
0100
0000
0101
0000
0000
0000
0002
0000
0200
0000
1000
0303
0000
0000
,
0100
0000
0020
0000
0002
0000
0100
0033
0000
0000
0001
0000
0100
0000
1000
0000
,
0100
0000
1000
0000
1100
0000
0000
0000
0020
0000
2000
0000
0001
3030
0000
0000
,
0010
0100
0001
0010
0100
1000
0010
0001
,
0010
0000
1000
0000
1001
0000
0000
0000
0200
0000
0002
0000
1010
0303
0000
0000
,
0010
0000
2000
0000
0200
0000
0001
3300
0000
0000
0100
0000
1000
0000
0010
0000
,
0001
0000
0010
0000
1000
0010
0001
0010
1010
0000
0000
0000
1001
0000
0000
0000
,
0110
1100
1001
0110
,
0110
0011
1010
1100
,
0110
1001
1010
1100
,
1001
0110
0011
1010
,
1100
0110
1010
1001
,
1010
0110
1001
0110
,
0011
1010
0110
0110
,
1001
0000
0011
0000
0010
0001
1000
0010
,
0001
0010
1000
0100
0001
0100
0010
1000
,
0010
1000
0010
0100
1000
0010
0001
0010
,
1000
0100
0001
0100
1000
0010
0001
0010
,
0001
0010
0100
0010
1000
0100
0010
1000
,
0001
1000
0010
1000
0010
0100
1000
0010
,
0001
0010
1000
0100
0010
1000
0001
0200
,
0020
0000
0000
0000
0000
0000
0000
0000
0001
0000
0000
0000
1000
0000
0000
0000
0001
0330
0000
0000
0000
0000
0000
0000
0001
0000
0000
0000
1000
0000
0010
0000
,
1000
0010
0001
0000
0010
1000
0100
0010
1000
0000
0000
0000
0010
0000
1000
0010
,
0001
1000
0010
0000
0100
0010
0001
0010
0001
0000
0000
0000
0010
0000
1000
0010
,
1000
0100
0010
0000
0100
0010
1000
0001
1000
0000
0000
0000
0001
0000
1000
0010
,
1000
0010
0100
0000
1000
0001
1000
0010
0100
0000
0000
0000
0010
0000
0001
0010
,
1000
0100
0001
0000
0100
0010
1000
0010
1000
0000
0000
0000
0010
0000
0100
1000
,
0010
0001
0010
0000
0001
0010
1000
0100
0010
0000
0000
0000
1000
0000
0010
1000
,
0001
1000
0010
0000
0100
0010
0001
1000
0010
0000
0000
0000
0100
0000
0010
0001
,
0010
1000
0010
0000
1000
0100
0010
1000
0010
0000
0000
0000
0000
0000
0000
0000
;
#NOTES:
     dance-single:
     pyroko:
     Easy:
     8:
     0.450,0.000,0.395,0.045,0.049:
0000
0000
0000
0000
,
0000
0000
0000
0000
,
0000
0000
0000
0000
,
0000
0000
0000
0000
,
1000
0000
0001
0100
0001
0000
0010
0001
,
1000
0000
0001
0010
0001
1000
0001
0010
,
0001
0000
1000
0001
0010
0001
1000
0001
,
0010
0001
1000
0001
1000
0001
0010
0000
,
0001
1000
0010
0100
,
0010
1000
0100
0010
,
0100
1000
0001
0010
,
0001
1000
0001
1000
,
0010
0100
0010
1000
,
0100
0010
0100
1000
,
0100
0010
0001
1000
,
2002
0000
0000
3003
,
0010
0100
0010
1000
,
0100
0010
0100
1000
,
1100
1100
0100
0010
,
0001
1000
0001
0010
,
0011
0011
0001
1000
,
0010
0100
0010
1000
,
1001
1001
0100
1000
,
0001
0010
0001
1000
,
1001
0001
0010
0100
,
1000
0100
0010
0100
,
0110
0100
1000
0010
,
0100
0010
0100
0001
,
0101
0001
0010
0100
,
1000
0100
0010
0100
,
0110
0100
1000
0001
,
0010
0000
0001
0000
1000
0001
1000
0000
,
2MM2
0MM0
0MM0
0MM0
0MM0
0MM0
0MM0
0MM0
3MM3
0MM0
0MM0
0MM0
MMMM
MMMM
MMMM
0000
0000
0000
0000
0000
0000
0000
0000
0000
0000
0000
0000
0000
0000
0000
0000
0000
,
0000
0000
0000
0000
1000
0000
0000
0100
,
0010
0000
0000
0000
0100
0000
1000
0100
,
1000
0000
0000
0010
0100
0000
0000
0010
,
1000
0000
0000
0000
0001
0000
0010
0001
,
0010
0000
0000
0100
1000
0000
0000
0010
,
0100
0000
0000
0000
0001
0000
1000
0001
,
0010
0000
0000
0010
0100
0000
0000
0100
,
1000
0000
0010
0000
0100
0000
0010
1000
,
0100
0000
0000
0010
0100
0000
0000
0100
,
1000
0000
0001
0010
0001
0000
1000
0001
,
1000
0000
0000
0010
0100
0000
0000
0100
,
0010
0000
0010
0000
1000
0000
0100
0010
,
0100
0000
0000
0010
0001
0000
0000
0001
,
1000
0000
0001
0000
0100
0000
0010
0100
,
0010
0000
0000
0010
1000
0000
0100
0000
,
0010
0001
1001
1001
,
1001
1001
1001
1001
,
1001
1001
0110
0110
,
0110
0110
0110
0110
,
0110
0110
1010
1010
,
1010
1010
1010
1010
,
1010
1010
1100
1100
,
1100
1100
1100
1100
,
1100
1100
0100
0010
,
0001
1000
0001
0010
,
0001
1000
0010
1000
,
0010
0100
0010
0100
,
0010
1000
0100
0001
,
0100
1000
0010
0001
,
0010
1000
0100
0010
,
0200
0000
0000
0000
0300
0000
1000
0001
,
0100
0001
1000
0010
0100
0000
0010
0100
,
0010
0100
0010
0100
0010
0000
1000
0001
,
1000
0001
0010
0100
1000
0000
0100
0010
,
0100
1000
0001
0100
0001
0000
0010
0001
,
0010
0001
1000
0001
1000
0000
0010
1000
,
0010
0100
0010
1000
0010
0000
1000
0100
,
1000
0100
1000
0001
1000
0000
0010
0100
,
0010
0100
0010
0100
0010
0000
0000
0000
;
#NOTES:
     dance-single:
     pyroko:
     Beginner:
     5:
     0.295,0.000,0.197,0.045,0.013:
0000
0000
0000
0000
,
0000
0000
0000
0000
,
0000
0000
0000
0000
,
0000
0000
0000
0000
,
1000
0100
0010
0100
,
1000
0100
1000
0001
,
0100
0001
0100
0001
,
1000
0000
0001
0000
1000
0001
1000
0000
,
0001
0000
0100
0000
,
0010
1000
0010
1000
,
1100
0000
0110
0000
,
0001
1000
0001
0000
,
1001
0000
0110
0000
,
0010
1000
0010
0000
,
1100
0000
1001
0000
,
0220
0000
0000
0330
,
0010
0000
1000
0000
,
0100
1000
0100
0010
,
0001
0000
1000
0000
,
0010
0100
0010
0100
,
0010
0000
1000
0000
,
0001
1000
0001
1000
,
0100
0000
0010
0000
,
0100
0010
0100
1000
,
0001
0000
0100
0000
,
0010
1000
0010
0000
,
1000
0000
0001
0000
,
1000
0001
1000
0001
,
1000
0000
0001
0000
,
0100
0001
0100
0001
,
0010
0000
0100
0000
,
1000
0100
1000
0100
,
22MM
00MM
00MM
00MM
33MM
00MM
00MM
0000
0000
0000
0000
0000
0000
0000
0000
0000
,
0100
0000
0010
0000
,
0100
0000
1000
0100
,
1000
0000
0010
0000
,
0100
0000
0001
0100
,
0001
0000
0010
0000
,
0100
0000
1000
0100
,
1000
0000
0010
0000
,
0100
0000
0000
0000
0001
1000
0001
0000
,
0000
0010
0000
0000
,
0100
0000
0000
0000
1000
0100
1000
0000
,
0100
1000
0010
0100
,
0001
0000
0010
0000
0001
0010
0001
0000
,
1000
0001
1000
0010
,
0100
0000
0010
0000
0100
0010
0100
0000
,
0010
1000
0100
0010
,
0001
1000
0001
0000
,
1000
0000
0010
0000
,
0100
0000
0010
0000
,
1000
0000
0100
0000
,
0010
0000
0100
0000
,
1000
0000
0100
0000
,
0010
0000
0001
0000
,
1000
0000
0001
0000
,
0100
0000
0010
0010
,
1000
0000
0100
0100
,
0010
0000
0001
0001
,
1000
0000
0001
0001
,
0100
0000
0010
0100
,
0010
0000
1000
0100
,
1000
0000
0100
0010
,
0200
0000
0300
1000
,
0100
0010
0100
1000
,
1100
0100
0011
0001
,
1001
0001
0101
0010
,
0110
0010
1010
1000
,
1100
0100
0110
0010
,
0011
0001
0101
0001
,
1001
1000
1010
0010
,
0110
0100
0110
0000
;
