#TITLE:Insanitarium;
#SUBTITLE:;
#ARTIST:Kettu;
#TITLETRANSLIT:;
#SUBTITLETRANSLIT:;
#ARTISTTRANSLIT:;
#CRChallenge:;
#BANNER:insane.png;
#BACKGROUND:insane-bg.png;
#LYRICSPATH:;
#CDTITLE:;
#MUSIC:insane.ogg;
#OFFSET:0.000;
#SAMPLESTART:30.729;
#SAMPLELENGTH:12.000;
#SELECTABLE:YES;
#BPMS:0.000=195.000;
#STOPS:;
#BGCHANGES:;
#NOTES:
     dance-single:
     Renard:
     Hard:
     13:
     1.000,1.000,0.492,0.011,1.000:
0000
0000
0000
0000
,
0000
0000
0000
0000
,
0000
0000
0000
0000
,
0000
0000
0000
0000
,
1M11
MMMM
MMMM
MMMM
,
111M
MMMM
MMMM
MMMM
,
11M1
MMMM
MMMM
MMMM
,
M111
MMMM
MMMM
1001
,
1000
0100
1000
0100
0010
0001
0010
0001
1000
0100
1000
0100
0010
0001
0010
0001
,
1000
1000
1000
1000
,
0001
0010
0001
0010
0100
1000
0100
1000
0001
0010
0001
0010
0100
1000
0100
1000
,
0001
0001
0001
0001
,
1000
0100
1000
0100
0010
0001
0010
0001
1000
0100
1000
0100
0010
0001
0010
0001
,
1000
1000
1000
1000
,
0001
0010
0001
0010
0100
1000
0100
1000
0001
0010
0001
0010
0100
1000
0100
1000
,
0001
0001
0001
0001
,
0001
0100
0001
1000
0100
1000
0001
0100
0001
1000
0100
1000
0001
0010
0100
1000
,
0001
0100
0001
1000
0100
1000
0001
0100
0001
1000
0100
1000
0001
0010
0100
1000
,
0001
0100
0001
1000
0100
1000
0001
0100
0001
1000
0100
1000
0001
0010
0100
1000
,
0001
0100
0001
1000
0100
1000
0001
0010
0001
1000
0010
1000
0001
0000
0000
0000
,
1000
0010
1000
0001
0010
0001
1000
0010
1000
0001
0010
0001
1000
0100
0010
0001
,
1000
0010
1000
0001
0010
0001
1000
0010
1000
0001
0010
0001
1000
0100
0010
0001
,
1000
0010
1000
0001
0010
0001
1000
0010
1000
0001
0010
0001
1000
0100
0010
0001
,
1000
0010
1000
0001
0010
0001
1000
0100
1000
0001
0100
0001
1000
0000
0000
0000
,
0001
0000
0001
0001
0100
0001
0100
0000
,
0100
0000
0001
0000
0100
0000
0001
1000
0001
0000
0001
0000
0100
0000
0000
0000
,
0001
0000
0001
0001
0100
0001
0100
0000
,
0100
0000
0001
0000
0100
0000
0001
1000
0001
0000
1000
0000
0100
0000
0000
0000
,
1000
0000
1000
1000
0100
1000
0100
0000
,
0100
0000
1000
0000
0100
0000
1000
0001
1000
0000
1000
0000
0100
0000
0000
0000
,
1000
0000
1000
1000
0100
1000
0100
0000
,
0100
0000
1000
0000
0100
0000
1000
0001
1000
0000
0001
0000
0100
0000
0000
0000
,
0001
0100
0000
0000
0000
0000
0010
0000
0010
1000
0000
0000
0000
0000
0010
0000
,
1000
0010
1000
0000
0001
0100
0001
0000
1000
0010
1000
0000
0001
0100
0001
0000
,
1000
0010
0000
0000
0000
0000
0100
0000
0100
0001
0000
0000
0000
0000
0100
0000
,
0001
0100
0001
0000
1000
0010
1000
0000
0001
0100
0001
0000
1000
0010
1000
0000
,
0001
0100
0000
0000
0000
0000
0010
0000
0010
1000
0000
0000
0000
0000
0010
0000
,
1000
0010
1000
0000
0001
0100
0001
0000
1000
0010
1000
0000
0001
0100
0001
0000
,
1000
0010
0000
0000
0000
0000
0100
0000
0100
0001
0000
0000
0000
0000
0100
0000
,
0002
0000
0000
0000
,
1003
0100
0010
0001
0000
0001
0000
0000
,
1000
0100
0010
0001
0000
0001
0000
0000
,
1000
0100
0010
0001
1000
0001
1000
0001
1000
0000
0001
0000
0001
0000
0100
0010
,
1000
0100
0010
0001
1000
0001
1000
0001
1000
0000
0001
0000
0001
0000
0100
0010
,
1000
0100
0010
0001
0000
0001
0000
0000
,
1000
0100
0010
0001
0000
0001
0000
0000
,
1000
0100
0010
0001
1000
0001
1000
0001
1000
0000
0001
0000
0001
0000
0100
0010
,
1000
0100
0010
0001
1000
0001
1000
0001
1000
0000
0001
0000
0001
0000
0000
0000
,
0101
0010
0101
0000
0101
0000
0101
0000
,
0101
1000
0101
0000
0101
0000
0000
0000
,
1100
0010
1100
0000
1100
0000
1100
0000
,
1100
0001
1100
0000
1100
0000
0000
0000
,
1001
0010
1001
0000
1001
0000
1001
0000
,
1001
0100
1001
0000
1001
0000
0000
0000
,
0110
1000
0110
0000
0110
0000
0110
0000
,
0010
1000
0100
0000
0000
0000
0010
0001
0100
0000
0010
1000
0100
0000
0000
0000
,
1000
0010
1000
0001
0010
0001
1000
0010
1000
0001
0010
0001
1000
0100
0010
0001
,
1000
0010
1000
0001
0010
0001
1000
0010
1000
0001
0010
0001
1000
0100
0010
0001
,
1000
0010
1000
0001
0010
0001
1000
0010
1000
0001
0010
0001
1000
0100
0010
0001
,
1000
0010
1000
0001
0010
0001
1000
0100
1000
0001
0100
0001
1000
0000
0000
0000
,
0001
0100
0001
1000
0100
1000
0001
0100
0001
1000
0100
1000
0001
0010
0100
1000
,
0001
0100
0001
1000
0100
1000
0001
0100
0001
1000
0100
1000
0001
0010
0100
1000
,
0001
0100
0001
1000
0100
1000
0001
0100
0001
1000
0100
1000
0001
0010
0100
1000
,
0001
0100
0001
1000
0100
1000
0001
0010
0001
1000
0010
1000
0001
0000
0000
0000
,
1001
0000
1001
0001
0100
0001
0110
0000
,
0110
0000
0001
0000
0100
0000
0001
1000
0001
0000
0001
0000
0110
0000
0000
0000
,
1001
0000
0001
0001
0100
0001
0110
0000
,
1010
0000
0001
0000
0100
0000
0001
1000
0001
0000
1000
0000
0100
0000
0000
0000
,
1001
0000
1000
1000
0100
1000
0110
0000
,
0011
0000
1000
0000
0100
0000
1000
0001
1000
0000
1000
0000
0110
0000
0000
0000
,
0011
0000
1001
1000
0100
1000
0110
0000
,
0011
0000
1000
0000
0100
0000
1000
0001
1000
0000
0001
0000
0100
0000
0100
0000
;
#NOTES:
     dance-single:
     Renard:
     Challenge:
     13:
     0.790,1.000,0.535,0.043,0.706:
0000
0000
0000
0000
,
0000
0000
0000
0000
,
0000
0000
0000
0000
,
0000
0000
0000
0000
,
0000
0000
0000
0000
,
0000
0000
0000
0000
,
0000
0000
0000
0000
,
0000
0000
0000
0000
,
1000
0100
1000
0100
1000
0100
1000
0100
1000
0100
1000
0100
1000
0100
1000
0100
1000
0100
1000
0100
1000
0100
1000
0100
,
0010
0010
0010
0000
,
0001
0010
0001
0010
0001
0010
0001
0010
0001
0010
0001
0010
0001
0010
0001
0010
0001
0010
0001
0010
0001
0010
0001
0010
,
0100
0100
0100
0000
,
1000
0100
1000
0100
1000
0100
1000
0100
1000
0100
1000
0100
1000
0100
1000
0100
1000
0100
1000
0100
1000
0100
1000
0100
,
0010
0010
0010
0000
,
0001
0010
0001
0010
0001
0010
0001
0010
0001
0010
0001
0010
0001
0010
0001
0010
0001
0010
0001
0010
0001
0010
0001
0010
,
0100
0100
0100
0000
,
1000
0100
0001
0100
1000
0000
0000
0000
0001
0100
1000
0100
0001
0000
0000
0000
,
1000
0100
0001
0100
1000
0000
0000
0000
1001
0000
0000
0000
0000
0000
0000
0000
,
0001
0010
1000
0010
0001
0000
0000
0000
1000
0010
0001
0010
1000
0000
0000
0000
,
0001
0010
1000
0010
0001
0000
0000
0000
1001
0000
0000
0000
0000
0000
0000
0000
,
0010
1000
0100
1000
0010
0000
0000
0000
0100
1000
0010
1000
0100
0000
0000
0000
,
0010
1000
0100
1000
0010
0000
0000
0000
0110
0000
0000
0000
0000
0000
0000
0000
,
0100
0001
0010
0001
0100
0000
0000
0000
0010
0001
0100
0001
0010
0000
0000
0000
,
0100
0001
0010
0001
0100
0000
0000
0000
0110
0000
0000
0000
0000
0000
0000
0000
,
0220
0000
0000
1000
0000
0000
0001
0000
,
0001
0000
0000
1000
0000
0000
0001
0000
,
1000
0000
0000
1000
0000
0000
0001
0000
,
1000
0001
1330
0000
,
2002
0000
0000
0100
0000
0000
0010
0000
,
0100
0000
0000
0010
0000
0000
0100
0000
,
0100
0000
0000
0010
0000
0000
0100
0000
,
0010
0100
0010
3103
,
0001
0100
1000
0000
0000
0000
0000
0000
1000
0100
0001
0000
0000
0000
0000
0000
,
1000
0100
0001
0100
1000
0000
0000
0000
,
0001
0010
1000
0000
0000
0000
0000
0000
1000
0010
0001
0000
0000
0000
0000
0000
,
0001
0010
1000
0010
0001
0000
0000
0000
,
0001
0100
1000
0000
0000
0000
0000
0000
1000
0100
0001
0000
0000
0000
0000
0000
,
0001
0100
1000
0100
0001
1000
0100
0000
,
0001
0100
1000
0000
0000
0000
0000
0000
0001
0010
1000
0000
0000
0000
0000
0000
,
1000
0010
0100
1000
0001
0100
0010
0000
,
1000
0010
0001
0010
0100
0000
0100
0000
,
1000
0010
0001
0010
0100
0000
0100
0000
,
0010
0000
0010
0000
,
0010
0000
0010
0000
,
0001
0100
1000
0100
0010
0000
0010
0000
,
0001
0100
1000
0100
0010
0000
0010
0000
,
1000
0000
1000
0000
,
0100
1000
0010
0000
,
1001
1001
1001
1001
1001
1001
1001
1001
,
0010
0010
0010
0010
,
1001
1001
1001
1001
1001
1001
1001
1001
,
0100
0100
0100
0100
,
1010
1010
1010
0010
0100
0000
0100
0000
,
0011
0011
0011
0010
0100
0000
0100
0000
,
1001
1001
1001
0001
0100
0000
0100
0000
,
1011
0000
0000
0111
0000
1110
0000
0000
,
1000
0100
0001
0100
1000
0000
0000
0000
0001
0100
1000
0100
0001
0000
0000
0000
,
1000
0010
0001
0010
1000
0000
0000
0000
0001
0010
1000
0010
0001
0000
0000
0000
,
1000
0100
0001
0100
1000
0000
0000
0000
0001
0100
1000
0100
0001
0000
0000
0000
,
1000
0010
0001
0010
1000
0000
0000
0000
0001
0010
1000
0010
0001
0000
0000
0000
,
1000
0100
0001
0100
1000
0000
0000
0000
0001
0100
1000
0100
0001
0000
0000
0000
,
1000
0010
0001
0010
1000
0000
0000
0000
0001
0010
1000
0010
0001
0000
0000
0000
,
1000
0100
0001
0100
1000
0000
0000
0000
0001
0100
1000
0100
0001
0000
0000
0000
,
1000
0010
0001
0010
1000
0000
0000
0000
0001
0010
1000
0010
0001
0000
0000
0000
,
1001
0000
1001
0001
0100
0001
0110
0000
,
0110
0000
0001
0000
0100
0000
0001
1000
0001
0000
0001
0000
0110
0000
0000
0000
,
1001
0000
0001
0001
0100
0001
0110
0000
,
1010
0000
0001
0000
0100
0000
0001
1000
0001
0000
1000
0000
0100
0000
0000
0000
,
1001
0000
1000
1000
0100
1000
0110
0000
,
0011
0000
1000
0000
0100
0000
1000
0001
1000
0000
1000
0000
0110
0000
0000
0000
,
0011
0000
1001
1000
0100
1000
0110
0000
,
0011
0000
1000
0000
0100
0000
1000
0001
1000
0000
0001
0000
0100
0000
0100
0000
;
#NOTES:
     dance-single:
     Renard:
     Medium:
     9:
     0.670,0.653,0.214,0.000,0.000:
0000
0000
0000
0000
,
0000
0000
0000
0000
,
0000
0000
0000
0000
,
0000
0000
0000
0000
,
1000
0000
1000
0000
1000
0000
1000
0100
,
0010
0000
0010
0000
0010
0000
0010
0100
,
1000
0000
1000
0000
1000
0000
1000
0100
,
0010
0000
0010
0100
1000
0000
0001
0000
,
1000
0001
0100
0010
,
1010
0100
1001
0100
,
0001
1000
0100
0010
,
1001
0100
1010
0100
,
0001
0100
0010
1000
,
0101
1000
0110
1000
,
0001
0100
0010
1000
,
0101
1000
1010
0000
,
1000
0010
0100
0001
0010
0100
0001
0100
,
1000
0010
0100
1000
0100
0010
0100
0001
,
0010
0100
0001
0100
0010
0001
0010
1000
,
0010
0100
1000
0010
0001
0010
0100
1000
,
0100
0001
0010
0100
0001
0100
1000
0010
,
0100
1000
0100
0010
1000
0100
0010
1000
,
0010
0001
0010
0100
0001
0100
1000
0010
,
0100
0001
0010
0100
1000
0001
1001
0000
,
1000
0000
1000
0010
0000
0110
0000
0000
,
0000
0010
1000
0100
0010
0001
0010
0100
,
1000
0000
0001
1000
0000
0110
0000
0000
,
0000
0010
1000
0100
0010
0001
1000
0010
,
0100
0000
0010
0100
0000
1001
0000
0000
,
0000
0100
0010
1000
0100
0010
0001
1000
,
0010
0000
0110
1000
0000
0110
0000
0000
,
0110
0000
0000
0010
1000
0100
0010
0001
,
0010
0100
1000
0001
0100
0000
0000
0000
,
0100
0001
1000
0100
0010
0000
0000
0000
,
0010
0100
1000
0001
0100
0000
0000
0000
,
0100
0001
1000
0100
0010
0000
0000
0000
,
0100
1000
0001
0100
0010
0000
0000
0000
,
0010
0100
0001
1000
0100
0000
0000
0000
,
0100
1000
0001
0100
0010
0000
0000
0000
,
0010
0100
0001
1000
0001
0000
0000
0000
,
1000
0100
1000
0100
0010
0100
0010
0100
,
1000
0100
1000
0100
0010
0100
0010
0100
,
0010
0010
0001
0001
,
0010
0010
0001
0001
,
1000
0100
1000
0100
0010
0100
0010
0100
,
1000
0100
1000
0100
0010
0100
0010
0100
,
0010
0010
0001
0001
,
0010
0001
1001
0000
,
1000
0001
0100
0001
1000
0001
0100
0001
,
1000
0001
1000
0100
1000
0001
1000
0100
,
1000
0001
0100
0001
1000
0001
0100
0001
,
1000
0001
1000
0100
1000
0001
1000
0100
,
1000
0001
0100
0001
1000
0001
0100
0001
,
1000
0001
1000
0100
1000
0001
1000
0100
,
1000
0001
0100
0001
1000
0100
1000
0001
,
1000
0001
0000
1000
0001
0100
0001
0000
,
0100
0010
0100
1000
0100
0010
0100
0001
,
0010
0100
0010
1000
0010
0100
0010
0001
,
0100
0010
0100
1000
0100
0010
0100
0001
,
0010
0100
0010
1000
0010
0100
0010
0001
,
0100
0010
0100
1000
0100
0010
0100
0001
,
0010
0100
0010
1000
0010
0100
0010
0001
,
0100
0010
0100
1000
0100
0010
0100
0001
,
0010
0100
0010
1000
0010
0100
0010
0000
,
0001
0000
0010
0100
0000
0110
0000
0000
,
0100
1000
0010
0100
0001
0010
0100
1000
,
0010
0000
0010
0100
0000
0110
0000
0000
,
0010
1000
0100
0010
0001
0010
0100
1000
,
0010
0100
0001
0100
0000
0110
0000
0000
,
0100
0010
1000
0100
0010
0001
0010
0100
,
1000
0010
0100
0001
0000
0101
0000
0000
,
0100
0010
1000
0100
0010
0001
1000
1000
;
#NOTES:
     dance-single:
     Renard:
     Easy:
     6:
     0.454,0.499,0.278,0.043,0.000:
0000
0000
0000
0000
,
0000
0000
0000
0000
,
0000
0000
0000
0000
,
0000
0000
0000
0000
,
1000
1000
1000
1000
,
1000
1000
1000
1000
,
0001
0001
0001
0001
,
0001
0001
0001
1000
,
0010
0100
0010
0100
,
0010
0000
0010
0000
0010
0000
0010
0100
,
0001
0001
1000
1000
,
0001
0000
0001
0000
0001
0000
0001
1000
,
0100
1000
0100
1000
,
0100
0000
0100
0000
0100
0000
0010
0001
,
1000
1000
0010
0010
,
0100
0100
0001
0001
,
1000
0000
0100
0000
1000
0100
1000
0000
,
0001
0000
1000
0000
0001
1000
0001
0000
,
0100
0000
0001
0000
0100
0001
0100
0000
,
0001
0000
1000
0000
0001
1000
0001
0000
,
1000
0000
0010
0000
1000
0010
1000
0000
,
0001
0000
1000
0000
0001
1000
0001
0000
,
1000
0000
0001
0000
0010
0001
0010
0000
,
0001
0000
1000
0000
0001
1000
0001
0000
,
1000
0000
1000
0100
0000
1100
0000
0000
,
0000
0100
0000
1000
0100
1000
0000
0000
,
0001
0000
0001
1000
0000
1001
0000
0000
,
0000
1000
0000
0001
1000
0001
0000
0000
,
0010
0000
0010
0001
0000
0011
0000
0000
,
0000
0001
0000
0010
0001
0010
0000
0000
,
0001
0000
0001
1000
0000
1001
0000
0000
,
0000
1000
0000
0010
1000
0010
0000
0000
,
1000
0000
0010
0000
,
0100
0000
0001
0000
1000
0001
1000
0000
,
0001
0000
0100
0000
,
0010
0000
1000
0000
0001
1000
0001
0000
,
1000
0000
0010
0000
,
0100
0000
0001
0000
1000
0001
1000
0000
,
0001
0000
0100
0000
,
0010
0000
1000
0000
0001
1000
0001
0000
,
1000
0000
0000
0100
0000
1000
0000
0000
,
0001
0000
0000
0010
0000
0001
0000
0000
,
2000
0000
0000
0000
0000
0000
0000
3000
,
0200
0000
0000
0000
0000
0000
0000
0300
,
0010
0000
0000
0001
0000
1000
0000
0000
,
0001
0000
0000
0010
0000
0001
0000
0000
,
2000
0000
0000
0000
0000
0000
0000
3000
,
0020
0000
0000
0000
0000
0000
0000
0030
,
0100
0101
0100
0110
,
0100
0101
0100
0110
,
0100
0101
0100
0110
,
0101
0110
0101
0000
,
0100
0110
0100
1100
,
0100
0110
0100
1100
,
0100
0110
0100
1100
,
0110
0000
0000
1001
0000
0110
0000
0000
,
0010
1000
0010
0100
,
0001
0000
1000
0000
0100
0010
0001
0000
,
1000
0100
1000
0010
,
0100
0000
0001
0000
0010
0100
1000
0000
,
0100
1000
0010
0100
,
0001
0000
0010
0000
0100
0010
0001
0000
,
0100
0010
1000
0100
,
0010
0000
0001
0000
0010
0100
1000
0000
,
0001
0000
0001
1000
0000
1001
0000
0000
,
0000
1000
0000
0010
1000
0001
0000
0000
,
1000
0000
0001
0100
0000
1001
0000
0000
,
0000
0001
0000
0100
0001
1000
0000
0000
,
0001
0000
1000
0010
0000
1010
0000
0000
,
0000
1000
0000
0010
0100
0001
0000
0000
,
1000
0000
0010
0100
0000
1001
0000
0000
,
0000
0100
0000
0001
1000
0100
1000
0001
;
#NOTES:
     dance-single:
     Renard:
     Beginner:
     3:
     0.315,0.345,0.043,0.086,0.000:
0000
0000
0000
0000
,
0000
0000
0000
0000
,
0000
0000
0000
0000
,
0000
0000
0000
0000
,
1000
1000
1000
0000
,
0001
0001
0001
0000
,
1000
1000
1000
0000
,
0001
0001
1000
1001
,
0001
0000
0001
0000
,
1000
0100
0010
0001
,
1000
0000
1000
0000
,
0001
0010
0100
1000
,
0001
0000
0001
0000
,
1000
0100
0010
0001
,
1000
0000
1000
0000
,
0001
0010
0100
1000
,
0002
0000
0103
0000
,
0002
0000
0013
0000
,
2000
0000
3100
0000
,
2000
0000
3010
0000
,
2000
0000
3010
0000
,
2000
0000
3100
0000
,
0002
0000
0013
0000
,
0002
0000
0103
0000
,
0001
0100
0001
0100
,
0010
1000
0010
1000
,
0100
1000
0100
1000
,
0001
0000
0010
0000
,
0001
1000
0001
1000
,
0010
1000
0010
1000
,
0001
0100
0001
0100
,
0001
1000
0001
0000
,
1000
0000
0100
0000
,
0010
0010
0010
0010
,
0001
0000
0100
0000
,
0010
0010
0010
0010
,
1000
0000
0100
0000
,
0010
0010
0010
0010
,
0001
0000
0100
0000
,
0010
0010
0010
0010
,
1000
0000
0010
0000
,
0000
0000
0001
0000
,
0100
0000
0010
0000
,
0000
0000
1000
0000
,
0001
0000
1000
0000
,
0000
0000
0100
0000
,
0010
0000
0001
0000
,
0000
0000
1000
0000
,
0001
0100
0001
0100
,
0001
0100
0101
0000
,
0010
1000
0010
1000
,
0010
1000
1010
0000
,
0001
1000
0001
1000
,
0001
1000
1001
0000
,
0100
0001
0100
0001
,
0100
0000
0010
0000
,
0100
0000
0010
0000
,
1000
0010
0100
0001
,
0100
0000
0010
0000
,
1000
0010
0100
0001
,
0100
0000
0010
0000
,
1000
0010
0100
0001
,
0100
0000
0010
0000
,
1000
0010
0100
0001
,
1000
1000
0001
0000
,
0001
0001
1000
0000
,
0010
0010
0100
0000
,
0100
0100
0010
0000
,
1000
1000
0010
0000
,
0100
0100
0001
0000
,
0001
0001
0010
0000
,
0100
1000
0001
0100
;
